osu file format v14

[General]
AudioFilename: audio.mp3
AudioLeadIn: 0
PreviewTime: 160073
Countdown: 0
SampleSet: Soft
StackLeniency: 0.5
Mode: 0
LetterboxInBreaks: 0
WidescreenStoryboard: 0

[Editor]
Bookmarks: 11490,16823,27490,38157,48823,59490,64823,70157,94157,96823,107490,118157,128823,139490,144823,150157,155490,160823,184823,187490,198157,208823,222157,232823,244823,274157,276823,287490,298157,303490
DistanceSpacing: 0.6
BeatDivisor: 4
GridSize: 8
TimelineZoom: 1

[Metadata]
Title:Neo-Aspect
TitleUnicode:Neo-Aspect
Artist:Roselia
ArtistUnicode:Roselia
Creator:Shirahane Suou
Version:Egal wie oft ich versage, ich werde immer bei dir sein.
Source:バンドリ! ガールズバンドパーティ!
Tags:BanG Dream! Girls Band Party bandori バンドリ japanese rock j-rock jrock video game anime garupa ガルパ ロゼリア full size neoaspect minato yukina 湊友希那 aiba aina 相羽あいな hikawa sayo 氷川紗夜 kudou haruka 工藤晴香 imai lisa 今井リサ endou yurika 遠藤ゆりか udagawa ako 宇田川あこ sakuragawa megu 櫻川めぐ shirokane rinko 白金燐子 akesaka satomi 明坂聡美 Wahl Anfang Episode Yakusoku 約束 promise Song I am. neo aspect bandori!
BeatmapID:3647690
BeatmapSetID:1781201

[Difficulty]
HPDrainRate:5
CircleSize:4.4
OverallDifficulty:9.2
ApproachRate:9.4
SliderMultiplier:2
SliderTickRate:1

[Events]
//Background and Video events
0,0,"neoaspect.jpg",0,0
//Break Periods
//Storyboard Layer 0 (Background)
//Storyboard Layer 1 (Fail)
//Storyboard Layer 2 (Pass)
//Storyboard Layer 3 (Foreground)
//Storyboard Layer 4 (Overlay)
//Storyboard Sound Samples

[TimingPoints]
824,333.333333333333,4,2,1,40,1,0
824,-250,4,2,1,40,0,0
10323,-125,4,2,1,50,0,0
10823,-166.666666666667,4,2,1,50,0,0
11323,-166.666666666667,4,2,1,60,0,0
11490,-500,4,2,1,60,0,0
11990,-90.9090909090909,4,2,1,60,0,0
12490,-500,4,2,1,60,0,0
12990,-90.9090909090909,4,2,1,60,0,0
14157,-500,4,2,1,60,0,0
14657,-90.9090909090909,4,2,1,60,0,0
15157,-500,4,2,1,60,0,0
15657,-90.9090909090909,4,2,1,60,0,0
16823,-111.111111111111,4,2,1,70,0,0
27490,-500,4,2,1,40,0,0
38157,-142.857142857143,4,2,1,50,0,0
47657,-100,4,2,1,50,0,0
48823,-125,4,2,1,50,0,0
59490,-111.111111111111,4,2,1,60,0,0
68823,-111.111111111111,4,2,1,50,0,0
69490,-500.000000000003,4,2,1,50,0,0
70157,-83.3333333333333,4,2,1,80,0,1
80823,-95.2380952380952,4,2,1,80,0,1
94157,-333.333333333333,4,2,1,70,0,0
94240,-333.333333333333,4,2,1,50,0,0
96323,-500,4,2,1,50,0,0
96823,-111.111111111111,4,2,1,70,0,0
118157,-125,4,2,1,50,0,0
139490,-111.111111111111,4,2,1,60,0,0
144823,-142.857142857143,4,2,1,50,0,0
150157,-111.111111111111,4,2,1,60,0,0
160490,-83.3333333333333,4,2,1,60,0,0
160823,-83.3333333333333,4,2,1,80,0,1
171490,-95.2380952380952,4,2,1,80,0,1
184823,-333.333333333333,4,2,1,70,0,0
184907,-333.333333333333,4,2,1,50,0,0
186990,-133.333333333333,4,2,1,50,0,0
187490,-111.111111111111,4,2,1,50,0,0
188490,-333.333333333333,4,2,1,50,0,0
190157,-166.666666666667,4,2,1,50,0,0
191490,-100,4,2,1,50,0,0
191990,-133.333333333333,4,2,1,50,0,0
192490,-200,4,2,1,50,0,0
192823,-111.111111111111,4,2,1,50,0,0
193823,-333.333333333332,4,2,1,50,0,0
195490,-125,4,2,1,60,0,0
208823,-90.9090909090909,4,2,1,70,0,1
222157,-250,4,2,1,40,0,0
232490,-100,4,2,1,50,0,0
232823,-142.857142857143,4,2,1,50,0,0
234823,-333.333333333334,4,2,1,50,0,0
235157,-200,4,2,1,50,0,0
235490,-142.857142857143,4,2,1,50,0,0
242157,-1000,4,2,1,50,0,0
244573,-1000,4,2,1,5,0,0
244823,-83.3333333333333,4,2,1,80,0,1
255490,-95.2380952380952,4,2,1,80,0,1
271490,-83.3333333333333,4,2,1,80,0,1
274157,-333.333333333333,4,2,1,70,0,0
274240,-333.333333333333,4,2,1,50,0,0
276823,-111.111111111111,4,2,1,70,0,0
287490,-95.2380952380952,4,2,1,80,0,1
298157,-250,4,2,1,40,0,0

[Colours]
Combo1 : 250,164,131
Combo2 : 244,180,207
Combo3 : 180,157,210
Combo4 : 248,197,150

[HitObjects]
128,76,824,6,0,P|165:71|200:104,1,80,2|0,0:2|0:0,0:0:0:0:
333,147,1323,2,0,P|295:142|260:175,1,80,2|0,0:2|0:0,0:0:0:0:
118,227,1823,6,0,B|94:188|55:185|55:185|146:144|188:209|170:228|241:289|322:236,1,360,2|0,0:2|0:0,0:0:0:0:
370,301,3490,6,0,P|389:279|385:218,1,80,2|0,0:2|0:0,0:0:0:0:
500,131,3990,2,0,P|471:125|420:159,1,80,2|0,0:2|0:0,0:0:0:0:
322,32,4490,6,0,B|286:97|338:157|338:157|286:102|218:139|218:139|251:185|229:234,1,360,2|0,0:2|0:0,0:0:0:0:
249,314,6157,6,0,P|210:304|170:296,1,80,2|0,0:2|0:0,0:0:0:0:
72,215,6657,2,0,P|111:207|150:197,1,80,2|0,0:2|0:0,0:0:0:0:
310,94,7157,6,0,B|321:24|251:7|251:7|179:71|198:167|295:197,1,360,2|0,0:2|0:0,0:0:0:0:
357,257,8823,6,0,P|384:232|382:176,1,80,2|0,0:2|0:0,0:0:0:0:
500,102,9323,2,0,P|464:91|417:120,1,80,2|0,0:2|0:0,0:0:0:0:
294,55,9823,2,0,P|302:90|351:117,1,80,2|0,0:2|0:0,0:0:0:0:
510,271,10323,6,0,B|474:233|427:252|427:252|423:297|374:321,1,160,2|0,0:2|0:0,0:0:0:0:
204,234,10823,6,0,B|200:198|179:180|179:180|204:197|236:195,1,119.999996337891,2|2,0:2|0:2,0:0:0:0:
269,348,11323,5,0,3:2:0:0:
266,358,11407,1,0,3:2:0:0:
263,367,11490,1,0,3:2:0:0:
77,243,11657,2,0,L|85:214,1,30,0|0,3:2|0:0,0:0:0:0:
148,157,11990,6,0,B|186:95|132:49|132:49|79:87,1,165.000005035401,10|0,0:2|0:0,0:0:0:0:
27,121,12323,5,0,3:2:0:0:
17,118,12407,1,0,3:2:0:0:
8,115,12490,1,0,3:2:0:0:
202,2,12657,2,0,L|231:10,1,30,0|0,3:2|0:0,0:0:0:0:
300,68,12990,6,0,B|358:53|358:53|376:17|376:17|477:-5,1,165.000005035401,10|0,0:2|0:0,0:0:0:0:
512,36,13323,1,0,3:2:0:0:
315,264,13490,5,0,3:2:0:0:
288,255,13573,1,0,3:2:0:0:
272,233,13656,1,0,3:2:0:0:
270,205,13740,1,0,3:2:0:0:
283,182,13823,2,0,B|309:174|341:189|341:189|381:170|381:170|416:187|474:168,1,165.000005035401,10|0,0:2|0:0,0:0:0:0:
512,154,14157,5,0,3:2:0:0:
325,21,14323,2,0,P|317:38|316:53,1,30,0|0,3:2|0:0,0:0:0:0:
404,55,14657,6,0,B|314:46|350:123|243:103,1,165.000005035401,10|0,0:2|0:0,0:0:0:0:
188,77,14990,5,0,3:2:0:0:
182,66,15073,1,0,3:2:0:0:
186,55,15157,1,0,3:2:0:0:
345,221,15323,2,0,L|337:250,1,30,0|0,3:2|0:0,0:0:0:0:
268,295,15657,6,0,B|204:281|204:281|186:245|186:245|128:230,1,165.000005035401,10|0,0:2|0:0,0:0:0:0:
60,268,15990,1,0,3:2:0:0:
261,203,16157,6,0,P|269:180|257:138,1,55.0000016784668,10|0,0:2|0:0,0:0:0:0:
89,20,16323,1,2,3:2:0:0:
41,22,16407,1,0,3:2:0:0:
9,56,16490,1,2,3:2:0:0:
4,92,16573,1,0,3:2:0:0:
17,114,16657,1,0,3:2:0:0:
36,121,16740,1,0,3:2:0:0:
47,119,16823,6,0,L|126:98,1,44.999998626709,14|0,0:2|0:0,0:0:0:0:
278,58,16990,1,0,3:2:0:0:
170,29,17157,1,0,3:2:0:0:
429,75,17323,6,0,L|350:96,1,44.999998626709,14|0,0:2|0:0,0:0:0:0:
196,137,17490,1,0,3:2:0:0:
304,166,17657,1,0,3:2:0:0:
99,335,17823,6,0,L|178:314,1,44.999998626709,14|0,0:2|0:0,0:0:0:0:
330,274,17990,1,0,3:2:0:0:
222,245,18157,1,0,3:2:0:0:
481,291,18323,6,0,L|402:312,1,44.999998626709,14|0,0:2|0:0,0:0:0:0:
248,353,18490,1,0,3:2:0:0:
356,382,18657,1,0,3:2:0:0:
304,166,18823,6,0,L|287:89,1,44.999998626709,14|0,0:2|0:0,0:0:0:0:
248,353,18990,1,0,3:2:0:0:
412,195,19157,1,14,0:2:0:0:
156,145,19323,1,0,3:2:0:0:
144,156,19407,1,0,3:2:0:0:
133,167,19490,6,0,L|120:243,1,44.999998626709,14|0,0:2|0:0,0:0:0:0:
161,0,19657,1,0,3:2:0:0:
99,75,19823,1,0,3:2:0:0:
263,276,19990,6,0,L|250:352,1,44.999998626709,14|0,0:2|0:0,0:0:0:0:
291,109,20157,1,0,3:2:0:0:
229,184,20323,1,0,3:2:0:0:
353,34,20490,6,0,L|425:7,1,44.999998626709,14|0,0:2|0:0,0:0:0:0:
194,93,20657,1,0,3:2:0:0:
291,109,20823,1,0,3:2:0:0:
70,243,20990,6,0,L|-2:269,1,44.999998626709,14|0,0:2|0:0,0:0:0:0:
229,184,21157,1,0,3:2:0:0:
132,168,21323,1,0,3:2:0:0:
363,294,21490,6,0,L|435:267,1,44.999998626709,14|0,0:2|0:0,0:0:0:0:
204,353,21657,1,0,3:2:0:0:
291,109,21823,1,14,0:2:0:0:
318,127,21906,1,8,0:2:0:0:
335,156,21989,1,0,3:2:0:0:
336,189,22072,1,0,3:2:0:0:
321,219,22156,5,14,0:2:0:0:
262,286,22324,1,0,3:2:0:0:
204,353,22490,1,0,3:2:0:0:
194,93,22657,5,14,0:2:0:0:
349,303,22823,1,0,3:2:0:0:
90,333,22990,1,0,3:2:0:0:
295,136,23157,5,14,0:2:0:0:
382,152,23323,1,0,3:2:0:0:
469,170,23491,1,0,3:2:0:0:
238,204,23657,5,14,0:2:0:0:
441,86,23823,1,0,3:2:0:0:
442,320,23990,1,0,3:2:0:0:
207,120,24157,5,14,0:2:0:0:
352,68,24323,1,0,3:2:0:0:
165,269,24490,5,14,0:2:0:0:
264,52,24657,1,0,3:2:0:0:
259,39,24740,1,0,3:2:0:0:
254,26,24823,5,14,0:2:0:0:
170,18,24990,1,0,3:2:0:0:
86,10,25157,1,0,3:2:0:0:
24,223,25323,5,14,0:2:0:0:
205,94,25490,1,0,3:2:0:0:
2,2,25657,1,0,3:2:0:0:
115,159,25823,5,14,0:2:0:0:
150,235,25990,1,0,3:2:0:0:
185,312,26157,1,0,3:2:0:0:
205,94,26323,5,14,0:2:0:0:
74,270,26490,1,0,3:2:0:0:
292,296,26657,1,0,3:2:0:0:
115,159,26823,5,10,0:2:0:0:
79,133,26906,1,8,0:2:0:0:
67,90,26989,1,8,0:2:0:0:
85,50,27072,1,8,0:2:0:0:
125,30,27157,1,8,0:3:0:0:
136,33,27240,1,8,0:3:0:0:
147,35,27323,1,8,0:3:0:0:
158,37,27406,1,8,0:3:0:0:
169,39,27490,6,0,B|222:61|227:130|227:130|244:60|314:54|314:54|344:101|310:132,1,320,6|2,3:2|0:2,0:0:0:0:
216,230,30657,5,2,0:2:0:0:
353,265,31157,5,2,0:2:0:0:
353,265,32823,5,2,0:2:0:0:
216,230,33323,5,2,0:2:0:0:
117,331,33823,5,2,0:2:0:0:
117,331,35490,5,2,0:2:0:0:
254,366,35990,5,2,0:2:0:0:
353,265,36490,5,2,0:2:0:0:
315,128,36990,5,2,0:2:0:0:
177,92,37490,5,2,0:2:0:0:
177,92,37823,6,0,L|184:127,1,30,4|0,0:3|0:0,0:0:0:0:
146,185,38157,6,0,P|111:187|76:193,1,69.9999978637696,4|0,3:2|0:0,0:0:0:0:
230,308,38490,2,0,P|195:302|160:299,1,69.9999978637696,8|0,0:2|0:0,0:0:0:0:
302,150,38823,2,0,P|284:194|341:272,1,139.999995727539,2|2,3:2|3:2,0:0:0:0:
476,224,39323,1,10,0:2:0:0:
380,75,39490,6,0,P|385:109|391:144,1,69.9999978637696,0|0,3:2|0:0,0:0:0:0:
265,2,39823,2,0,P|259:36|253:71,1,69.9999978637696,10|2,0:2|0:2,0:0:0:0:
126,74,40157,2,0,P|132:109|138:144,1,69.9999978637696,0|2,3:2|0:2,0:0:0:0:
329,268,40490,1,8,0:2:0:0:
116,255,40657,1,10,0:2:0:0:
116,255,40740,1,8,0:2:0:0:
116,255,40823,6,0,P|150:249|185:243,1,69.9999978637696,0|0,3:2|0:0,0:0:0:0:
349,370,41157,2,0,P|314:364|279:358,1,69.9999978637696,10|0,0:2|0:0,0:0:0:0:
405,193,41490,2,0,B|420:212|443:231|443:231|430:263|414:322,1,139.999995727539,0|2,3:2|3:2,0:0:0:0:
302,173,41990,1,10,0:2:0:0:
495,70,42157,6,0,P|489:104|483:139,1,69.9999978637696,2|0,3:2|0:0,0:0:0:0:
302,173,42490,1,10,0:2:0:0:
393,20,42657,2,0,P|387:54|381:89,1,69.9999978637696,2|0,0:2|3:2,0:0:0:0:
223,257,42990,1,10,0:2:0:0:
203,268,43073,1,8,0:2:0:0:
180,267,43156,1,8,0:2:0:0:
161,254,43240,1,8,0:2:0:0:
153,232,43323,1,10,0:2:0:0:
157,210,43406,1,8,0:2:0:0:
174,194,43490,6,0,P|208:188|243:182,1,69.9999978637696,4|0,3:2|0:0,0:0:0:0:
93,82,43823,2,0,P|127:88|162:94,1,69.9999978637696,8|0,0:2|0:0,0:0:0:0:
53,261,44157,2,0,P|11:217|31:128,1,139.999995727539,0|0,3:2|3:2,0:0:0:0:
139,0,44657,1,8,0:2:0:0:
174,194,44823,6,0,P|140:188|105:182,1,69.9999978637696,0|0,3:2|0:0,0:0:0:0:
273,134,45157,1,10,0:2:0:0:
158,286,45323,1,2,0:2:0:0:
162,93,45490,1,2,3:2:0:0:
296,246,45657,2,0,P|340:255|378:237,1,69.9999978637696,2|8,0:2|0:2,0:0:0:0:
493,108,45990,1,2,0:2:0:0:
493,108,46073,1,2,0:2:0:0:
493,108,46157,6,0,P|484:142|479:176,1,69.9999978637696,6|0,3:2|0:0,0:0:0:0:
360,33,46490,2,0,P|365:67|373:101,1,69.9999978637696,8|0,0:2|0:0,0:0:0:0:
217,229,46823,1,0,3:2:0:0:
252,109,46990,2,0,P|272:137|290:167,1,69.9999978637696,0|0,0:0|3:2,0:0:0:0:
445,283,47323,6,0,P|413:247|351:253,1,104.999996795654,8|0,0:2|0:0,0:0:0:0:
321,332,47657,6,0,L|380:344,1,50,0|0,3:2|0:0,0:0:0:0:
217,229,47823,2,0,B|164:247|164:247|151:277|151:277|83:302,1,150,12|0,0:2|0:0,0:0:0:0:
23,261,48157,5,10,0:2:0:0:
3,229,48240,1,8,0:2:0:0:
3,192,48323,1,8,0:2:0:0:
24,162,48407,1,8,0:2:0:0:
58,148,48490,1,10,0:2:0:0:
92,134,48573,1,8,0:2:0:0:
113,103,48657,1,8,0:2:0:0:
113,66,48740,1,8,0:2:0:0:
93,35,48823,6,0,P|37:34|20:102,1,120,6|0,3:2|0:0,0:0:0:0:
58,148,49157,2,0,L|163:166,1,80,10|2,0:2|0:2,0:0:0:0:
319,95,49490,1,0,3:2:0:0:
192,0,49657,2,0,L|210:105,1,80,0|2,3:2|0:2,0:0:0:0:
327,205,49990,1,8,0:2:0:0:
372,17,50157,6,0,P|329:-5|281:15,1,80,2|2,0:2|3:2,0:0:0:0:
436,186,50490,2,0,P|489:194|509:132,1,120,8|0,0:2|0:0,0:0:0:0:
476,74,50823,2,0,L|365:103,1,80,2|0,3:2|3:2,0:0:0:0:
240,182,51157,1,10,0:2:0:0:
300,1,51323,1,8,0:2:0:0:
300,1,51407,1,8,0:2:0:0:
300,1,51490,6,0,L|279:136,1,120,6|0,3:2|0:0,0:0:0:0:
240,182,51823,2,0,P|187:199|158:182,1,80,10|2,0:2|0:2,0:0:0:0:
6,111,52157,1,0,3:2:0:0:
146,0,52323,2,0,L|123:95,1,80,0|2,3:2|0:2,0:0:0:0:
24,247,52657,1,8,0:2:0:0:
240,182,52823,6,0,P|265:231|254:262,1,80,2|2,0:2|3:2,0:0:0:0:
98,384,53157,2,0,L|122:252,1,120,8|0,0:2|0:0,0:0:0:0:
136,190,53490,1,2,3:2:0:0:
244,350,53657,1,8,0:2:0:0:
286,358,53740,1,8,0:2:0:0:
316,346,53823,1,10,0:2:0:0:
335,332,53907,1,8,0:2:0:0:
344,318,53990,1,8,0:2:0:0:
347,305,54073,1,8,0:2:0:0:
346,295,54157,6,0,L|323:170,1,120,6|0,3:2|0:0,0:0:0:0:
303,103,54490,2,0,B|264:93|264:93|216:138,1,80,8|2,0:2|0:2,0:0:0:0:
105,286,54823,1,2,3:2:0:0:
0,148,54990,2,0,L|86:167,1,80,0|2,3:2|0:2,0:0:0:0:
223,343,55323,6,0,B|281:326|281:326|295:292|295:292|374:270,1,160,10|0,0:2|3:2,0:0:0:0:
506,139,55823,2,0,B|475:112|475:112|422:128,1,80,10|0,0:2|0:0,0:0:0:0:
255,202,56157,1,2,3:2:0:0:
451,261,56323,1,0,3:2:0:0:
334,103,56490,2,0,L|354:194,1,80,10|2,0:2|0:2,0:0:0:0:
356,275,56740,1,2,0:0:0:0:
356,275,56823,6,0,L|230:302,1,120,6|0,3:2|0:0,0:0:0:0:
163,312,57157,2,0,B|137:280|137:280|146:241,1,80,10|2,0:2|0:2,0:0:0:0:
249,52,57490,1,0,3:2:0:0:
68,107,57657,2,0,L|159:127,1,80,2|0,3:2|0:0,0:0:0:0:
369,47,57990,6,0,B|445:24|445:24|493:88,1,160,10|0,0:2|3:2,0:0:0:0:
437,283,58490,1,8,0:2:0:0:
328,178,58657,1,8,0:3:0:0:
324,166,58740,1,8,0:3:0:0:
321,154,58823,1,4,0:3:0:0:
500,193,58990,1,0,3:2:0:0:
349,342,59157,2,0,P|289:350|230:362,1,120,10|0,0:2|0:0,0:0:0:0:
154,381,59490,6,0,B|64:361|64:361|31:309|81:267,1,179.999994506836,6|10,3:2|0:2,0:0:0:0:
247,175,59990,1,2,0:2:0:0:
91,73,60157,2,0,P|103:116|115:159,1,89.9999972534181,0|0,3:2|0:0,0:0:0:0:
354,76,60490,2,0,P|281:56|209:35,1,134.999995880127,10|0,0:2|0:0,0:0:0:0:
160,0,60823,5,2,3:2:0:0:
247,175,60990,1,2,0:2:0:0:
417,5,61157,2,0,B|452:37|452:37|442:83,1,89.9999972534181,8|0,0:2|0:0,0:0:0:0:
386,287,61490,2,0,P|333:257|344:179,1,134.999995880127,2|0,3:2|0:0,0:0:0:0:
406,289,61823,2,0,P|406:349|333:379,1,134.999995880127,10|0,0:2|0:0,0:0:0:0:
244,306,62157,6,0,B|180:323|180:323|161:366|161:366|86:387,1,179.999994506836,6|10,3:2|0:2,0:0:0:0:
20,207,62657,1,2,0:2:0:0:
214,210,62823,2,0,L|125:234,1,89.9999972534181,0|0,3:2|0:0,0:0:0:0:
0,59,63157,6,0,L|157:101,1,134.999995880127,10|0,0:2|0:0,0:0:0:0:
202,115,63490,1,2,3:2:0:0:
20,207,63657,1,2,3:2:0:0:
208,296,63823,1,8,0:2:0:0:
51,117,63990,1,0,3:2:0:0:
0,366,64156,5,10,0:2:0:0:
30,382,64239,1,0,3:2:0:0:
63,380,64323,1,0,3:2:0:0:
90,361,64406,1,0,3:2:0:0:
104,331,64489,1,8,0:3:0:0:
118,301,64572,1,0,3:2:0:0:
145,282,64657,1,0,3:0:0:0:
178,280,64739,1,0,3:2:0:0:
208,296,64822,5,14,0:2:0:0:
263,172,64990,1,0,3:2:0:0:
318,48,65157,1,0,3:2:0:0:
129,187,65323,5,14,0:2:0:0:
263,172,65491,1,0,3:2:0:0:
398,158,65658,1,0,3:2:0:0:
184,64,65823,5,14,0:2:0:0:
263,172,65991,1,0,3:2:0:0:
343,282,66158,1,0,3:2:0:0:
318,48,66323,5,14,0:2:0:0:
263,172,66490,1,0,3:2:0:0:
208,296,66658,1,0,3:2:0:0:
398,158,66823,5,14,0:2:0:0:
129,187,66990,1,0,3:2:0:0:
420,384,67157,5,14,0:2:0:0:
263,172,67324,1,0,3:2:0:0:
256,182,67407,1,0,3:2:0:0:
250,192,67490,6,0,B|302:204|302:204|318:230|318:230|379:245,1,134.999995880127,14|0,0:2|0:0,0:0:0:0:
447,252,67823,1,8,0:2:0:0:
317,70,67990,1,8,0:2:0:0:
251,290,68157,1,10,0:2:0:0:
477,79,68323,1,8,0:2:0:0:
166,28,68490,1,8,0:2:0:0:
352,338,68657,1,8,0:2:0:0:
391,44,68823,5,2,0:2:0:0:
258,120,68990,1,2,0:2:0:0:
335,251,69157,1,2,0:2:0:0:
467,175,69324,1,2,0:2:0:0:
395,135,69490,6,0,L|332:148,1,60,2|0,0:2|0:0,0:0:0:0:
137,268,70157,6,0,L|74:255,1,59.9999981689454,14|0,0:2|0:0,0:0:0:0:
264,20,70323,1,2,3:2:0:0:
326,253,70490,1,2,3:2:0:0:
64,94,70657,2,0,L|200:122,1,119.999996337891,14|0,0:2|3:2,0:0:0:0:
475,178,70990,1,2,3:2:0:0:
225,384,71157,6,0,L|238:321,1,59.9999981689454,12|0,0:2|0:0,0:0:0:0:
315,107,71323,1,2,3:2:0:0:
423,325,71490,1,2,3:2:0:0:
182,118,71657,2,0,B|151:67|151:67|217:35,1,119.999996337891,14|2,0:2|3:2,0:0:0:0:
326,253,71990,1,2,3:2:0:0:
40,322,72157,6,0,L|53:259,1,59.9999981689454,12|0,0:2|0:0,0:0:0:0:
103,0,72323,1,2,3:2:0:0:
239,232,72490,2,0,L|176:219,1,59.9999981689454,12|0,0:2|0:0,0:0:0:0:
25,117,72657,1,2,3:2:0:0:
35,107,72740,1,0,3:2:0:0:
45,97,72823,6,0,L|103:109,1,59.9999981689454,14|0,0:2|0:0,0:0:0:0:
338,160,72990,1,2,3:2:0:0:
147,317,73157,1,2,3:2:0:0:
232,0,73323,2,0,B|277:39|277:39|251:119,1,119.999996337891,14|0,0:2|3:2,0:0:0:0:
56,260,73657,1,2,3:2:0:0:
351,328,73823,6,0,L|339:270,1,59.9999981689454,12|0,0:2|0:0,0:0:0:0:
176,72,73990,1,2,3:2:0:0:
147,317,74157,1,2,3:2:0:0:
413,149,74323,2,0,B|355:130|355:130|316:175,1,119.999996337891,12|2,0:2|3:2,0:0:0:0:
512,269,74657,1,2,3:2:0:0:
300,12,74823,6,0,L|287:75,1,59.9999981689454,12|0,0:2|0:0,0:0:0:0:
236,296,74989,1,2,3:2:0:0:
446,71,75157,2,0,L|383:58,1,59.9999981689454,14|0,0:2|0:0,0:0:0:0:
150,186,75323,1,0,3:2:0:0:
164,197,75407,1,0,3:2:0:0:
177,207,75490,6,0,L|240:194,1,59.9999981689454,14|0,0:2|0:0,0:0:0:0:
56,84,75657,1,2,3:2:0:0:
118,313,75823,1,2,3:2:0:0:
288,70,75990,2,0,L|170:94,1,119.999996337891,14|0,0:2|3:2,0:0:0:0:
338,290,76323,1,2,3:2:0:0:
446,71,76490,6,0,L|433:8,1,59.9999981689454,12|0,0:2|0:0,0:0:0:0:
236,195,76657,1,2,3:2:0:0:
458,299,76823,1,2,3:2:0:0:
288,70,76990,2,0,L|312:188,1,119.999996337891,12|2,0:2|3:2,0:0:0:0:
118,313,77323,1,2,3:2:0:0:
158,35,77490,6,0,L|170:94,1,59.9999981689454,12|0,0:2|0:0,0:0:0:0:
226,367,77657,1,2,3:2:0:0:
33,173,77823,6,0,L|92:185,1,59.9999981689454,12|0,0:2|0:0,0:0:0:0:
338,290,77990,1,2,3:2:0:0:
324,295,78073,1,0,3:2:0:0:
311,301,78157,5,12,0:2:0:0:
488,97,78323,1,0,3:2:0:0:
467,384,78490,1,0,3:2:0:0:
193,191,78657,5,12,0:2:0:0:
499,226,78823,1,0,3:2:0:0:
221,373,78990,1,0,3:2:0:0:
349,77,79157,5,14,0:2:0:0:
362,384,79323,1,2,3:2:0:0:
220,77,79490,5,12,0:2:0:0:
117,349,79657,1,0,3:2:0:0:
377,227,79823,6,0,B|395:186|395:186|294:134|261:255,1,179.999994506836,14|0,0:2|0:0,0:0:0:0:
234,274,80157,2,0,P|261:291|315:267,1,59.9999981689454,2|0,3:2|0:0,0:0:0:0:
484,158,80323,1,8,0:2:0:0:
505,113,80406,1,8,0:2:0:0:
500,64,80489,1,10,0:2:0:0:
471,24,80572,1,8,0:2:0:0:
425,5,80656,1,8,0:2:0:0:
376,11,80739,1,8,0:2:0:0:
337,42,80823,6,0,B|316:90|316:90|342:150,1,104.999996795654,6|2,3:2|0:2,0:0:0:0:
437,343,81157,1,10,0:2:0:0:
225,156,81323,2,0,B|172:145|149:184|163:194|125:232|65:210,1,157.499995193482,2|0,0:2|0:0,0:0:0:0:
20,179,81657,1,2,0:2:0:0:
207,30,81823,1,8,0:2:0:0:
282,266,81990,1,2,0:2:0:0:
277,282,82073,1,2,0:2:0:0:
274,299,82157,5,6,3:2:0:0:
96,121,82323,1,2,0:2:0:0:
333,73,82490,1,10,0:2:0:0:
165,331,82657,2,0,L|192:159,1,157.499995193482,2|0,0:2|0:0,0:0:0:0:
206,101,82990,1,2,0:2:0:0:
390,283,83157,1,8,0:2:0:0:
341,40,83323,1,10,0:2:0:0:
336,56,83406,1,10,0:2:0:0:
333,73,83490,6,0,L|451:53,1,104.999996795654,6|2,3:2|0:2,0:0:0:0:
283,223,83823,1,10,0:2:0:0:
170,18,83990,2,0,P|114:69|124:144,1,157.499995193482,2|0,0:2|0:0,0:0:0:0:
189,175,84323,1,2,0:2:0:0:
0,76,84490,1,8,0:2:0:0:
77,348,84657,1,2,0:2:0:0:
84,361,84740,1,2,0:2:0:0:
91,374,84823,6,0,L|115:202,1,157.499995193482,6|0,3:2|0:0,0:0:0:0:
124,144,85157,1,10,0:2:0:0:
313,312,85323,2,0,B|274:350|274:350|189:324,1,104.999996795654,2|0,0:2|3:2,0:0:0:0:
392,135,85657,1,10,0:2:0:0:
434,384,85823,1,0,3:2:0:0:
237,232,85990,1,10,0:2:0:0:
472,62,86157,6,0,B|490:86|515:109|515:109|491:154|474:212,1,157.499995193482,4|0,3:2|0:0,0:0:0:0:
434,258,86490,2,0,P|382:262|350:206,1,104.999996795654,8|0,0:2|0:0,0:0:0:0:
155,109,86823,1,2,3:2:0:0:
368,30,86990,1,2,0:2:0:0:
237,232,87157,1,10,0:2:0:0:
132,7,87323,1,2,0:2:0:0:
392,135,87490,5,6,3:2:0:0:
167,306,87657,2,0,P|131:269|132:218,1,104.999996795654,2|8,0:2|0:2,0:0:0:0:
321,26,87990,2,0,L|289:197,1,157.499995193482,2|0,0:2|0:0,0:0:0:0:
330,246,88323,2,0,P|280:258|236:231,1,104.999996795654,2|8,0:2|0:2,0:0:0:0:
26,87,88657,1,10,0:2:0:0:
32,76,88740,1,8,0:2:0:0:
39,67,88823,6,0,B|92:56|115:95|97:108|139:143|199:121,1,157.499995193482,6|0,3:2|0:0,0:0:0:0:
242,99,89157,2,0,B|266:53|266:53|223:5,1,104.999996795654,8|0,0:2|0:0,0:0:0:0:
45,172,89490,2,0,B|32:229|32:229|53:265|53:265|33:348,1,157.499995193482,2|0,3:2|0:0,0:0:0:0:
103,359,89823,2,0,L|-30:391,1,104.999996795654,8|0,0:2|0:0,0:0:0:0:
174,126,90157,5,6,3:2:0:0:
256,381,90323,1,0,3:2:0:0:
45,172,90490,1,8,0:2:0:0:
295,23,90657,1,0,3:2:0:0:
305,20,90740,1,0,3:0:0:0:
314,17,90824,5,10,0:2:0:0:
355,36,90907,1,0,3:2:0:0:
380,75,90990,1,0,3:2:0:0:
381,121,91073,1,0,3:2:0:0:
357,161,91157,1,2,3:2:0:0:
333,201,91241,1,0,3:2:0:0:
334,247,91324,1,0,3:2:0:0:
359,286,91407,1,0,3:2:0:0:
400,305,91490,5,14,0:2:0:0:
475,21,91656,1,0,3:2:0:0:
221,139,91823,1,2,3:2:0:0:
498,340,91990,5,14,0:2:0:0:
380,75,92156,1,0,3:2:0:0:
245,334,92323,1,0,3:2:0:0:
180,29,92490,5,14,0:2:0:0:
420,222,92657,1,0,3:2:0:0:
126,322,92823,1,2,3:2:0:0:
277,40,92990,5,14,0:2:0:0:
245,334,93157,1,0,3:2:0:0:
35,108,93323,1,0,3:2:0:0:
330,265,93490,5,14,0:2:0:0:
4,374,93657,1,0,3:2:0:0:
173,55,93823,5,14,0:2:0:0:
325,384,93990,1,2,3:2:0:0:
23,231,94157,6,0,B|87:234|116:177|116:177|111:240|167:279|173:283|225:279|252:256|251:227|246:205|207:197|201:239,1,359.999989013672,4|0,3:2|0:0,0:0:0:0:
336,261,96323,5,0,3:2:0:0:
350,263,96406,1,0,3:2:0:0:
365,266,96490,2,0,L|397:272,1,30,8|0,0:3|0:0,0:0:0:0:
462,231,96823,6,0,B|474:187|474:187|440:146,1,89.9999972534181,12|0,0:2|3:2,0:0:0:0:
321,0,97157,1,2,3:2:0:0:
205,151,97323,2,0,B|249:163|249:163|290:129,1,89.9999972534181,12|0,0:2|3:2,0:0:0:0:
121,17,97657,1,2,3:2:0:0:
130,220,97823,6,0,L|146:318,1,89.9999972534181,12|0,0:2|3:2,0:0:0:0:
231,63,98157,1,2,3:2:0:0:
42,164,98323,2,0,B|13:198|13:198|25:242,1,89.9999972534181,12|0,0:2|3:2,0:0:0:0:
234,331,98657,1,2,3:2:0:0:
126,117,98823,5,12,0:2:0:0:
27,352,98990,1,0,3:2:0:0:
223,184,99157,5,14,0:2:0:0:
12,78,99323,1,0,3:2:0:0:
144,308,99490,6,0,L|130:220,1,89.9999972534181,12|0,0:2|3:2,0:0:0:0:
182,50,99823,1,2,3:2:0:0:
312,198,99990,2,0,L|223:183,1,89.9999972534181,12|0,0:2|3:2,0:0:0:0:
365,63,100323,1,2,3:2:0:0:
380,277,100490,6,0,P|341:303|285:289,1,89.9999972534181,12|0,0:2|3:2,0:0:0:0:
422,165,100823,1,2,3:2:0:0:
510,376,100990,2,0,L|406:355,1,89.9999972534181,12|0,0:2|3:2,0:0:0:0:
318,196,101323,1,2,3:2:0:0:
512,89,101490,5,12,0:2:0:0:
380,277,101657,1,0,3:2:0:0:
245,37,101823,5,14,0:2:0:0:
276,27,101906,1,8,0:2:0:0:
308,37,101989,1,0,3:2:0:0:
331,63,102072,1,0,3:2:0:0:
336,96,102157,6,0,L|233:116,1,89.9999972534181,12|0,0:2|3:2,0:0:0:0:
111,236,102490,1,2,3:2:0:0:
318,196,102657,2,0,L|215:216,1,89.9999972534181,12|0,0:2|3:2,0:0:0:0:
55,149,102990,1,2,3:2:0:0:
227,34,103157,6,0,P|255:78|237:127,1,89.9999972534181,12|0,0:2|3:2,0:0:0:0:
183,309,103490,1,2,3:2:0:0:
55,149,103657,2,0,P|99:121|148:139,1,89.9999972534181,12|0,0:2|3:2,0:0:0:0:
288,288,103990,1,2,3:2:0:0:
41,368,104157,5,12,0:2:0:0:
230,213,104323,1,0,3:2:0:0:
20,56,104490,5,14,0:2:0:0:
89,293,104657,1,0,3:2:0:0:
193,54,104823,6,0,P|149:26|100:44,1,89.9999972534181,12|0,0:2|3:2,0:0:0:0:
146,227,105157,1,2,3:2:0:0:
296,82,105323,2,0,P|310:40|291:0,1,89.9999972534181,12|0,0:2|3:2,0:0:0:0:
140,127,105657,1,2,3:2:0:0:
359,215,105823,5,12,0:2:0:0:
193,54,105990,1,0,3:2:0:0:
194,306,106157,5,14,0:2:0:0:
296,82,106323,1,0,3:2:0:0:
90,245,106490,5,12,0:2:0:0:
336,348,106657,1,2,3:2:0:0:
149,120,106823,5,8,0:2:0:0:
99,111,106907,1,0,3:2:0:0:
58,137,106990,1,0,3:2:0:0:
35,181,107073,1,0,3:2:0:0:
38,211,107157,1,8,0:3:0:0:
49,230,107240,1,0,3:2:0:0:
65,241,107323,1,0,3:2:0:0:
79,244,107407,1,0,3:2:0:0:
90,245,107490,6,0,L|147:232,1,44.999998626709,14|0,0:2|0:0,0:0:0:0:
318,193,107657,1,0,3:2:0:0:
214,162,107823,1,0,3:2:0:0:
116,351,107990,6,0,L|173:338,1,44.999998626709,14|0,0:2|0:0,0:0:0:0:
344,299,108157,1,0,3:2:0:0:
240,268,108323,1,0,3:2:0:0:
441,104,108490,6,0,L|384:118,1,44.999998626709,14|0,0:2|0:0,0:0:0:0:
214,162,108657,1,0,3:2:0:0:
292,87,108823,1,0,3:2:0:0:
467,210,108990,6,0,L|410:224,1,44.999998626709,14|0,0:2|0:0,0:0:0:0:
240,268,109157,1,0,3:2:0:0:
318,193,109323,1,0,3:2:0:0:
266,374,109490,6,0,L|209:359,1,44.999998626709,14|0,0:2|0:0,0:0:0:0:
0,308,109657,1,0,3:2:0:0:
214,162,109823,1,14,0:2:0:0:
46,42,109990,1,0,3:2:0:0:
36,54,110073,1,0,3:2:0:0:
28,64,110157,6,0,L|41:120,1,44.999998626709,14|0,0:2|0:0,0:0:0:0:
80,291,110324,1,0,3:2:0:0:
111,187,110490,1,0,3:2:0:0:
265,382,110657,6,0,L|252:327,1,44.999998626709,14|0,0:2|0:0,0:0:0:0:
214,162,110824,1,0,3:2:0:0:
184,263,110990,1,0,3:2:0:0:
234,14,111157,6,0,L|247:70,1,44.999998626709,14|0,0:2|0:0,0:0:0:0:
286,241,111324,1,0,3:2:0:0:
317,137,111490,1,0,3:2:0:0:
471,332,111657,6,0,L|458:277,1,44.999998626709,14|0,0:2|0:0,0:0:0:0:
420,112,111824,1,0,3:2:0:0:
390,213,111990,1,0,3:2:0:0:
347,36,112157,6,0,L|403:23,1,44.999998626709,14|0,0:2|0:0,0:0:0:0:
491,187,112323,1,0,3:2:0:0:
244,58,112490,1,12,0:3:0:0:
212,49,112573,1,8,0:3:0:0:
180,60,112656,1,4,0:3:0:0:
161,87,112739,1,4,0:3:0:0:
160,120,112823,5,14,0:2:0:0:
189,202,112990,1,0,3:2:0:0:
218,284,113157,1,0,3:2:0:0:
75,105,113323,5,14,0:2:0:0:
274,217,113490,1,0,3:2:0:0:
78,334,113657,1,0,3:2:0:0:
160,120,113823,5,14,0:2:0:0:
245,135,113990,1,0,3:2:0:0:
331,151,114157,1,0,3:2:0:0:
104,186,114323,5,14,0:2:0:0:
301,69,114490,1,0,3:2:0:0:
304,298,114657,1,0,3:2:0:0:
131,39,114823,5,14,0:2:0:0:
331,151,114990,1,0,3:2:0:0:
132,268,115157,5,14,0:2:0:0:
387,85,115323,1,0,3:2:0:0:
401,82,115407,1,0,3:2:0:0:
415,80,115490,5,14,0:2:0:0:
441,168,115657,1,0,3:2:0:0:
467,257,115823,1,0,3:2:0:0:
249,369,115990,5,14,0:2:0:0:
351,147,116157,1,0,3:2:0:0:
493,346,116323,1,0,3:2:0:0:
299,258,116490,5,14,0:2:0:0:
211,284,116657,1,0,3:2:0:0:
122,310,116823,1,0,3:2:0:0:
232,194,116990,5,2,3:2:0:0:
249,369,117157,1,8,0:2:0:0:
54,245,117323,1,8,0:2:0:0:
36,216,117406,1,8,0:2:0:0:
34,183,117489,1,10,0:2:0:0:
49,153,117572,1,8,0:2:0:0:
76,134,117657,1,8,0:2:0:0:
103,115,117740,1,8,0:2:0:0:
118,85,117823,1,10,0:2:0:0:
116,51,117906,1,8,0:2:0:0:
98,23,117990,1,8,0:2:0:0:
67,7,118073,1,8,0:2:0:0:
31,14,118157,6,0,P|-13:46|1:114,1,120,4|0,3:2|0:0,0:0:0:0:
49,153,118490,2,0,L|157:168,1,80,8|2,0:2|0:2,0:0:0:0:
309,9,118823,1,2,3:2:0:0:
116,51,118990,2,0,P|152:89|223:72,1,120,2|0,3:2|0:0,0:0:0:0:
225,0,119323,6,0,B|205:45|245:78|254:67|286:96|263:158,1,160,10|0,0:2|3:2,0:0:0:0:
140,255,119823,2,0,P|172:228|227:246,1,80,10|2,0:2|0:2,0:0:0:0:
367,384,120157,1,0,3:2:0:0:
199,328,120323,1,2,3:2:0:0:
334,220,120490,2,0,P|323:258|313:297,1,80,8|2,0:2|0:2,0:0:0:0:
106,156,120823,6,0,B|101:125|87:100|87:100|116:86|138:60,1,120,4|0,3:2|0:0,0:0:0:0:
201,20,121157,2,0,P|239:30|278:40,1,80,10|0,0:2|0:0,0:0:0:0:
412,189,121490,1,0,3:2:0:0:
473,7,121657,2,0,P|422:12|400:83,1,120,0|0,3:2|0:0,0:0:0:0:
325,119,121990,6,0,P|403:102|481:87,1,160,10|2,0:2|3:2,0:0:0:0:
339,224,122490,2,0,P|299:215|260:207,1,80,8|2,0:2|0:2,0:0:0:0:
417,296,122823,1,0,3:2:0:0:
325,119,122990,1,2,3:2:0:0:
199,313,123157,2,0,P|238:304|277:296,1,80,8|2,0:2|0:2,0:0:0:0:
196,129,123490,6,0,P|146:110|98:155,1,120,4|0,3:2|0:0,0:0:0:0:
98,229,123823,2,0,P|136:220|176:211,1,80,10|0,0:2|0:0,0:0:0:0:
363,194,124157,1,0,3:2:0:0:
276,0,124323,2,0,P|234:22|268:80,1,120,0|0,3:2|0:0,0:0:0:0:
334,74,124657,6,0,B|279:83|279:83|257:119|257:119|187:130,1,160,8|0,0:2|3:2,0:0:0:0:
42,0,125157,2,0,L|121:11,1,80,10|2,0:2|0:2,0:0:0:0:
114,187,125490,1,0,3:2:0:0:
8,80,125657,1,0,3:2:0:0:
207,49,125823,2,0,L|196:128,1,80,10|2,0:2|0:2,0:0:0:0:
94,337,126157,6,0,P|47:291|85:239,1,120,4|0,3:2|0:0,0:0:0:0:
114,187,126490,2,0,B|146:211|146:211|141:256,1,80,10|2,0:2|0:2,0:0:0:0:
324,285,126823,1,0,3:2:0:0:
211,384,126990,2,0,L|236:243,1,120,2|0,3:2|0:0,0:0:0:0:
315,203,127323,6,0,B|234:229|234:229|195:209|202:163,1,160,10|2,0:2|3:2,0:0:0:0:
339,22,127823,2,0,B|366:52|366:52|349:99,1,80,8|2,0:2|0:2,0:0:0:0:
232,266,128157,1,0,3:2:0:0:
475,220,128323,1,10,0:2:0:0:
480,193,128406,1,8,0:2:0:0:
473,168,128489,1,8,0:2:0:0:
453,151,128572,1,8,0:2:0:0:
427,146,128656,1,10,0:2:0:0:
402,156,128739,1,8,0:2:0:0:
387,177,128823,6,0,L|374:270,1,80,4|0,3:2|3:2,0:0:0:0:
201,75,129157,2,0,L|218:201,1,120,8|0,0:2|0:0,0:0:0:0:
232,266,129490,1,2,3:2:0:0:
305,87,129657,1,2,3:2:0:0:
124,202,129823,1,10,0:2:0:0:
312,316,129990,1,2,0:2:0:0:
83,372,130157,6,0,L|102:284,1,80,0|0,3:2|3:2,0:0:0:0:
146,107,130490,1,10,0:2:0:0:
232,266,130657,2,0,B|275:223|275:223|237:119,1,160,2|2,3:2|3:2,0:0:0:0:
95,11,131157,1,8,0:2:0:0:
124,202,131323,1,2,0:2:0:0:
287,42,131490,6,0,P|239:27|196:46,1,80,4|0,3:2|3:2,0:0:0:0:
321,214,131823,2,0,B|377:222|400:188|384:172|427:133|480:162,1,160,10|0,0:2|3:2,0:0:0:0:
328,317,132323,1,0,3:2:0:0:
323,126,132490,1,10,0:2:0:0:
465,250,132657,1,2,0:2:0:0:
239,353,132823,6,0,L|133:326,1,80,2|0,3:2|3:2,0:0:0:0:
0,252,133157,1,10,0:2:0:0:
129,110,133323,2,0,B|175:149|144:214|144:214|70:185,1,160,2|2,3:2|3:2,0:0:0:0:
64,20,133823,1,8,0:2:0:0:
241,122,133990,1,2,0:2:0:0:
0,252,134157,6,0,L|17:142,1,80,4|0,3:2|3:2,0:0:0:0:
179,302,134490,2,0,P|126:283|51:362,1,160,8|0,0:2|3:2,0:0:0:0:
237,380,134990,1,0,3:2:0:0:
102,197,135157,1,8,0:2:0:0:
277,266,135323,1,0,0:0:0:0:
53,343,135490,6,0,L|37:253,1,80,0|0,3:2|3:2,0:0:0:0:
205,155,135823,2,0,L|189:245,1,80,10|2,0:2|3:2,0:0:0:0:
336,364,136157,1,2,0:2:0:0:
291,187,136323,2,0,L|275:277,1,80,2|8,3:2|0:2,0:0:0:0:
447,376,136657,1,2,0:2:0:0:
447,376,136740,1,2,0:2:0:0:
447,376,136823,6,0,P|463:335|446:290,1,80,6|0,3:2|3:2,0:0:0:0:
396,66,137157,2,0,P|351:118|379:174,1,120,8|0,0:2|0:0,0:0:0:0:
403,229,137490,2,0,L|493:213,1,80,0|0,3:2|3:2,0:0:0:0:
266,78,137823,5,8,0:2:0:0:
362,317,137990,1,0,3:2:0:0:
162,174,138157,5,12,0:2:0:0:
396,66,138323,1,0,3:2:0:0:
229,290,138490,5,12,0:2:0:0:
169,39,138657,1,0,3:2:0:0:
17,258,138823,5,10,0:2:0:0:
47,274,138906,1,0,3:2:0:0:
80,272,138990,1,0,3:2:0:0:
107,253,139073,1,0,3:2:0:0:
121,223,139156,1,2,3:2:0:0:
135,193,139239,1,0,3:2:0:0:
162,174,139322,1,0,3:2:0:0:
195,172,139406,1,0,3:2:0:0:
225,188,139490,6,0,B|258:189|284:159|284:159|304:203|355:214,1,134.999995880127,14|0,0:2|0:0,0:0:0:0:
410,216,139823,1,2,3:2:0:0:
278,20,139990,2,0,B|254:48|254:48|299:87|375:53,1,134.999995880127,10|0,0:2|0:0,0:0:0:0:
467,31,140323,5,0,3:2:0:0:
455,21,140407,1,0,3:2:0:0:
443,8,140490,2,0,L|419:150,1,134.999995880127,14|0,0:2|0:0,0:0:0:0:
410,216,140823,1,2,3:2:0:0:
212,100,140990,2,0,P|156:89|112:156,1,134.999995880127,10|0,0:2|0:0,0:0:0:0:
180,202,141323,5,0,3:2:0:0:
195,204,141407,1,0,3:2:0:0:
211,207,141490,1,14,0:2:0:0:
72,40,141657,1,8,0:2:0:0:
35,265,141823,1,2,3:2:0:0:
212,100,141990,1,0,3:2:0:0:
221,91,142073,1,0,3:2:0:0:
230,83,142157,6,0,L|377:109,1,134.999995880127,14|0,0:2|0:0,0:0:0:0:
437,122,142490,1,2,3:2:0:0:
295,288,142657,2,0,B|243:301|243:301|231:327|231:327|169:343,1,134.999995880127,10|0,0:2|0:0,0:0:0:0:
63,278,142990,5,0,3:2:0:0:
49,271,143073,1,0,3:2:0:0:
35,265,143157,2,0,L|64:126,1,134.999995880127,14|0,0:2|0:0,0:0:0:0:
78,61,143490,1,2,3:2:0:0:
223,219,143657,1,10,0:2:0:0:
308,21,143823,1,0,3:0:0:0:
156,129,143990,5,0,3:2:0:0:
151,140,144073,1,8,0:2:0:0:
147,148,144157,1,8,0:3:0:0:
321,236,144323,1,8,0:3:0:0:
358,111,144490,5,4,0:3:0:0:
448,69,144656,1,4,0:3:0:0:
501,199,144823,6,0,L|474:350,1,139.999995727539,6|8,3:2|0:3,0:0:0:0:
407,225,145323,1,2,3:2:0:0:
306,351,145490,2,0,P|271:358|238:368,1,69.9999978637696,10|0,0:2|0:0,0:0:0:0:
106,284,145823,1,2,3:2:0:0:
217,121,145990,6,0,P|260:151|250:241,1,139.999995727539,2|4,0:2|0:3,0:0:0:0:
199,301,146490,1,2,0:2:0:0:
128,146,146657,1,0,3:2:0:0:
38,300,146823,2,0,P|71:289|105:283,1,69.9999978637696,10|0,0:2|0:0,0:0:0:0:
217,121,147157,1,2,0:2:0:0:
10,68,147323,1,2,3:2:0:0:
10,68,147407,1,2,0:0:0:0:
10,68,147490,6,0,P|31:138|47:217,1,139.999995727539,4|8,3:2|0:3,0:0:0:0:
132,116,147990,1,2,3:2:0:0:
235,241,148157,2,0,P|282:241|313:216,1,69.9999978637696,8|2,0:2|0:2,0:0:0:0:
354,79,148490,1,0,3:2:0:0:
253,161,148657,1,2,0:2:0:0:
383,304,148823,5,0,3:2:0:0:
469,325,148990,1,4,0:3:0:0:
490,239,149157,1,2,3:2:0:0:
404,218,149324,1,0,3:2:0:0:
308,350,149490,5,10,0:2:0:0:
465,154,149657,1,0,3:2:0:0:
223,61,149823,2,0,P|239:110|253:161,1,104.999996795654,10|0,0:2|0:0,0:0:0:0:
332,188,150157,6,0,P|267:189|231:243,1,134.999995880127,14|0,0:2|0:0,0:0:0:0:
232,322,150490,1,2,3:2:0:0:
62,152,150657,2,0,B|24:193|24:193|58:281,1,134.999995880127,10|0,0:2|0:0,0:0:0:0:
105,384,150990,5,0,3:2:0:0:
113,374,151073,1,0,3:2:0:0:
120,364,151157,2,0,L|147:217,1,134.999995880127,14|0,0:2|0:0,0:0:0:0:
162,155,151490,1,2,3:2:0:0:
339,281,151657,2,0,P|294:233|230:242,1,134.999995880127,10|0,0:2|0:0,0:0:0:0:
263,341,151990,5,0,3:2:0:0:
272,334,152073,1,0,3:2:0:0:
282,329,152157,2,0,P|347:313|413:299,1,134.999995880127,14|0,0:2|0:0,0:0:0:0:
487,294,152490,2,0,P|507:246|488:201,1,89.9999972534181,2|0,0:2|0:0,0:0:0:0:
390,21,152823,6,0,P|351:51|362:142,1,134.999995880127,14|0,0:2|0:0,0:0:0:0:
405,182,153157,1,2,3:2:0:0:
249,29,153323,2,0,B|205:-13|152:22|152:22|169:88,1,134.999995880127,10|0,0:2|0:0,0:0:0:0:
232,140,153657,5,0,3:2:0:0:
241,149,153740,1,0,3:2:0:0:
249,158,153823,2,0,L|224:311,1,134.999995880127,14|0,0:2|0:0,0:0:0:0:
189,360,154157,1,2,3:2:0:0:
0,227,154323,2,0,P|30:188|121:199,1,134.999995880127,10|0,0:2|0:0,0:0:0:0:
159,250,154657,1,0,3:2:0:0:
23,75,154823,5,14,0:2:0:0:
74,271,154990,1,0,3:2:0:0:
81,282,155073,1,0,3:2:0:0:
87,293,155157,2,0,B|114:310|121:348|121:348|148:327|183:325,1,134.999995880127,10|0,0:2|0:0,0:0:0:0:
256,345,155490,5,14,0:2:0:0:
293,218,155657,1,0,3:2:0:0:
330,91,155823,1,0,3:2:0:0:
385,314,155990,5,14,0:2:0:0:
293,218,156157,1,0,3:2:0:0:
202,122,156323,1,0,3:2:0:0:
423,187,156490,5,14,0:2:0:0:
293,218,156657,1,0,3:2:0:0:
165,249,156823,1,0,3:2:0:0:
330,91,156990,5,14,0:2:0:0:
293,218,157156,1,0,3:2:0:0:
256,345,157323,1,0,3:2:0:0:
101,156,157490,5,14,0:2:0:0:
87,125,157573,1,8,0:2:0:0:
86,91,157656,1,0,3:2:0:0:
96,59,157740,1,0,3:2:0:0:
117,33,157823,1,2,3:2:0:0:
146,16,157906,1,0,3:2:0:0:
179,10,157990,1,2,3:2:0:0:
212,16,158073,1,0,3:2:0:0:
241,33,158157,6,0,L|260:189,1,134.999995880127,12|0,0:2|0:0,0:0:0:0:
274,242,158490,1,8,0:2:0:0:
348,43,158657,1,8,0:2:0:0:
159,170,158823,1,10,0:2:0:0:
380,298,158990,1,8,0:2:0:0:
94,384,159157,1,8,0:2:0:0:
246,85,159323,1,8,0:2:0:0:
435,384,159490,5,2,3:2:0:0:
241,188,159657,1,8,0:2:0:0:
203,167,159740,1,8,0:2:0:0:
159,170,159823,1,8,0:2:0:0:
123,197,159907,1,8,0:2:0:0:
109,239,159990,1,0,3:2:0:0:
118,280,160073,1,0,3:0:0:0:
148,304,160157,2,0,L|222:282,1,44.999998626709,2|0,3:2|0:0,0:0:0:0:
354,96,160323,1,0,3:2:0:0:
366,56,160407,1,0,3:2:0:0:
342,24,160490,6,0,B|302:25|272:2|272:2|237:16|229:57|229:57|263:113,1,179.999994506836,14|0,0:2|0:0,0:0:0:0:
291,157,160823,6,0,L|272:239,1,59.9999981689454,14|0,0:2|0:0,0:0:0:0:
94,384,160990,1,2,3:2:0:0:
138,113,161157,1,2,3:2:0:0:
364,332,161323,2,0,B|327:378|327:378|227:345,1,119.999996337891,14|0,0:2|3:2,0:0:0:0:
55,218,161657,1,2,3:2:0:0:
377,10,161823,6,0,L|396:92,1,59.9999981689454,12|0,0:2|0:0,0:0:0:0:
463,319,161990,1,2,3:2:0:0:
206,166,162157,1,2,3:2:0:0:
508,170,162323,2,0,L|365:203,1,119.999996337891,14|2,0:2|3:2,0:0:0:0:
178,33,162657,1,2,3:2:0:0:
216,353,162823,6,0,L|232:278,1,59.9999981689454,12|0,0:2|0:0,0:0:0:0:
289,25,162990,1,2,3:2:0:0:
41,241,163157,6,0,L|116:257,1,59.9999981689454,12|0,0:2|0:0,0:0:0:0:
352,327,163323,1,2,3:2:0:0:
366,320,163407,1,0,3:2:0:0:
380,313,163490,6,0,B|388:282|388:282|371:240,1,59.9999981689454,14|0,0:2|0:0,0:0:0:0:
289,25,163657,1,2,3:2:0:0:
228,294,163823,1,2,3:2:0:0:
484,107,163990,2,0,B|447:61|447:61|347:94,1,119.999996337891,14|0,0:2|3:2,0:0:0:0:
155,172,164323,1,2,3:2:0:0:
441,370,164490,6,0,L|516:354,1,59.9999981689454,12|0,0:2|0:0,0:0:0:0:
344,159,164657,1,2,3:2:0:0:
210,384,164823,1,2,3:2:0:0:
72,83,164990,2,0,B|109:37|109:37|209:70,1,119.999996337891,12|2,0:2|3:2,0:0:0:0:
309,280,165323,1,2,3:2:0:0:
0,205,165490,6,0,L|75:189,1,59.9999981689454,12|0,0:2|0:0,0:0:0:0:
307,67,165657,1,2,3:2:0:0:
210,384,165823,5,14,0:2:0:0:
171,362,165906,1,8,0:2:0:0:
147,324,165989,1,0,3:2:0:0:
145,280,166073,1,0,3:2:0:0:
165,240,166157,6,0,L|240:224,1,59.9999981689454,14|0,0:2|0:0,0:0:0:0:
492,166,166323,1,2,3:2:0:0:
328,376,166490,1,2,3:2:0:0:
107,108,166657,2,0,L|237:80,1,119.999996337891,14|0,0:2|3:2,0:0:0:0:
431,263,166990,1,2,3:2:0:0:
334,0,167157,6,0,L|318:75,1,59.9999981689454,12|0,0:2|0:0,0:0:0:0:
280,303,167323,1,2,3:2:0:0:
453,120,167490,1,2,3:2:0:0:
163,0,167657,2,0,L|45:25,1,119.999996337891,12|2,0:2|3:2,0:0:0:0:
42,279,167990,1,2,3:2:0:0:
321,58,168157,6,0,L|220:79,1,59.9999981689454,12|0,0:2|0:0,0:0:0:0:
0,128,168323,1,2,3:2:0:0:
340,244,168490,6,0,L|319:143,1,59.9999981689454,12|0,0:2|0:0,0:0:0:0:
163,0,168657,1,2,3:2:0:0:
158,17,168740,1,0,3:2:0:0:
154,33,168823,5,12,0:2:0:0:
216,329,168990,1,0,3:2:0:0:
391,95,169157,1,0,3:2:0:0:
92,233,169323,5,12,0:2:0:0:
355,359,169490,1,0,3:2:0:0:
270,84,169657,1,0,3:2:0:0:
124,361,169823,5,14,0:2:0:0:
398,216,169990,1,2,3:2:0:0:
33,102,170157,5,12,0:2:0:0:
295,266,170324,1,0,3:2:0:0:
169,8,170490,6,0,B|123:61|123:61|114:123|180:174,1,179.999994506836,14|0,0:2|0:0,0:0:0:0:
148,237,170823,2,0,B|179:240|179:240|207:222,1,59.9999981689454,2|0,3:2|0:0,0:0:0:0:
346,40,170990,1,8,0:2:0:0:
387,12,171073,1,8,0:2:0:0:
436,9,171156,1,10,0:2:0:0:
481,31,171240,1,8,0:2:0:0:
508,72,171323,1,8,0:2:0:0:
512,122,171406,1,8,0:2:0:0:
490,166,171490,6,0,L|369:147,1,104.999996795654,6|2,3:2|0:2,0:0:0:0:
142,93,171823,1,10,0:2:0:0:
226,304,171990,2,0,B|206:253|241:224|257:240|285:193|254:137,1,157.499995193482,2|0,0:2|0:0,0:0:0:0:
238,95,172323,1,2,0:2:0:0:
88,302,172490,1,8,0:2:0:0:
345,378,172657,1,2,0:2:0:0:
359,375,172740,1,2,0:2:0:0:
371,371,172823,5,6,3:2:0:0:
163,201,172990,1,2,0:2:0:0:
402,109,173157,1,10,0:2:0:0:
219,384,173323,2,0,L|251:228,1,157.499995193482,2|0,0:2|0:0,0:0:0:0:
264,161,173657,1,2,0:2:0:0:
484,299,173823,1,8,0:2:0:0:
428,32,173990,1,10,0:2:0:0:
422,18,174073,1,10,0:2:0:0:
416,5,174157,6,0,L|399:131,1,104.999996795654,6|2,3:2|0:2,0:0:0:0:
363,356,174490,1,10,0:2:0:0:
170,176,174657,2,0,B|100:153|70:222|70:222|118:252,1,157.499995193482,2|0,0:2|0:0,0:0:0:0:
156,286,174990,1,2,0:2:0:0:
311,84,175157,1,8,0:2:0:0:
54,41,175323,1,2,0:2:0:0:
42,45,175406,1,2,0:2:0:0:
30,50,175490,6,0,B|-3:139|-3:139|48:195,1,157.499995193482,6|0,3:2|0:0,0:0:0:0:
98,239,175823,1,10,0:2:0:0:
239,26,175990,2,0,B|187:10|187:10|136:63,1,104.999996795654,2|0,0:2|3:2,0:0:0:0:
287,280,176323,1,2,0:2:0:0:
390,19,176490,1,8,0:2:0:0:
148,147,176657,1,10,0:2:0:0:
159,156,176740,1,8,0:2:0:0:
169,164,176823,6,0,B|219:183|248:148|236:136|279:104|335:135,1,157.499995193482,4|0,3:2|0:0,0:0:0:0:
388,114,177157,2,0,B|420:156|420:156|397:210,1,104.999996795654,8|0,0:2|0:0,0:0:0:0:
129,316,177490,1,2,3:2:0:0:
207,63,177657,1,2,0:2:0:0:
313,298,177823,1,10,0:2:0:0:
51,155,177990,1,2,0:2:0:0:
306,17,178157,5,6,3:2:0:0:
212,258,178323,2,0,B|175:220|175:220|195:168,1,104.999996795654,2|8,0:2|0:2,0:0:0:0:
427,49,178657,2,0,L|396:225,1,157.499995193482,2|0,0:2|0:0,0:0:0:0:
387,281,178990,2,0,B|425:318|425:318|477:298,1,104.999996795654,2|8,0:2|0:2,0:0:0:0:
351,106,179323,1,10,0:2:0:0:
338,104,179407,1,8,0:2:0:0:
325,104,179490,6,0,B|266:122|266:122|253:153|253:153|182:175,1,157.499995193482,6|0,3:2|0:0,0:0:0:0:
115,157,179823,2,0,P|102:99|149:70,1,104.999996795654,8|0,0:2|0:0,0:0:0:0:
272,300,180157,5,2,3:2:0:0:
1,196,180323,1,0,3:0:0:0:
253,58,180490,1,12,0:2:0:0:
129,322,180657,1,0,3:0:0:0:
348,127,180823,5,14,0:2:0:0:
391,103,180906,1,8,0:2:0:0:
439,110,180989,1,8,0:2:0:0:
474,145,181073,1,8,0:2:0:0:
480,194,181157,1,8,0:3:0:0:
466,235,181240,1,8,0:3:0:0:
431,262,181323,1,8,0:3:0:0:
386,262,181407,1,8,0:3:0:0:
355,236,181490,1,2,3:2:0:0:
324,224,181573,1,0,3:2:0:0:
298,227,181657,1,0,3:2:0:0:
274,236,181740,1,0,3:2:0:0:
258,251,181823,1,2,3:2:0:0:
250,264,181907,1,0,3:2:0:0:
248,277,181990,1,0,3:2:0:0:
249,286,182073,1,0,3:2:0:0:
251,292,182157,5,14,0:2:0:0:
326,25,182323,1,0,3:2:0:0:
68,143,182490,1,2,3:2:0:0:
361,293,182657,5,14,0:2:0:0:
163,25,182823,1,0,3:2:0:0:
92,339,182990,1,0,3:2:0:0:
392,152,183157,5,14,0:2:0:0:
68,143,183323,1,0,3:2:0:0:
279,380,183490,1,2,3:2:0:0:
284,43,183657,5,14,0:2:0:0:
475,298,183823,1,0,3:2:0:0:
169,253,183990,1,0,3:2:0:0:
284,43,184157,5,14,0:2:0:0:
356,9,184268,5,8,0:2:0:0:
421,54,184379,5,8,0:2:0:0:
414,133,184490,5,8,0:3:0:0:
384,164,184601,5,8,0:3:0:0:
342,167,184712,5,8,0:3:0:0:
278,123,184823,6,0,P|381:146|522:185,1,239.999992675781,4|0,3:2|0:0,0:0:0:0:
511,181,186990,5,0,3:2:0:0:
496,188,187073,1,0,3:2:0:0:
479,187,187157,2,0,B|448:180|432:157|432:157|442:185|431:227,1,112.500004291535,8|0,0:3|0:0,0:0:0:0:
379,272,187490,6,0,L|218:246,1,134.999995880127,6|0,3:2|0:0,0:0:0:0:
171,234,187823,1,8,0:2:0:0:
308,10,187990,2,0,B|375:23|375:23|393:57|393:57|496:74,1,179.999994506836,6|0,3:2|0:0,0:0:0:0:
244,140,188490,6,0,B|180:153|149:104|176:88|126:42|74:57|74:57|92:67|99:83,1,239.999992675781,6|0,3:2|0:0,0:0:0:0:
187,252,190157,6,0,P|195:294|148:364,1,119.999996337891,6|0,3:2|0:0,0:0:0:0:
70,333,190657,2,0,P|62:291|109:221,1,119.999996337891,2|0,0:2|0:0,0:0:0:0:
181,168,191157,2,0,P|216:168|243:192,1,59.9999981689454,2|0,0:2|0:0,0:0:0:0:
377,381,191490,5,8,0:2:0:0:
403,157,191657,2,0,L|381:326,1,150,0|0,3:2|0:0,0:0:0:0:
308,285,191990,6,0,L|322:173,1,112.500004291535,8|0,0:3|0:0,0:0:0:0:
330,100,192323,1,4,0:3:0:0:
226,256,192490,6,0,L|236:181,1,75,4|0,0:3|0:0,0:0:0:0:
205,114,192823,6,0,P|159:100|93:180,1,134.999995880127,6|0,3:2|0:0,0:0:0:0:
95,224,193157,1,8,0:2:0:0:
270,34,193323,2,0,B|339:6|376:76|376:76|315:107,1,179.999994506836,6|0,3:2|0:0,0:0:0:0:
242,348,193823,6,0,B|190:350|183:306|183:306|221:250|291:255|317:315,1,239.999992675781,6|0,3:2|0:0,0:0:0:0:
384,375,195490,6,0,L|404:251,1,120,6|0,3:2|0:0,0:0:0:0:
418,181,195823,1,0,3:2:0:0:
171,271,195990,5,4,0:3:0:0:
231,330,196157,1,0,3:2:0:0:
313,307,196323,1,0,3:2:0:0:
193,190,196490,6,0,P|144:148|75:179,1,120,10|0,0:2|0:0,0:0:0:0:
38,214,196823,1,0,3:2:0:0:
253,98,196990,5,8,0:2:0:0:
36,19,197157,1,10,0:2:0:0:
124,242,197323,1,0,3:2:0:0:
216,12,197490,5,10,0:2:0:0:
320,243,197657,1,0,3:2:0:0:
477,49,197823,5,10,0:2:0:0:
463,22,197906,1,8,0:2:0:0:
439,5,197989,1,0,3:2:0:0:
410,0,198073,1,0,3:2:0:0:
381,9,198156,5,14,0:2:0:0:
264,138,198323,1,0,3:2:0:0:
435,175,198490,1,0,3:2:0:0:
264,17,198657,5,14,0:2:0:0:
320,243,198823,1,0,3:2:0:0:
481,67,198990,1,0,3:2:0:0:
245,150,199157,6,0,B|196:166|167:131|182:125|143:85|80:114,1,160,14|0,0:2|3:2,0:0:0:0:
7,300,199657,5,12,0:2:0:0:
154,343,199823,1,0,3:2:0:0:
118,194,199990,1,0,3:2:0:0:
55,384,200157,5,12,0:2:0:0:
211,241,200323,1,0,3:2:0:0:
7,161,200491,5,12,0:2:0:0:
154,343,200657,1,0,3:2:0:0:
161,354,200740,1,0,3:2:0:0:
168,365,200823,5,14,0:2:0:0:
293,262,200990,1,0,3:2:0:0:
142,206,201157,1,0,3:2:0:0:
278,384,201323,5,14,0:2:0:0:
249,165,201490,1,0,3:2:0:0:
74,300,201657,1,0,3:2:0:0:
371,303,201823,6,0,B|391:266|391:266|371:223,1,80,14|0,0:2|3:2,0:0:0:0:
293,51,202157,1,0,3:2:0:0:
221,258,202323,6,0,B|258:278|258:278|301:258,1,80,12|2,0:2|3:2,0:0:0:0:
459,176,202657,1,0,3:2:0:0:
213,82,202823,5,14,0:2:0:0:
375,231,202990,1,0,3:2:0:0:
169,350,203157,1,14,0:2:0:0:
141,359,203240,1,8,0:2:0:0:
112,351,203323,1,0,3:2:0:0:
93,329,203407,1,0,3:2:0:0:
90,300,203490,5,14,0:2:0:0:
167,166,203657,1,0,3:2:0:0:
245,299,203823,1,0,3:2:0:0:
53,193,203990,5,14,0:2:0:0:
277,188,204157,1,0,3:2:0:0:
161,384,204323,1,0,3:2:0:0:
123,84,204490,6,0,B|159:68|159:68|200:82,1,80,14|0,0:2|3:2,0:0:0:0:
385,209,204823,1,0,3:2:0:0:
316,8,204990,6,0,L|301:97,1,80,12|0,0:2|3:2,0:0:0:0:
254,284,205323,1,0,3:2:0:0:
408,106,205490,5,12,0:2:0:0:
191,170,205657,1,0,3:2:0:0:
334,300,205823,1,12,0:2:0:0:
303,87,205990,1,0,3:2:0:0:
299,97,206073,1,0,3:2:0:0:
296,107,206157,6,0,L|318:230,1,120,14|0,0:2|0:0,0:0:0:0:
334,300,206490,1,0,3:2:0:0:
412,131,206657,1,0,3:2:0:0:
231,251,206823,1,0,3:2:0:0:
437,318,206990,1,0,3:2:0:0:
296,107,207157,1,0,3:2:0:0:
193,365,207323,1,0,3:2:0:0:
67,105,207490,5,2,3:2:0:0:
317,225,207657,1,0,3:2:0:0:
81,384,207823,2,0,L|110:251,1,120,12|0,0:2|0:0,0:0:0:0:
126,192,208157,1,12,0:2:0:0:
324,361,208323,1,8,0:2:0:0:
335,371,208407,1,8,0:2:0:0:
347,380,208490,5,10,0:2:0:0:
385,370,208573,1,8,0:2:0:0:
424,360,208656,1,8,0:2:0:0:
463,350,208740,1,8,0:2:0:0:
501,340,208823,5,6,3:2:0:0:
317,225,208990,1,0,0:0:0:0:
509,124,209157,1,8,0:2:0:0:
505,233,209323,5,2,0:2:0:0:
320,117,209490,1,0,3:2:0:0:
313,334,209657,1,0,0:0:0:0:
408,283,209823,5,10,0:2:0:0:
416,66,209990,1,0,0:0:0:0:
225,168,210157,1,0,3:2:0:0:
317,225,210323,5,2,0:2:0:0:
134,110,210490,1,8,0:2:0:0:
325,8,210657,1,0,0:0:0:0:
313,334,210823,5,2,3:2:0:0:
230,61,210990,1,2,0:2:0:0:
320,117,211157,5,10,0:2:0:0:
234,255,211323,1,10,0:2:0:0:
228,266,211407,1,8,0:2:0:0:
222,277,211490,5,6,3:2:0:0:
230,61,211657,1,0,0:0:0:0:
411,175,211823,1,8,0:2:0:0:
317,225,211990,5,2,0:2:0:0:
133,110,212157,1,0,3:2:0:0:
323,10,212323,1,0,0:0:0:0:
320,117,212490,5,10,0:2:0:0:
128,218,212657,1,0,0:0:0:0:
136,4,212823,1,0,3:2:0:0:
230,61,212990,5,2,0:2:0:0:
40,161,213156,1,8,0:2:0:0:
224,276,213323,1,0,0:0:0:0:
320,334,213490,5,2,3:2:0:0:
133,110,213657,1,2,0:2:0:0:
128,218,213823,5,10,0:2:0:0:
238,83,213990,1,10,0:2:0:0:
234,72,214073,1,8,0:2:0:0:
230,61,214157,5,6,3:2:0:0:
133,110,214323,1,0,0:0:0:0:
40,161,214490,1,8,0:2:0:0:
321,117,214657,5,2,0:2:0:0:
42,54,214823,1,0,3:2:0:0:
127,327,214990,1,0,0:0:0:0:
224,276,215157,5,10,0:2:0:0:
228,167,215323,1,0,0:0:0:0:
230,61,215490,1,0,3:2:0:0:
316,334,215657,5,2,3:2:0:0:
133,110,215823,1,12,0:2:0:0:
419,64,215990,1,0,3:2:0:0:
510,94,216157,5,14,0:2:0:0:
501,140,216240,1,0,3:2:0:0:
493,187,216323,1,0,3:2:0:0:
486,235,216407,1,0,3:2:0:0:
479,282,216491,5,2,3:2:0:0:
468,290,216574,1,0,3:2:0:0:
455,295,216657,1,0,3:2:0:0:
441,297,216741,1,0,3:2:0:0:
428,295,216824,5,14,0:2:0:0:
339,216,216990,1,0,3:2:0:0:
316,334,217157,1,0,3:2:0:0:
227,202,217323,5,14,0:2:0:0:
158,346,217490,1,0,3:2:0:0:
68,215,217657,1,0,3:2:0:0:
236,294,217823,5,14,0:2:0:0:
52,342,217990,1,0,3:2:0:0:
144,163,218156,1,0,3:2:0:0:
258,384,218323,5,14,0:2:0:0:
68,215,218490,1,0,3:2:0:0:
317,143,218657,1,0,3:2:0:0:
158,346,218823,5,14,0:2:0:0:
222,55,218990,1,0,3:2:0:0:
339,311,219157,5,14,0:2:0:0:
50,125,219323,1,2,3:2:0:0:
341,26,219490,5,14,0:2:0:0:
210,278,219657,1,0,3:2:0:0:
90,26,219823,1,0,3:2:0:0:
366,218,219990,5,14,0:2:0:0:
66,338,220157,1,0,3:2:0:0:
200,44,220323,1,0,3:2:0:0:
354,359,220490,5,14,0:2:0:0:
32,160,220657,1,0,3:2:0:0:
355,7,220823,1,0,3:2:0:0:
196,373,220990,5,14,0:2:0:0:
505,143,221157,1,0,3:2:0:0:
115,22,221323,1,0,3:2:0:0:
354,359,221490,5,14,0:2:0:0:
433,362,221601,5,8,0:2:0:0:
478,293,221712,5,8,0:2:0:0:
441,220,221823,5,8,0:3:0:0:
401,198,221935,5,8,0:3:0:0:
359,217,222046,5,8,0:3:0:0:
315,284,222157,6,0,P|274:293|234:303,1,80,6|0,3:2|0:0,0:0:0:0:
202,201,222657,2,0,P|241:192|280:181,1,80,2|0,0:2|0:0,0:0:0:0:
402,53,223157,6,0,B|409:44|432:40|432:40|384:23|356:59|367:65|335:109|286:89,1,200,2|0,0:2|0:0,0:0:0:0:
206,53,224157,5,2,0:2:0:0:
134,104,224490,1,2,0:2:0:0:
142,192,224823,6,0,P|171:217|210:216,1,80,2|0,0:2|0:0,0:0:0:0:
329,274,225323,2,0,P|289:272|260:298,1,80,2|0,0:2|0:0,0:0:0:0:
407,363,225823,6,0,B|464:379|464:379|508:301|447:242,1,200,2|0,0:2|0:0,0:0:0:0:
379,194,226823,5,2,0:2:0:0:
388,102,227157,2,0,P|418:94|446:86,1,60,2|0,0:2|0:0,0:0:0:0:
474,64,227490,6,0,P|479:103|487:142,1,80,2|0,0:2|0:0,0:0:0:0:
379,194,227990,2,0,P|373:233|365:272,1,80,2|0,0:2|0:0,0:0:0:0:
433,336,228490,2,0,L|476:325,2,40,2|2|0,0:2|0:2|0:0,0:0:0:0:
294,204,228990,6,0,P|259:197|218:223,1,80,2|0,0:2|0:0,0:0:0:0:
160,280,229490,1,2,0:2:0:0:
43,162,229823,2,0,P|46:181|49:201,1,40,2|0,0:2|0:0,0:0:0:0:
166,101,230157,6,0,P|134:77|95:80,1,80,2|0,0:2|0:0,0:0:0:0:
199,189,230657,2,0,P|234:173|251:137,1,80,2|0,0:2|0:0,0:0:0:0:
303,0,231157,2,0,P|298:38|321:71,1,80,2|0,0:2|0:0,0:0:0:0:
414,184,231657,2,0,P|382:160|343:163,1,80,2|0,0:2|0:0,0:0:0:0:
273,229,232157,1,2,0:2:0:0:
317,365,232490,6,0,B|331:386|331:386|345:349|367:337|367:337|347:309|343:270,1,150,2|0,0:2|0:0,0:0:0:0:
273,229,232823,6,0,P|264:195|224:85,1,139.999995727539,6|2,3:2|3:2,0:0:0:0:
343,164,233323,1,2,0:2:0:0:
182,219,233490,2,0,P|149:206|116:197,1,69.9999978637696,0|0,3:2|0:0,0:0:0:0:
298,48,233823,6,0,P|363:72|430:92,1,139.999995727539,2|2,3:2|3:2,0:0:0:0:
343,164,234323,1,2,0:2:0:0:
512,113,234490,2,0,P|517:78|502:47,1,69.9999978637696,0|0,3:2|0:0,0:0:0:0:
444,202,234823,6,0,L|453:253,1,44.999998626709,2|0,3:2|0:0,0:0:0:0:
503,303,235157,6,0,P|472:323|435:321,1,75,2|0,3:2|0:0,0:0:0:0:
374,275,235490,6,0,B|335:277|305:255|305:255|293:291|251:313,1,139.999995727539,2|2,3:2|3:2,0:0:0:0:
123,263,235990,1,2,0:2:0:0:
221,150,236157,2,0,P|214:184|211:219,1,69.9999978637696,0|0,3:2|0:0,0:0:0:0:
38,120,236490,6,0,P|104:127|141:73,1,139.999995727539,2|2,3:2|3:2,0:0:0:0:
307,146,236990,1,2,0:2:0:0:
242,0,237157,2,0,P|235:34|232:69,1,69.9999978637696,0|0,3:2|0:0,0:0:0:0:
398,216,237490,6,0,P|403:163|412:111,1,104.999996795654,2|0,3:2|0:0,0:0:0:0:
428,87,237823,1,2,3:2:0:0:
307,146,237990,1,2,0:2:0:0:
439,311,238157,6,0,P|472:302|507:296,2,69.9999978637696,0|0|0,3:2|0:0|3:2,0:0:0:0:
311,237,238657,1,0,0:0:0:0:
339,384,238823,2,0,P|345:349|353:315,1,69.9999978637696,2|0,3:2|0:0,0:0:0:0:
307,146,239157,1,2,3:2:0:0:
162,268,239323,6,0,P|195:259|230:253,1,69.9999978637696,2|0,0:2|3:2,0:0:0:0:
123,100,239657,2,0,P|156:108|191:114,1,69.9999978637696,2|0,0:2|3:2,0:0:0:0:
63,243,239990,2,0,P|56:208|48:174,1,69.9999978637696,2|0,0:2|3:2,0:0:0:0:
216,322,240323,2,0,P|222:287|230:253,1,69.9999978637696,2|0,0:2|3:2,0:0:0:0:
276,56,240657,6,0,P|283:90|289:124,1,69.9999978637696,2|0,0:2|3:2,0:0:0:0:
399,294,240990,1,10,0:2:0:0:
405,301,241073,1,8,0:2:0:0:
415,305,241157,1,8,0:2:0:0:
429,308,241240,1,8,0:2:0:0:
443,304,241323,1,10,0:2:0:0:
458,295,241407,1,8,0:2:0:0:
469,276,241490,1,8,0:2:0:0:
471,248,241573,1,8,0:2:0:0:
457,217,241657,1,10,0:2:0:0:
428,191,241740,1,8,0:2:0:0:
385,181,241823,1,8,0:2:0:0:
341,200,241907,1,8,0:2:0:0:
311,248,241990,1,10,0:2:0:0:
317,318,242073,1,8,0:2:0:0:
377,376,242157,6,0,L|234:347,1,145,10|0,0:2|0:0,0:0:0:0:
235,347,244823,6,0,L|246:271,1,59.9999981689454,14|0,0:2|0:0,0:0:0:0:
272,33,244990,1,2,3:2:0:0:
421,273,245157,1,2,3:2:0:0:
96,175,245323,2,0,B|140:134|140:134|201:156,1,119.999996337891,14|0,0:2|3:2,0:0:0:0:
362,368,245657,1,2,3:2:0:0:
399,34,245823,6,0,L|390:93,1,59.9999981689454,12|0,0:2|0:0,0:0:0:0:
244,288,245990,1,2,3:2:0:0:
486,181,246157,1,2,3:2:0:0:
214,35,246323,2,0,L|193:178,1,119.999996337891,14|2,0:2|3:2,0:0:0:0:
362,368,246657,1,2,3:2:0:0:
57,272,246823,6,0,L|134:254,1,59.9999981689454,12|0,0:2|0:0,0:0:0:0:
486,181,246990,1,2,3:2:0:0:
103,22,247157,6,0,L|121:99,1,59.9999981689454,12|0,0:2|0:0,0:0:0:0:
232,354,247323,1,2,3:2:0:0:
228,368,247406,1,0,3:2:0:0:
225,383,247490,6,0,L|166:369,1,59.9999981689454,14|0,0:2|0:0,0:0:0:0:
283,147,247657,1,2,3:2:0:0:
362,368,247823,1,2,3:2:0:0:
57,272,247990,2,0,B|101:231|101:231|162:253,1,119.999996337891,14|0,0:2|3:2,0:0:0:0:
244,35,248323,1,2,3:2:0:0:
459,267,248490,6,0,L|400:253,1,59.9999981689454,12|0,0:2|0:0,0:0:0:0:
176,137,248657,1,2,3:2:0:0:
423,75,248823,1,2,3:2:0:0:
271,360,248990,2,0,L|250:216,1,119.999996337891,12|2,0:2|3:2,0:0:0:0:
127,37,249323,1,2,3:2:0:0:
55,360,249490,6,0,L|114:346,1,59.9999981689454,12|0,0:2|0:0,0:0:0:0:
362,157,249657,1,2,3:2:0:0:
23,28,249823,6,0,L|37:87,1,59.9999981689454,14|0,0:2|0:0,0:0:0:0:
254,241,249990,1,0,3:2:0:0:
257,226,250073,1,0,3:2:0:0:
260,211,250157,6,0,L|274:152,1,59.9999981689454,14|0,0:2|0:0,0:0:0:0:
70,261,250323,1,2,3:2:0:0:
300,371,250490,1,2,3:2:0:0:
173,44,250657,2,0,L|144:162,1,119.999996337891,14|0,0:2|3:2,0:0:0:0:
79,384,250990,1,2,3:2:0:0:
416,228,251157,6,0,L|357:214,1,59.9999981689454,12|0,0:2|0:0,0:0:0:0:
57,129,251323,1,2,3:2:0:0:
189,349,251490,1,2,3:2:0:0:
354,45,251657,2,0,B|295:30|295:30|248:80,1,119.999996337891,12|2,0:2|3:2,0:0:0:0:
365,318,251990,1,2,3:2:0:0:
502,11,252157,6,0,L|443:24,1,59.9999981689454,12|0,0:2|0:0,0:0:0:0:
158,93,252323,1,2,3:2:0:0:
378,377,252490,6,0,L|365:318,1,59.9999981689454,12|0,0:2|0:0,0:0:0:0:
255,73,252656,1,2,3:2:0:0:
258,58,252740,1,0,3:2:0:0:
261,43,252823,5,12,0:2:0:0:
489,250,252990,1,0,3:2:0:0:
189,349,253157,1,0,3:2:0:0:
364,43,253323,5,12,0:2:0:0:
378,377,253490,1,0,3:2:0:0:
106,174,253657,1,0,3:2:0:0:
463,119,253823,5,14,0:2:0:0:
189,349,253990,1,2,3:2:0:0:
42,8,254157,5,8,0:2:0:0:
86,16,254240,1,8,0:2:0:0:
130,25,254323,1,8,0:2:0:0:
174,34,254407,1,8,0:2:0:0:
218,43,254490,2,0,L|229:111,1,59.9999981689454,0|0,3:0|3:0,0:0:0:0:
61,332,254657,5,8,0:2:0:0:
22,309,254740,1,8,0:2:0:0:
0,270,254823,1,10,0:2:0:0:
1,226,254907,1,8,0:2:0:0:
23,187,254990,2,0,L|100:167,1,59.9999981689454,0|0,3:0|3:0,0:0:0:0:
371,186,255157,5,10,0:2:0:0:
363,230,255240,1,8,0:2:0:0:
354,274,255323,1,8,0:2:0:0:
345,317,255407,1,8,0:2:0:0:
336,362,255490,6,0,B|286:378|286:378|228:330,1,104.999996795654,6|2,3:2|0:2,0:0:0:0:
23,187,255823,1,10,0:2:0:0:
224,7,255990,2,0,L|185:174,1,157.499995193482,2|0,0:2|0:0,0:0:0:0:
169,232,256323,1,2,0:2:0:0:
58,11,256490,1,8,0:2:0:0:
324,137,256657,1,2,0:2:0:0:
336,133,256740,1,2,0:2:0:0:
348,129,256823,5,6,3:2:0:0:
146,17,256990,1,2,0:2:0:0:
260,253,257157,1,10,0:2:0:0:
430,8,257323,2,0,L|279:55,1,157.499995193482,2|0,0:2|0:0,0:0:0:0:
212,78,257657,1,2,0:2:0:0:
454,217,257823,1,8,0:2:0:0:
238,382,257990,1,10,0:2:0:0:
240,369,258073,1,10,0:2:0:0:
242,356,258157,6,0,L|261:245,1,104.999996795654,6|2,3:2|0:2,0:0:0:0:
458,90,258490,1,10,0:2:0:0:
205,0,258657,2,0,B|155:-19|126:16|138:28|95:60|39:29,1,157.499995193482,2|0,0:2|0:0,0:0:0:0:
0,0,258990,1,2,0:2:0:0:
222,134,259157,1,8,0:2:0:0:
6,329,259324,1,2,0:2:0:0:
3,316,259407,1,2,0:2:0:0:
0,303,259490,6,0,B|28:253|77:267|77:267|86:315|133:339,1,157.499995193482,6|0,3:2|0:0,0:0:0:0:
187,324,259823,1,10,0:2:0:0:
62,38,259990,2,0,B|24:73|24:73|51:145,1,104.999996795654,2|0,0:2|3:2,0:0:0:0:
309,260,260323,1,10,0:2:0:0:
213,4,260490,1,0,3:2:0:0:
76,239,260657,1,10,0:2:0:0:
320,74,260823,6,0,B|410:45|410:45|468:109,1,157.499995193482,4|0,3:2|0:0,0:0:0:0:
502,147,261157,2,0,L|477:262,1,104.999996795654,8|0,0:2|0:0,0:0:0:0:
251,384,261490,1,2,3:2:0:0:
384,144,261657,1,2,0:2:0:0:
512,384,261823,1,10,0:2:0:0:
259,239,261990,1,2,0:2:0:0:
502,147,262157,5,6,3:2:0:0:
393,370,262323,2,0,L|368:251,1,104.999996795654,2|8,0:2|0:2,0:0:0:0:
186,32,262657,2,0,P|118:19|60:105,1,157.499995193482,2|0,0:2|0:0,0:0:0:0:
6,127,262990,2,0,P|52:154|111:129,1,104.999996795654,2|8,0:2|0:2,0:0:0:0:
324,16,263323,1,10,0:2:0:0:
311,8,263407,1,8,0:2:0:0:
298,11,263490,6,0,L|271:184,1,157.499995193482,6|0,3:2|0:0,0:0:0:0:
259,239,263823,2,0,B|298:275|298:275|348:261,1,104.999996795654,8|0,0:2|0:0,0:0:0:0:
512,20,264157,5,2,3:2:0:0:
274,166,264323,1,0,3:0:0:0:
512,329,264490,1,12,0:2:0:0:
391,44,264657,1,0,3:0:0:0:
164,304,264823,5,14,0:2:0:0:
115,321,264906,1,8,0:2:0:0:
63,313,264989,1,8,0:2:0:0:
22,281,265072,1,8,0:2:0:0:
2,234,265156,1,8,0:2:0:0:
7,182,265239,1,8,0:2:0:0:
36,139,265322,1,8,0:2:0:0:
82,116,265406,1,8,0:2:0:0:
134,118,265489,1,2,3:2:0:0:
175,140,265573,1,0,3:2:0:0:
200,172,265657,1,0,3:2:0:0:
231,192,265740,1,0,3:2:0:0:
266,193,265823,1,2,3:2:0:0:
291,179,265907,1,0,3:2:0:0:
302,160,265990,1,0,3:2:0:0:
297,146,266073,1,0,3:2:0:0:
290,138,266157,5,14,0:2:0:0:
167,384,266323,1,0,3:2:0:0:
446,312,266490,1,2,3:2:0:0:
207,93,266657,5,14,0:2:0:0:
303,366,266823,1,0,3:2:0:0:
433,105,266990,1,0,3:2:0:0:
106,215,267157,5,14,0:2:0:0:
385,367,267323,1,0,3:2:0:0:
363,38,267490,1,2,3:2:0:0:
190,308,267656,5,14,0:2:0:0:
480,194,267823,1,0,3:2:0:0:
224,0,267990,1,0,3:2:0:0:
298,345,268157,5,14,0:2:0:0:
485,66,268323,1,0,3:2:0:0:
127,34,268490,5,14,0:2:0:0:
389,230,268657,1,2,3:2:0:0:
400,239,268740,1,0,3:2:0:0:
409,245,268823,6,0,B|442:205|442:205|412:122,1,104.999996795654,12|0,0:2|3:2,0:0:0:0:
211,303,269157,1,0,3:2:0:0:
485,66,269323,2,0,B|445:33|445:33|362:63,1,104.999996795654,12|2,0:2|3:2,0:0:0:0:
130,182,269657,1,0,3:2:0:0:
329,384,269823,6,0,B|362:344|362:344|332:261,1,104.999996795654,12|0,0:2|3:2,0:0:0:0:
264,56,270157,1,2,3:2:0:0:
121,288,270323,2,0,B|161:321|161:321|244:291,1,104.999996795654,12|0,0:2|3:2,0:0:0:0:
425,170,270657,1,0,3:2:0:0:
104,29,270823,5,14,0:2:0:0:
78,58,270906,1,0,3:2:0:0:
71,96,270989,1,0,3:2:0:0:
83,133,271072,1,0,3:2:0:0:
113,159,271157,1,2,3:2:0:0:
141,184,271241,1,0,3:2:0:0:
154,221,271324,1,0,3:2:0:0:
147,259,271407,1,0,3:2:0:0:
121,288,271490,6,0,L|51:278,1,59.9999981689454,14|0,0:2|0:0,0:0:0:0:
248,29,271657,1,0,3:2:0:0:
349,365,271823,1,2,3:2:0:0:
71,96,271990,6,0,L|141:86,1,59.9999981689454,14|0,0:2|0:0,0:0:0:0:
512,43,272157,1,0,3:2:0:0:
211,341,272323,1,0,3:2:0:0:
403,0,272490,6,0,L|413:70,1,59.9999981689454,14|0,0:2|0:0,0:0:0:0:
456,384,272657,1,0,3:2:0:0:
141,184,272823,1,2,3:2:0:0:
512,211,272990,6,0,L|442:221,1,59.9999981689454,14|0,0:2|0:0,0:0:0:0:
103,349,273157,1,0,3:2:0:0:
287,1,273323,1,0,3:2:0:0:
282,323,273490,5,14,0:2:0:0:
220,260,273601,5,8,0:2:0:0:
242,174,273712,5,8,0:2:0:0:
327,150,273823,5,8,0:3:0:0:
359,112,273935,5,8,0:3:0:0:
350,65,274046,5,8,0:3:0:0:
287,1,274157,6,0,B|242:11|223:69|223:69|196:16|139:19|139:19|73:94|131:161,1,359.999989013672,4|0,3:2|0:0,0:0:0:0:
207,210,276323,5,0,3:2:0:0:
220,207,276407,1,0,3:2:0:0:
233,204,276490,1,8,0:2:0:0:
26,20,276657,1,0,3:2:0:0:
318,252,276823,6,0,B|346:217|346:217|325:164,1,89.9999972534181,12|0,0:2|3:2,0:0:0:0:
243,339,277157,1,2,3:2:0:0:
462,369,277323,2,0,L|444:271,1,89.9999972534181,12|0,0:2|3:2,0:0:0:0:
404,75,277657,1,2,3:2:0:0:
207,210,277823,6,0,B|164:226|164:226|129:198,1,89.9999972534181,12|0,0:2|3:2,0:0:0:0:
217,19,278157,1,2,3:2:0:0:
329,174,278323,2,0,B|346:217|346:217|318:252,1,89.9999972534181,12|0,0:2|3:2,0:0:0:0:
130,344,278657,1,2,3:2:0:0:
227,118,278823,5,12,0:2:0:0:
323,361,278990,1,0,3:2:0:0:
404,75,279157,5,14,0:2:0:0:
462,331,279323,1,0,3:2:0:0:
468,341,279407,1,0,3:2:0:0:
473,351,279490,6,0,B|488:309|488:309|458:253,1,89.9999972534181,12|0,0:2|3:2,0:0:0:0:
316,97,279823,1,2,3:2:0:0:
198,264,279990,2,0,B|239:279|239:279|296:249,1,89.9999972534181,12|0,0:2|3:2,0:0:0:0:
479,137,280323,1,2,3:2:0:0:
226,40,280490,6,0,L|208:149,1,89.9999972534181,12|0,0:2|3:2,0:0:0:0:
174,354,280823,1,2,3:2:0:0:
31,187,280990,2,0,B|71:165|71:165|113:180,1,89.9999972534181,12|0,0:2|3:2,0:0:0:0:
280,257,281323,1,2,3:2:0:0:
30,305,281490,5,12,0:2:0:0:
141,80,281657,1,0,3:2:0:0:
286,355,281823,5,14,0:2:0:0:
38,175,281990,1,0,3:2:0:0:
31,187,282073,1,0,3:2:0:0:
25,198,282157,6,0,L|113:179,1,89.9999972534181,12|0,0:2|3:2,0:0:0:0:
298,135,282490,1,2,3:2:0:0:
185,336,282657,2,0,B|163:296|163:296|178:254,1,89.9999972534181,12|0,0:2|3:2,0:0:0:0:
247,56,282990,1,2,3:2:0:0:
365,309,283157,6,0,L|277:290,1,89.9999972534181,12|0,0:2|3:2,0:0:0:0:
113,179,283490,1,2,3:2:0:0:
320,124,283657,2,0,P|348:166|335:214,1,89.9999972534181,12|0,0:2|3:2,0:0:0:0:
168,97,283990,1,2,3:2:0:0:
384,28,284157,5,12,0:2:0:0:
250,195,284323,1,0,3:2:0:0:
242,204,284407,1,0,3:2:0:0:
235,213,284490,1,14,0:2:0:0:
181,7,284657,1,0,3:2:0:0:
440,138,284823,6,0,L|420:252,1,89.9999972534181,12|0,0:2|3:2,0:0:0:0:
288,347,285157,1,2,3:2:0:0:
197,117,285323,2,0,B|235:94|235:94|296:114,1,89.9999972534181,12|0,0:2|3:2,0:0:0:0:
175,307,285657,1,2,3:2:0:0:
84,56,285823,5,12,0:2:0:0:
259,202,285990,1,0,3:2:0:0:
75,372,286157,5,10,0:2:0:0:
52,332,286240,1,8,0:2:0:0:
49,288,286323,1,8,0:2:0:0:
66,246,286406,1,8,0:2:0:0:
98,214,286490,1,8,0:3:0:0:
127,185,286574,1,8,0:3:0:0:
142,147,286657,1,8,0:3:0:0:
140,107,286740,1,8,0:3:0:0:
120,71,286823,1,0,3:2:0:0:
84,56,286907,1,0,3:2:0:0:
47,58,286990,1,0,3:2:0:0:
19,77,287073,1,0,3:2:0:0:
5,97,287157,1,2,3:2:0:0:
0,116,287240,1,0,3:2:0:0:
3,134,287323,1,0,3:2:0:0:
8,143,287407,1,0,3:2:0:0:
16,148,287490,6,0,L|73:134,1,52.4999983978272,14|0,0:2|0:0,0:0:0:0:
298,79,287657,1,0,3:2:0:0:
232,306,287823,1,2,3:2:0:0:
142,0,287990,6,0,L|199:14,1,52.4999983978272,14|0,0:2|0:0,0:0:0:0:
424,69,288157,1,0,3:2:0:0:
199,173,288323,1,2,3:2:0:0:
345,384,288490,6,0,L|336:325,1,52.4999983978272,14|0,0:2|0:0,0:0:0:0:
298,79,288657,1,0,3:2:0:0:
100,267,288823,1,2,3:2:0:0:
481,242,288990,6,0,L|424:228,1,52.4999983978272,14|0,0:2|0:0,0:0:0:0:
199,173,289157,1,0,3:2:0:0:
424,69,289323,1,2,3:2:0:0:
220,357,289490,6,0,L|234:300,1,52.4999983978272,14|0,0:2|0:0,0:0:0:0:
298,79,289657,1,0,3:2:0:0:
309,117,289740,1,0,3:2:0:0:
320,155,289823,2,0,L|334:212,1,52.4999983978272,14|0,0:2|0:0,0:0:0:0:
55,178,289990,1,0,3:2:0:0:
213,0,290157,6,0,L|199:57,1,52.4999983978272,14|0,0:2|0:0,0:0:0:0:
142,291,290323,1,0,3:2:0:0:
309,117,290490,1,2,3:2:0:0:
4,165,290657,6,0,L|61:179,1,52.4999983978272,14|0,0:2|0:0,0:0:0:0:
295,236,290823,1,0,3:2:0:0:
113,52,290990,1,2,3:2:0:0:
130,342,291157,6,0,L|144:285,1,52.4999983978272,14|0,0:2|0:0,0:0:0:0:
201,51,291323,1,0,3:2:0:0:
307,260,291490,1,2,3:2:0:0:
486,35,291657,6,0,L|472:92,1,52.4999983978272,14|0,0:2|0:0,0:0:0:0:
415,326,291823,1,0,3:2:0:0:
309,117,291990,1,2,3:2:0:0:
130,342,292157,6,0,L|187:328,1,52.4999983978272,14|0,0:2|0:0,0:0:0:0:
483,250,292323,1,0,3:2:0:0:
189,0,292490,6,0,L|203:57,1,52.4999983978272,14|0,0:2|0:0,0:0:0:0:
317,307,292657,1,0,3:2:0:0:
306,345,292740,1,0,3:2:0:0:
295,383,292823,6,0,L|238:369,1,52.4999983978272,14|0,0:2|0:0,0:0:0:0:
40,320,292990,1,0,3:2:0:0:
185,168,293157,1,2,3:2:0:0:
469,332,293323,6,0,L|412:318,1,52.4999983978272,14|0,0:2|0:0,0:0:0:0:
214,269,293490,1,0,3:2:0:0:
359,117,293657,1,2,3:2:0:0:
69,93,293823,6,0,L|83:150,1,52.4999983978272,14|0,0:2|0:0,0:0:0:0:
142,346,293990,1,0,3:2:0:0:
287,194,294157,1,2,3:2:0:0:
141,16,294323,6,0,L|155:73,1,52.4999983978272,14|0,0:2|0:0,0:0:0:0:
214,269,294490,1,0,3:2:0:0:
359,117,294657,1,2,3:2:0:0:
61,228,294823,6,0,L|117:244,1,52.4999983978272,14|0,0:2|0:0,0:0:0:0:
418,319,294990,1,0,3:2:0:0:
124,384,295157,6,0,L|140:327,1,52.4999983978272,14|0,0:2|0:0,0:0:0:0:
370,155,295324,1,0,3:2:0:0:
359,117,295407,1,0,3:2:0:0:
348,79,295490,6,0,L|331:22,1,52.4999983978272,14|0,0:2|0:0,0:0:0:0:
82,144,295657,1,8,0:3:0:0:
126,170,295740,1,8,0:3:0:0:
178,170,295823,1,8,0:3:0:0:
221,142,295906,1,8,0:3:0:0:
244,96,295990,6,0,L|227:39,1,52.4999983978272,10|0,0:2|0:0,0:0:0:0:
27,219,296157,1,8,0:3:0:0:
0,263,296240,1,8,0:3:0:0:
0,315,296323,1,8,0:3:0:0:
28,358,296406,1,8,0:3:0:0:
75,380,296490,6,0,L|131:363,1,52.4999983978272,10|0,0:2|0:0,0:0:0:0:
326,182,296657,1,8,0:3:0:0:
370,155,296740,1,8,0:3:0:0:
422,155,296823,1,8,0:3:0:0:
465,183,296906,1,8,0:3:0:0:
487,230,296990,6,0,L|470:286,1,52.4999983978272,10|0,0:2|0:0,0:0:0:0:
232,272,297157,1,8,0:3:0:0:
186,247,297240,1,8,0:3:0:0:
160,202,297323,1,8,0:3:0:0:
163,151,297406,1,8,0:3:0:0:
193,108,297490,6,0,L|250:93,1,52.4999983978272,10|0,0:2|0:0,0:0:0:0:
509,62,297657,1,8,0:2:0:0:
478,20,297740,1,8,0:2:0:0:
427,10,297823,1,10,0:2:0:0:
381,32,297906,1,8,0:2:0:0:
363,80,297990,1,8,0:2:0:0:
378,128,298073,1,8,0:2:0:0:
422,155,298156,5,6,3:2:0:0:
422,155,298490,2,0,P|410:213|399:272,1,120,2|2,0:2|0:2,0:0:0:0:
207,237,299490,2,0,P|218:178|229:119,1,120,2|2,0:2|0:2,0:0:0:0:
325,337,300490,2,0,P|297:322|243:328,1,80
250,325,301157,6,0,P|219:314|217:226,1,120,2|2,0:2|0:2,0:0:0:0:
364,103,302157,2,0,P|395:114|397:202,1,120,2|2,0:2|0:2,0:0:0:0:
232,87,303157,2,0,B|219:49|219:49|245:8,1,80,2|0,0:2|0:0,0:0:0:0:
