osu file format v14

[General]
AudioFilename: audio.mp3
AudioLeadIn: 0
PreviewTime: 244137
Countdown: 0
SampleSet: Soft
StackLeniency: 0.4
Mode: 0
LetterboxInBreaks: 0
WidescreenStoryboard: 1

[Editor]
Bookmarks: 11554
DistanceSpacing: 1.2
BeatDivisor: 4
GridSize: 4
TimelineZoom: 1.7

[Metadata]
Title:Neo-Aspect
TitleUnicode:Neo-Aspect
Artist:Roselia
ArtistUnicode:Roselia
Creator:Doormat
Version:Normal
Source:バンドリ! ガールズバンドパーティ!
Tags:Kalibe CLSW Crystal BanG Dream! Girls Band Party bandori garupa ガルパ ロゼリア full size minato yukina 湊友希那 aiba aina 相羽あいな hikawa sayo 氷川紗夜 kudou haruka 工藤晴香 imai lisa 今井リサ endou yurika 遠藤ゆりか nakashima yuki 中島由貴 udagawa ako 宇田川あこ sakuragawa megu 櫻川めぐ shirokane rinko 白金燐子 akesaka satomi 明坂聡美
BeatmapID:1689790
BeatmapSetID:800589

[Difficulty]
HPDrainRate:4
CircleSize:3.5
OverallDifficulty:4.5
ApproachRate:5
SliderMultiplier:0.999999999999999
SliderTickRate:1

[Events]
//Background and Video events
0,0,"neo-rinko.jpg",0,0
//Break Periods
2,27753,36687
2,222421,231687
2,242421,243688
//Storyboard Layer 0 (Background)
//Storyboard Layer 1 (Fail)
//Storyboard Layer 2 (Pass)
//Storyboard Layer 3 (Foreground)
//Storyboard Sound Samples

[TimingPoints]
888,333.333333333333,4,2,2,50,1,0
888,-111.111111111111,4,2,2,50,0,0
11387,-100,4,2,1,60,0,0
12054,-100,4,2,1,80,0,0
12387,-100,4,2,1,60,0,0
13054,-100,4,2,1,80,0,0
13387,-100,4,2,1,60,0,0
13887,-100,4,2,1,80,0,0
14137,-100,4,2,1,5,0,0
14221,-100,4,2,1,60,0,0
14721,-100,4,2,1,80,0,0
15054,-100,4,2,1,60,0,0
15721,-100,4,2,1,80,0,0
16054,-100,4,2,1,60,0,0
16221,-100,4,2,1,70,0,0
16887,-100,4,2,1,80,0,0
27554,-100,4,2,1,50,0,0
27637,-100,4,2,1,5,0,0
30221,-100,4,2,2,50,0,0
31304,-100,4,2,2,5,0,0
32554,-100,4,2,2,50,0,0
33971,-100,4,2,2,5,0,0
35554,-100,4,2,2,50,0,0
37887,-100,4,2,1,60,0,0
38137,-100,4,2,1,5,0,0
38221,-100,4,2,1,70,0,0
48887,-111.111111111111,4,2,1,60,0,0
59554,-100,4,2,1,70,0,0
64887,-100,4,2,1,70,0,0
67554,-100,4,2,1,80,0,0
67804,-100,4,2,1,5,0,0
67887,-100,4,2,1,80,0,0
68887,-100,4,2,1,50,0,0
70221,-100,4,2,1,90,0,1
80137,-100,4,2,1,5,0,1
80221,-100,4,2,1,90,0,1
80804,-100,4,2,1,90,0,0
80887,-100,4,2,1,90,0,1
91471,-100,4,2,1,90,0,0
91554,-100,4,2,1,90,0,1
94221,-100,4,2,1,80,0,0
96054,-100,4,2,1,5,0,0
96387,-100,4,2,1,60,0,0
96804,-100,4,2,1,5,0,0
96887,-100,4,2,1,90,0,1
107554,-100,4,2,1,80,0,0
118221,-100,4,2,1,60,0,0
128221,-100,4,2,1,60,0,0
128887,-100,4,2,1,70,0,0
139554,-100,4,2,1,60,0,0
144887,-111.111111111111,4,2,1,50,0,0
150221,-100,4,2,1,70,0,0
155554,-100,4,2,1,70,0,0
158221,-100,4,2,1,80,0,0
158471,-100,4,2,1,5,0,0
158554,-100,4,2,1,80,0,0
159554,-100,4,2,1,80,0,0
160554,-100,4,2,1,60,0,0
160804,-100,4,2,1,5,0,0
160887,-100,4,2,1,90,0,1
170804,-100,4,2,1,5,0,1
170887,-100,4,2,1,90,0,1
171471,-100,4,2,1,90,0,0
171554,-100,4,2,1,90,0,1
182137,-100,4,2,1,90,0,0
182221,-100,4,2,1,90,0,1
184887,-100,4,2,1,80,0,0
186054,-100,4,2,1,5,0,0
187054,-100,4,2,1,60,0,0
187471,-100,4,2,1,5,0,0
187554,-111.111111111111,4,2,1,70,0,0
188554,-111.111111111111,4,2,1,70,0,0
188637,-111.111111111111,4,2,1,5,0,0
189887,-111.111111111111,4,2,1,70,0,0
190304,-111.111111111111,4,2,1,5,0,0
191554,-111.111111111111,4,2,1,70,0,0
192887,-111.111111111111,4,2,1,70,0,0
193887,-111.111111111111,4,2,1,70,0,0
193971,-111.111111111111,4,2,1,5,0,0
195054,-111.111111111111,4,2,1,70,0,0
195554,-100,4,2,1,70,0,0
198221,-100,4,2,1,70,0,0
206221,-100,4,2,1,70,0,0
206471,-100,4,2,1,5,0,0
206554,-100,4,2,1,70,0,0
207554,-100,4,2,1,70,0,0
208887,-100,4,2,1,80,0,1
221554,-100,4,2,1,70,0,1
221887,-100,4,2,1,60,0,1
222221,-100,4,2,2,50,0,0
223304,-100,4,2,2,5,0,0
224221,-100,4,2,2,50,0,0
225971,-100,4,2,2,5,0,0
226887,-100,4,2,2,50,0,0
232221,-100,4,2,2,50,0,0
232887,-100,4,2,1,60,0,0
239887,-100,4,2,1,65,0,0
240221,-100,4,2,1,70,0,0
240554,-100,4,2,1,75,0,0
240887,-100,4,2,1,80,0,0
242221,-100,4,2,1,50,0,0
244554,-100,4,2,1,5,0,0
244887,-100,4,2,1,90,0,1
255471,-100,4,2,1,90,0,0
255554,-100,4,2,1,90,0,1
266137,-100,4,2,1,90,0,0
266221,-100,4,2,1,90,0,1
271471,-100,4,2,1,90,0,0
271554,-100,4,2,1,90,0,1
274221,-100,4,2,1,80,0,0
276054,-100,4,2,1,5,0,0
276387,-100,4,2,1,90,0,0
276887,-100,4,2,1,90,0,1
287471,-100,4,2,1,90,0,0
287554,-100,4,2,1,90,0,1
295554,-100,4,2,1,100,0,1
296054,-100,4,2,1,100,0,1
296554,-100,4,2,1,100,0,1
297054,-100,4,2,1,100,0,1
297554,-100,4,2,1,100,0,1
298221,-100,4,2,1,60,0,0
298304,-100,4,2,1,30,0,0
303554,-100,4,2,1,10,0,0

[Colours]
Combo1 : 4,45,155
Combo2 : 165,175,235
Combo3 : 55,110,250
Combo4 : 135,35,175

[HitObjects]
400,244,888,6,0,P|350:234|306:255,1,89.999997253418,0|0,0:0|0:0,0:0:0:0:
282,264,1387,2,0,P|291:214|270:170,1,89.999997253418,0|0,0:0|0:0,0:0:0:0:
248,160,1887,2,0,B|184:164|136:212|136:212|96:148|36:116|36:116|96:100|136:64,1,359.999989013672,0|0,0:0|0:0,0:0:0:0:
219,19,3554,6,0,P|261:36|305:48,1,89.999997253418,0|0,0:0|0:0,0:0:0:0:
328,76,4054,2,0,P|369:59|413:47,1,89.999997253418,0|0,0:0|0:0,0:0:0:0:
448,56,4554,2,0,B|460:116|424:168|424:168|472:192|504:248|504:248|432:264|388:312,1,359.999989013672,0|0,0:0|0:0,0:0:0:0:
280,324,6221,6,0,L|188:300,1,89.999997253418,0|0,0:0|0:0,0:0:0:0:
156,304,6721,2,0,L|130:212,1,89.999997253418,0|0,0:0|0:0,0:0:0:0:
104,196,7221,2,0,B|196:204|196:204|244:124|244:124|276:160|328:164|328:164|300:208|320:256,1,359.999989013672,0|0,0:0|0:0,0:0:0:0:
424,267,8887,6,0,P|449:231|451:186,1,89.999997253418,0|0,0:0|0:0,0:0:0:0:
444,152,9387,2,0,P|414:119|405:75,1,89.999997253418,0|0,0:0|0:0,0:0:0:0:
400,40,9887,2,0,P|367:69|323:78,1,89.999997253418,0|0,0:0|0:0,0:0:0:0:
288,84,10387,2,0,P|251:58|206:56,1,89.999997253418,2|2,0:0|0:0,0:0:0:0:
176,76,10887,1,2,0:0:0:0:
224,180,11221,2,0,L|216:240,1,44.999998626709,2|2,0:0|0:0,0:0:0:0:
188,248,11554,5,2,0:0:0:0:
184,252,11721,1,2,0:0:0:0:
68,224,12054,2,0,P|48:178|57:130,1,99.9999999999999,0|2,1:0|0:0,0:0:0:0:
80,100,12554,5,0,0:0:0:0:
84,104,12721,1,2,0:0:0:0:
200,124,13054,2,0,L|320:104,1,99.9999999999999,0|2,1:0|0:0,0:0:0:0:
332,88,13554,5,2,0:0:0:0:
336,92,13721,1,2,0:0:0:0:
340,96,13887,1,0,1:0:0:0:
428,180,14221,5,2,0:0:0:0:
424,184,14387,1,2,0:0:0:0:
328,256,14721,2,0,L|224:236,1,99.9999999999999,0|2,1:0|0:0,0:0:0:0:
196,220,15221,5,2,0:0:0:0:
192,224,15387,1,2,0:0:0:0:
71,244,15721,2,0,P|54:290|69:337,1,99.9999999999999,0|2,1:0|0:0,0:0:0:0:
92,368,16221,5,4,0:0:0:0:
96,364,16387,1,2,0:0:0:0:
100,360,16554,1,2,0:0:0:0:
220,348,16887,6,0,L|318:366,1,99.9999999999999,12|2,0:0|0:0,0:0:0:0:
352,384,17387,2,0,L|434:327,1,99.9999999999999,12|2,0:0|0:0,0:0:0:0:
470,316,17887,2,0,L|487:217,1,99.9999999999999,12|2,0:0|0:0,0:0:0:0:
506,184,18387,2,0,L|449:102,1,99.9999999999999,12|2,0:0|0:0,0:0:0:0:
438,65,18887,1,12,0:0:0:0:
344,140,19221,1,12,0:0:0:0:
232,92,19554,6,0,P|185:74|136:78,1,99.9999999999999,12|2,0:0|0:0,0:0:0:0:
108,104,20054,2,0,P|146:135|166:181,1,99.9999999999999,12|2,0:0|0:0,0:0:0:0:
180,216,20554,2,0,P|133:198|84:202,1,99.9999999999999,12|2,0:0|0:0,0:0:0:0:
55,227,21054,2,0,P|93:258|113:304,1,99.9999999999999,12|2,0:0|0:0,0:0:0:0:
100,340,21554,1,12,0:0:0:0:
212,380,21887,1,2,0:0:0:0:
272,276,22221,6,0,L|264:220,2,50,12|2|2,0:0|0:0|0:0,0:0:0:0:
300,300,22721,2,0,P|349:304|393:282,1,99.9999999999999,12|2,0:0|0:0,0:0:0:0:
424,260,23221,2,0,L|480:268,2,50,12|2|2,0:0|0:0|0:0,0:0:0:0:
400,232,23721,2,0,P|395:182|417:138,1,99.9999999999999,12|2,0:0|0:0,0:0:0:0:
448,116,24221,1,12,0:0:0:0:
368,28,24554,1,12,0:0:0:0:
259,76,24887,6,0,L|210:64,2,50,12|2|2,0:0|0:0|0:0,0:0:0:0:
279,107,25387,2,0,P|271:156|238:193,1,99.9999999999999,12|2,0:0|0:0,0:0:0:0:
208,216,25887,2,0,L|219:264,2,50,12|2|2,0:0|0:0|0:0,0:0:0:0:
176,196,26387,2,0,P|127:204|90:237,1,99.9999999999999,12|2,0:0|0:0,0:0:0:0:
68,268,26887,1,2,0:0:0:0:
64,272,27054,2,0,P|57:200|-13:141,1,150,2|6,0:0|0:0,0:0:0:0:
256,192,37887,5,4,0:3:0:0:
192,296,38221,6,0,P|142:292|92:285,1,99.9999999999999,6|8,0:0|0:0,0:0:0:0:
52,172,38887,2,0,L|-16:180,2,50,2|0|2,0:0|0:0|0:0,0:0:0:0:
88,160,39387,2,0,P|107:114|96:67,1,99.9999999999999,8|0,0:0|0:0,0:0:0:0:
64,48,39887,1,8,0:0:0:0:
180,12,40221,1,2,0:0:0:0:
240,116,40554,2,0,L|296:108,1,50,8|2,0:0|0:0,0:0:0:0:
324,92,40887,6,0,P|316:132|312:204,1,99.9999999999999,2|8,0:0|0:0,0:0:0:0:
392,280,41554,1,2,0:0:0:0:
276,312,41887,2,0,L|220:300,1,50,0|8,0:0|0:0,0:0:0:0:
196,280,42221,2,0,P|160:304|84:304,1,99.9999999999999,2|8,0:0|0:0,0:0:0:0:
68,300,42721,2,0,P|64:250|38:208,1,99.9999999999999,0|2,0:0|0:0,0:0:0:0:
4,192,43221,1,2,0:0:0:0:
88,108,43554,6,0,P|144:120|200:124,2,99.9999999999999,6|8|2,0:0|0:0|0:0,0:0:0:0:
156,8,44554,1,2,0:0:0:0:
160,12,44721,1,8,0:0:0:0:
164,16,44887,2,0,P|213:11|262:0,1,99.9999999999999,0|8,0:0|0:0,0:0:0:0:
300,8,45387,1,0,0:0:0:0:
304,11,45554,2,0,P|295:60|293:110,1,99.9999999999999,2|8,0:0|0:0,0:0:0:0:
384,188,46221,6,0,P|351:224|299:232,1,99.9999999999999,6|8,0:0|0:0,0:0:0:0:
192,188,46887,1,2,0:0:0:0:
188,184,47054,1,2,0:0:0:0:
80,240,47387,2,0,P|92:292|100:348,1,99.9999999999999,8|2,0:0|0:0,0:0:0:0:
92,376,47887,1,12,0:0:0:0:
212,376,48221,2,0,L|260:364,1,50,2|2,0:0|0:0,0:0:0:0:
292,344,48554,2,0,L|339:358,1,50,2|2,0:0|0:0,0:0:0:0:
372,376,48887,6,0,P|401:342|405:298,1,89.999997253418,6|8,0:0|0:0,0:0:0:0:
364,192,49554,1,2,0:0:0:0:
360,196,49721,1,2,0:0:0:0:
256,240,50054,2,0,P|211:235|178:206,1,89.999997253418,8|2,0:0|0:0,0:0:0:0:
160,176,50554,1,8,0:0:0:0:
200,72,50887,2,0,L|264:84,1,44.999998626709,2|2,0:0|0:0,0:0:0:0:
276,96,51221,2,0,L|337:74,1,44.999998626709,8|2,0:0|0:0,0:0:0:0:
344,56,51554,6,0,P|356:96|404:140,1,89.999997253418,6|8,0:0|0:0,0:0:0:0:
480,200,52221,1,2,0:0:0:0:
476,204,52387,1,2,0:0:0:0:
368,244,52721,2,0,P|324:233|280:243,1,89.999997253418,8|2,0:0|0:0,0:0:0:0:
252,264,53221,1,8,0:0:0:0:
152,208,53554,2,0,L|160:152,1,44.999998626709,2|2,0:0|0:0,0:0:0:0:
180,136,53887,2,0,L|158:83,1,44.999998626709,2|2,0:0|0:0,0:0:0:0:
144,64,54221,6,0,P|84:76|40:56,1,89.999997253418,6|8,0:0|0:0,0:0:0:0:
4,168,54887,1,2,0:0:0:0:
0,172,55054,2,0,L|12:232,1,44.999998626709,2|0,0:0|0:0,0:0:0:0:
8,252,55387,2,0,L|112:284,1,89.999997253418,8|2,0:0|0:0,0:0:0:0:
120,304,55887,2,0,L|216:253,1,89.999997253418,8|2,0:0|0:0,0:0:0:0:
228,240,56387,1,2,0:0:0:0:
232,244,56554,1,8,0:0:0:0:
146,169,56887,6,0,P|136:124|152:81,1,89.999997253418,6|8,0:0|0:0,0:0:0:0:
240,12,57554,1,2,0:0:0:0:
244,16,57721,2,0,L|308:28,1,44.999998626709,2|0,0:0|0:0,0:0:0:0:
316,48,58054,2,0,L|416:28,1,89.999997253418,8|2,0:0|0:0,0:0:0:0:
440,36,58554,2,0,P|431:56|431:79,1,44.999998626709,8|8,0:0|3:0,0:0:0:0:
448,112,58887,2,0,P|453:133|451:155,1,44.999998626709,8|4,0:3|0:3,0:0:0:0:
428,184,59221,1,4,0:0:0:0:
309,184,59554,6,0,P|256:182|212:154,1,99.9999999999999,6|8,0:0|0:0,0:0:0:0:
190,131,60054,1,0,0:0:0:0:
186,135,60221,1,2,0:0:0:0:
89,205,60554,2,0,P|118:248|121:299,1,99.9999999999999,8|2,0:0|0:0,0:0:0:0:
116,332,61054,1,0,0:0:0:0:
112,336,61221,1,8,0:0:0:0:
224,372,61554,1,2,0:0:0:0:
260,260,61887,1,8,0:0:0:0:
372,296,62221,6,0,L|492:276,1,99.9999999999999,6|8,0:0|0:0,0:0:0:0:
504,264,62721,1,0,0:0:0:0:
508,268,62887,1,2,0:0:0:0:
468,152,63221,2,0,L|348:132,1,99.9999999999999,8|10,0:0|0:0,0:0:0:0:
336,120,63721,1,2,0:0:0:0:
332,124,63887,2,0,P|328:156|316:180,1,50,10|2,0:0|0:0,0:0:0:0:
292,196,64221,2,0,P|252:172|184:164,1,99.9999999999999,2|2,0:0|0:0,0:0:0:0:
92,216,64887,6,0,L|108:320,1,99.9999999999999,12|2,0:0|0:0,0:0:0:0:
112,352,65387,1,12,0:0:0:0:
288,384,65887,2,0,L|304:280,1,99.9999999999999,12|2,0:0|0:0,0:0:0:0:
308,248,66387,1,12,0:0:0:0:
240,84,66887,2,0,L|176:100,1,50,12|2,0:0|0:0,0:0:0:0:
156,112,67221,2,0,L|99:78,1,50,12|2,0:0|0:0,0:0:0:0:
80,68,67554,6,0,P|51:108|52:157,1,99.9999999999999,6|2,0:0|0:0,0:0:0:0:
68,192,68054,1,2,0:0:0:0:
72,196,68221,2,0,L|64:256,1,50,2|2,0:0|0:0,0:0:0:0:
40,276,68554,2,0,L|63:331,1,50,2|2,0:0|0:0,0:0:0:0:
84,352,68887,1,0,0:0:0:0:
420,136,70221,6,0,L|432:192,2,50,12|0|2,0:0|0:0|0:0,0:0:0:0:
420,96,70721,2,0,P|377:120|327:116,1,99.9999999999999,12|2,0:0|0:0,0:0:0:0:
292,100,71221,1,12,0:0:0:0:
184,152,71554,1,2,0:0:0:0:
184,152,71721,2,0,L|206:249,1,99.9999999999999,12|2,0:0|0:0,0:0:0:0:
224,284,72221,1,12,0:0:0:0:
136,368,72554,2,0,L|72:356,1,50,12|2,0:0|0:0,0:0:0:0:
52,340,72887,6,0,L|2:349,2,50,12|0|2,0:0|0:0|0:0,0:0:0:0:
68,304,73387,2,0,P|92:256|68:200,1,99.9999999999999,12|2,0:0|0:0,0:0:0:0:
52,184,73887,2,0,P|40:136|64:93,1,99.9999999999999,12|2,0:0|0:0,0:0:0:0:
100,76,74387,2,0,P|142:99|190:88,1,99.9999999999999,12|2,0:0|0:0,0:0:0:0:
224,68,74887,1,12,0:0:0:0:
304,160,75221,1,12,0:0:0:0:
396,80,75554,6,0,L|384:24,2,50,12|2|2,0:0|0:0|0:0,0:0:0:0:
424,108,76054,2,0,L|403:205,1,99.9999999999999,12|2,0:0|0:0,0:0:0:0:
376,236,76554,1,12,0:0:0:0:
276,168,76887,1,2,0:0:0:0:
276,168,77054,2,0,L|160:192,1,99.9999999999999,12|2,0:0|0:0,0:0:0:0:
148,216,77554,2,0,L|49:150,1,99.9999999999999,12|12,0:0|0:0,0:0:0:0:
96,44,78221,6,0,P|142:24|191:16,1,99.9999999999999,12|2,0:0|0:0,0:0:0:0:
228,28,78721,2,0,P|260:66|299:96,1,99.9999999999999,12|2,0:0|0:0,0:0:0:0:
336,112,79221,2,0,L|388:96,1,50,12|2,0:0|0:0,0:0:0:0:
416,76,79554,2,0,L|464:101,1,50,12|2,0:0|0:0,0:0:0:0:
496,120,79887,1,12,0:0:0:0:
436,224,80221,2,0,P|420:260|416:340,1,99.9999999999999,2|0,0:0|0:0,0:0:0:0:
300,360,80887,5,6,0:0:0:0:
296,364,81054,2,0,L|236:344,1,50,0|8,0:0|0:0,0:0:0:0:
220,320,81387,2,0,P|177:347|112:365,1,99.9999999999999,0|0,0:0|0:0,0:0:0:0:
92,352,81887,1,8,0:0:0:0:
132,240,82221,1,2,0:0:0:0:
136,236,82387,2,0,L|116:176,1,50,0|8,0:0|0:0,0:0:0:0:
92,160,82720,2,0,P|119:117|137:52,1,99.9999999999999,0|0,0:0|0:0,0:0:0:0:
124,32,83221,2,0,L|192:44,1,50,8|2,0:0|0:0,0:0:0:0:
208,60,83554,5,6,0:0:0:0:
212,64,83721,2,0,L|261:55,1,50,0|8,0:0|0:0,0:0:0:0:
296,36,84054,2,0,P|318:81|366:129,1,99.9999999999999,0|0,0:0|0:0,0:0:0:0:
388,132,84554,1,8,0:0:0:0:
344,244,84887,2,0,P|294:238|232:224,1,99.9999999999999,2|8,0:0|0:0,0:0:0:0:
216,200,85387,1,0,0:0:0:0:
120,272,85721,2,0,P|128:304|132:328,1,50,8|2,0:0|0:0,0:0:0:0:
128,360,86054,6,0,P|200:331|272:354,1,150,12|8,0:0|0:0,0:0:0:0:
384,376,86887,2,0,L|432:365,1,50,2|0,0:0|0:0,0:0:0:0:
472,364,87221,1,8,0:0:0:0:
476,368,87387,2,0,P|452:328|464:256,1,99.9999999999999,0|0,0:0|0:0,0:0:0:0:
472,240,87887,1,8,0:0:0:0:
468,236,88054,2,0,P|422:224|380:165,1,99.9999999999999,0|0,0:0|0:0,0:0:0:0:
368,152,88554,2,0,P|336:164|304:168,1,50,8|2,0:0|0:0,0:0:0:0:
284,184,88887,6,0,P|236:168|168:160,1,99.9999999999999,2|8,0:0|0:0,0:0:0:0:
120,60,89554,2,0,P|169:52|216:36,1,99.9999999999999,2|8,0:0|0:0,0:0:0:0:
332,0,90221,1,2,0:0:0:0:
436,60,90554,1,12,0:0:0:0:
332,120,90887,2,0,L|344:180,1,50,2|2,0:0|0:0,0:0:0:0:
376,188,91221,2,0,L|364:248,1,50,2|0,0:0|0:0,0:0:0:0:
340,268,91554,6,0,L|220:292,1,99.9999999999999,12|2,0:0|0:0,0:0:0:0:
204,296,92054,1,12,0:0:0:0:
132,132,92554,2,0,L|252:108,1,99.9999999999999,12|2,0:0|0:0,0:0:0:0:
268,104,93054,1,12,0:0:0:0:
339,267,93554,2,0,P|348:316|328:364,1,99.9999999999999,12|12,0:0|0:0,0:0:0:0:
228,300,94221,1,4,0:0:0:0:
160,60,96387,6,0,L|168:120,1,50,8|4,0:3|0:3,0:0:0:0:
277,53,96887,6,0,P|322:30|371:28,1,99.9999999999999,12|2,0:0|0:0,0:0:0:0:
408,48,97387,2,0,P|374:84|358:131,1,99.9999999999999,12|2,0:0|0:0,0:0:0:0:
344,168,97887,2,0,P|295:156|247:166,1,99.9999999999999,12|2,0:0|0:0,0:0:0:0:
212,184,98387,1,12,0:0:0:0:
64,84,98887,1,12,0:0:0:0:
156,8,99221,1,12,0:0:0:0:
256,76,99554,6,0,L|364:87,1,99.9999999999999,12|2,0:0|0:0,0:0:0:0:
396,88,100054,2,0,L|356:190,1,99.9999999999999,12|2,0:0|0:0,0:0:0:0:
328,204,100554,2,0,L|340:326,1,99.9999999999999,12|2,0:0|0:0,0:0:0:0:
368,332,101054,1,12,0:0:0:0:
500,208,101554,1,12,0:0:0:0:
468,92,101887,2,0,L|418:98,1,50,2|2,0:0|0:0,0:0:0:0:
380,84,102221,6,0,P|363:106|334:123,1,50,12|0,0:0|0:0,0:0:0:0:
308,132,102554,1,2,0:0:0:0:
304,128,102721,2,0,P|268:100|200:96,1,99.9999999999999,12|2,0:0|0:0,0:0:0:0:
176,100,103221,1,12,0:0:0:0:
64,148,103554,1,2,0:0:0:0:
60,152,103721,2,0,L|80:264,1,99.9999999999999,12|2,0:0|0:0,0:0:0:0:
64,288,104221,2,0,L|136:304,1,50,12|2,0:0|0:0,0:0:0:0:
144,324,104554,2,0,L|206:284,1,50,12|2,0:0|0:0,0:0:0:0:
208,264,104887,6,0,L|276:276,1,50,12|2,0:0|0:0,0:0:0:0:
292,292,105221,1,2,0:0:0:0:
296,296,105387,2,0,P|336:264|324:200,1,99.9999999999999,12|2,0:0|0:0,0:0:0:0:
316,184,105887,1,12,0:0:0:0:
204,144,106221,1,12,0:0:0:0:
140,244,106554,1,12,0:0:0:0:
28,204,106887,2,0,L|40:148,1,50,2|2,0:0|0:0,0:0:0:0:
68,128,107221,2,0,L|50:73,1,50,2|0,0:0|0:0,0:0:0:0:
56,40,107554,6,0,P|103:55|152:49,1,99.9999999999999,12|2,0:0|0:0,0:0:0:0:
184,24,108054,2,0,P|217:60|262:79,1,99.9999999999999,12|2,0:0|0:0,0:0:0:0:
302,74,108554,2,0,P|312:122|342:161,1,99.9999999999999,12|2,0:0|0:0,0:0:0:0:
380,176,109054,2,0,P|364:223|370:272,1,99.9999999999999,12|2,0:0|0:0,0:0:0:0:
388,308,109554,1,12,0:0:0:0:
288,376,109887,1,12,0:0:0:0:
176,332,110221,6,0,L|188:220,1,99.9999999999999,12|2,0:0|0:0,0:0:0:0:
200,196,110721,2,0,L|102:216,1,99.9999999999999,12|2,0:0|0:0,0:0:0:0:
68,196,111221,2,0,L|56:84,1,99.9999999999999,12|2,0:0|0:0,0:0:0:0:
44,60,111721,2,0,L|141:80,1,99.9999999999999,12|2,0:0|0:0,0:0:0:0:
180,88,112221,1,12,0:0:0:0:
276,16,112554,1,2,0:0:0:0:
340,116,112887,6,0,L|400:104,2,50,12|2|2,0:0|0:0|0:0,0:0:0:0:
316,148,113387,2,0,P|295:192|302:241,1,99.9999999999999,12|2,0:0|0:0,0:0:0:0:
324,276,113887,2,0,L|312:336,2,50,12|2|2,0:0|0:0|0:0,0:0:0:0:
356,252,114387,2,0,P|400:231|449:238,1,99.9999999999999,12|2,0:0|0:0,0:0:0:0:
484,260,114887,1,12,0:0:0:0:
472,140,115221,1,12,0:0:0:0:
362,90,115554,6,0,P|354:65|356:32,2,50,12|2|0,0:0|0:0|0:0,0:0:0:0:
336,120,116054,2,0,L|236:110,1,99.9999999999999,12|2,0:0|0:0,0:0:0:0:
200,96,116554,2,0,L|140:124,1,50,12|2,0:0|0:0,0:0:0:0:
120,136,116887,1,2,0:0:0:0:
204,220,117221,2,0,P|208:256|204:288,1,50,2|2,0:0|0:0,0:0:0:0:
184,304,117554,2,0,B|240:288|240:288|324:320|324:320|373:306,1,200,2|6,0:0|0:0,0:0:0:0:
460,224,118554,5,8,0:0:0:0:
364,156,118887,1,2,0:0:0:0:
361,152,119054,2,0,L|350:84,1,50,2|0,0:0|0:0,0:0:0:0:
360,64,119387,2,0,P|306:56|244:84,1,99.9999999999999,8|2,0:0|0:0,0:0:0:0:
236,100,119887,1,8,0:0:0:0:
128,48,120221,1,2,0:0:0:0:
124,44,120387,1,2,0:0:0:0:
120,40,120554,1,8,0:0:0:0:
40,132,120887,6,0,L|60:244,1,99.9999999999999,2|8,0:0|0:0,0:0:0:0:
132,328,121554,1,2,0:0:0:0:
136,324,121721,1,2,0:0:0:0:
219,236,122054,2,0,P|268:227|315:243,1,99.9999999999999,8|2,0:0|0:0,0:0:0:0:
344,272,122554,2,0,P|361:225|398:192,1,99.9999999999999,8|2,0:0|0:0,0:0:0:0:
436,180,123054,1,2,0:0:0:0:
440,184,123221,1,8,0:0:0:0:
504,284,123554,5,6,0:0:0:0:
428,375,123887,1,8,0:0:0:0:
317,330,124221,1,2,0:0:0:0:
313,326,124387,2,0,L|249:334,1,50,2|0,0:0|0:0,0:0:0:0:
232,356,124721,2,0,P|216:308|179:275,1,99.9999999999999,8|2,0:0|0:0,0:0:0:0:
142,264,125221,1,8,0:0:0:0:
204,160,125554,1,2,0:0:0:0:
208,164,125721,1,2,0:0:0:0:
212,168,125887,2,0,L|276:160,1,50,8|0,0:0|0:0,0:0:0:0:
296,140,126221,6,0,P|296:189|306:238,1,99.9999999999999,2|8,0:0|0:0,0:0:0:0:
408,300,126887,1,2,0:0:0:0:
412,296,127054,1,2,0:0:0:0:
504,220,127387,2,0,P|504:171|494:122,1,99.9999999999999,8|2,0:0|0:0,0:0:0:0:
472,88,127887,1,4,0:0:0:0:
364,144,128221,2,0,L|300:136,1,50,2|2,0:0|0:0,0:0:0:0:
280,156,128554,2,0,L|216:148,1,50,2|2,0:0|0:0,0:0:0:0:
196,128,128887,6,0,P|176:172|187:220,1,99.9999999999999,6|8,0:0|0:0,0:0:0:0:
140,332,129554,1,2,0:0:0:0:
136,336,129721,1,2,0:0:0:0:
132,340,129887,2,0,L|76:332,1,50,8|2,0:0|0:0,0:0:0:0:
44,348,130221,2,0,L|20:240,1,99.9999999999999,2|8,0:0|0:0,0:0:0:0:
92,152,130887,2,0,L|197:185,1,99.9999999999999,2|8,0:0|0:0,0:0:0:0:
217,209,131387,1,2,0:0:0:0:
221,213,131554,6,0,P|212:164|232:119,2,99.9999999999999,6|8|2,0:0|0:0|0:0,0:0:0:0:
316,288,132554,1,8,0:0:0:0:
320,292,132721,1,2,0:0:0:0:
324,296,132887,2,0,P|380:284|444:284,1,99.9999999999999,2|8,0:0|0:0,0:0:0:0:
460,296,133387,2,0,P|448:240|448:176,1,99.9999999999999,2|2,0:0|0:0,0:0:0:0:
452,158,133887,2,0,L|426:115,1,50,8|2,0:0|0:0,0:0:0:0:
400,84,134221,6,0,P|355:106|307:121,1,99.9999999999999,6|8,0:0|0:0,0:0:0:0:
188,104,134887,2,0,P|143:81|95:66,1,99.9999999999999,2|8,0:0|0:0,0:0:0:0:
16,156,135554,2,0,L|28:204,1,50,2|2,0:0|0:0,0:0:0:0:
64,224,135887,2,0,L|76:272,1,50,8|2,0:0|0:0,0:0:0:0:
101,304,136221,1,2,0:0:0:0:
102,309,136387,1,2,0:0:0:0:
103,314,136554,1,8,0:0:0:0:
223,335,136887,6,0,P|271:321|321:323,1,99.9999999999999,6|8,0:0|0:0,0:0:0:0:
432,368,137554,2,0,L|488:352,1,50,2|2,0:0|0:0,0:0:0:0:
488,316,137887,2,0,L|516:265,1,50,8|2,0:0|0:0,0:0:0:0:
490,239,138221,1,12,0:0:0:0:
392,172,138554,1,12,0:0:0:0:
297,244,138887,2,0,L|240:229,1,50,2|2,0:0|0:0,0:0:0:0:
222,261,139220,2,0,L|172:290,1,50,2|2,0:0|0:0,0:0:0:0:
182,326,139554,6,0,P|128:340|44:296,1,150,12|8,0:0|0:0,0:0:0:0:
36,180,140387,1,2,0:0:0:0:
40,176,140554,2,0,P|88:147|116:57,1,150,12|8,0:0|0:0,0:0:0:0:
228,16,141387,1,2,0:0:0:0:
232,20,141554,2,0,L|352:8,1,99.9999999999999,12|2,0:0|0:0,0:0:0:0:
424,88,142221,6,0,P|399:158|388:232,1,150,12|8,0:0|0:0,0:0:0:0:
272,268,143054,1,2,0:0:0:0:
268,264,143221,2,0,P|257:189|232:119,1,150,12|8,0:0|0:0,0:0:0:0:
112,104,144054,1,2,0:0:0:0:
108,108,144221,2,0,L|88:176,1,50,4|8,0:3|0:3,0:0:0:0:
64,184,144554,2,0,L|97:246,1,50,4|8,0:3|0:3,0:0:0:0:
120,244,144887,6,0,P|77:292|94:354,1,134.999995880127,6|2,0:0|0:0,0:0:0:0:
120,380,145554,1,8,0:0:0:0:
224,332,145887,2,0,L|288:344,1,44.999998626709,2|2,0:0|0:0,0:0:0:0:
296,363,146221,2,0,P|334:340|376:324,1,89.999997253418,2|2,0:0|0:0,0:0:0:0:
464,252,146887,2,0,P|424:230|389:202,1,89.999997253418,8|2,0:0|0:0,0:0:0:0:
372,172,147387,1,2,0:0:0:0:
368,176,147554,6,0,P|311:210|245:205,1,134.999995880127,6|2,0:0|0:0,0:0:0:0:
212,192,148221,2,0,L|152:208,1,44.999998626709,8|2,0:0|0:0,0:0:0:0:
136,220,148554,2,0,L|92:208,1,44.999998626709,2|2,0:0|0:0,0:0:0:0:
56,208,148887,2,0,P|76:172|68:108,1,89.999997253418,2|2,0:0|0:0,0:0:0:0:
20,24,149554,1,6,0:0:0:0:
134,26,149888,1,6,0:0:0:0:
248,28,150221,6,0,P|308:32|368:28,1,99.9999999999999,12|0,0:0|0:0,0:0:0:0:
388,20,150721,1,8,0:0:0:0:
340,132,151054,1,0,0:0:0:0:
336,136,151221,2,0,P|316:192|304:251,1,99.9999999999999,12|0,0:0|0:0,0:0:0:0:
300,272,151721,1,8,0:0:0:0:
396,344,152054,1,0,0:0:0:0:
400,348,152221,1,12,0:0:0:0:
498,278,152554,1,0,0:0:0:0:
462,163,152887,6,0,P|445:115|434:67,1,99.9999999999999,12|0,0:0|0:0,0:0:0:0:
428,28,153387,1,8,0:0:0:0:
320,84,153721,1,0,0:0:0:0:
316,88,153887,2,0,P|268:104|220:115,1,99.9999999999999,12|0,0:0|0:0,0:0:0:0:
181,122,154387,1,8,0:0:0:0:
64,92,154721,1,0,0:0:0:0:
60,96,154887,2,0,L|51:153,1,50,2|2,0:0|0:0,0:0:0:0:
20,172,155221,2,0,L|40:225,1,50,6|0,0:0|0:0,0:0:0:0:
32,260,155554,6,0,P|81:265|123:292,1,99.9999999999999,12|2,0:0|0:0,0:0:0:0:
140,328,156054,2,0,P|178:297|227:286,1,99.9999999999999,12|2,0:0|0:0,0:0:0:0:
268,288,156554,1,12,0:0:0:0:
416,184,157054,2,0,L|400:68,1,99.9999999999999,12|2,0:0|0:0,0:0:0:0:
407,44,157554,2,0,P|384:52|359:56,1,50,2|2,0:0|0:0,0:0:0:0:
320,60,157887,2,0,P|296:51|271:47,1,50,2|2,0:0|0:0,0:0:0:0:
236,64,158221,6,0,L|220:176,1,99.9999999999999,6|2,0:0|0:0,0:0:0:0:
228,196,158721,1,2,0:0:0:0:
224,200,158887,2,0,P|200:184|163:174,1,50,2|0,0:0|0:0,0:0:0:0:
140,172,159221,1,6,0:0:0:0:
36,232,159554,2,0,B|68:280|68:336|68:336|128:304|156:304|156:304|196:340|244:352,1,300,6|2,0:0|0:0,0:0:0:0:
344,292,160887,6,0,L|400:280,2,50,12|0|2,0:0|0:0|0:0,0:0:0:0:
312,268,161387,2,0,P|295:221|308:173,1,99.9999999999999,12|2,0:0|0:0,0:0:0:0:
332,140,161887,2,0,P|285:156|237:143,1,99.9999999999999,12|2,0:0|0:0,0:0:0:0:
204,120,162387,2,0,L|140:132,2,50,12|0|2,0:0|0:0|0:0,0:0:0:0:
220,84,162887,1,12,0:0:0:0:
320,16,163221,2,0,L|369:25,1,50,12|2,0:0|0:0,0:0:0:0:
400,52,163554,6,0,P|398:27|404:2,2,50,12|2|2,0:0|0:0|0:0,0:0:0:0:
428,80,164054,2,0,P|453:122|455:171,1,99.9999999999999,12|2,0:0|0:0,0:0:0:0:
420,192,164554,2,0,P|377:218|353:261,1,99.9999999999999,12|2,0:0|0:0,0:0:0:0:
344,300,165054,1,12,0:0:0:0:
240,236,165387,1,2,0:0:0:0:
236,232,165554,2,0,L|176:248,1,50,12|2,0:0|0:0,0:0:0:0:
156,268,165887,2,0,L|102:236,1,50,2|2,0:0|0:0,0:0:0:0:
83,215,166221,6,0,P|84:240|76:264,2,50,12|2|2,0:0|0:0|0:0,0:0:0:0:
60,184,166721,2,0,P|40:138|47:89,1,99.9999999999999,12|2,0:0|0:0,0:0:0:0:
60,52,167221,1,12,0:0:0:0:
180,36,167554,1,2,0:0:0:0:
184,40,167721,2,0,P|223:69|242:115,1,99.9999999999999,12|2,0:0|0:0,0:0:0:0:
228,152,168221,1,12,0:0:0:0:
328,216,168554,1,12,0:0:0:0:
436,160,168887,6,0,L|428:96,2,50,12|0|2,0:0|0:0|0:0,0:0:0:0:
468,184,169387,2,0,P|440:224|456:288,1,99.9999999999999,12|2,0:0|0:0,0:0:0:0:
456,312,169887,2,0,L|404:328,1,50,12|2,0:0|0:0,0:0:0:0:
376,352,170221,2,0,L|324:337,1,50,12|2,0:0|0:0,0:0:0:0:
296,316,170554,1,12,0:0:0:0:
180,348,170887,2,0,L|128:333,1,50,2|2,0:0|0:0,0:0:0:0:
100,312,171221,2,0,L|73:265,1,50,2|2,0:0|0:0,0:0:0:0:
68,229,171554,5,6,0:0:0:0:
72,225,171721,2,0,P|83:202|88:178,1,50,0|8,0:0|0:0,0:0:0:0:
96,140,172054,2,0,P|141:160|190:157,1,99.9999999999999,0|0,0:0|0:0,0:0:0:0:
228,144,172554,1,8,0:0:0:0:
340,192,172887,1,2,0:0:0:0:
344,196,173054,2,0,L|336:260,1,50,0|8,0:0|0:0,0:0:0:0:
312,276,173387,2,0,L|361:363,1,99.9999999999999,0|0,0:0|0:0,0:0:0:0:
400,376,173887,2,0,L|452:344,1,50,8|2,0:0|0:0,0:0:0:0:
472,324,174221,6,0,P|462:275|482:230,1,99.9999999999999,6|8,0:0|0:0,0:0:0:0:
500,196,174721,2,0,P|458:168|441:122,1,99.9999999999999,0|0,0:0|0:0,0:0:0:0:
440,84,175221,1,8,0:0:0:0:
332,136,175554,2,0,L|234:113,1,99.9999999999999,2|8,0:0|0:0,0:0:0:0:
204,88,176054,2,0,L|118:141,1,99.9999999999999,0|0,0:0|0:0,0:0:0:0:
88,168,176554,2,0,P|108:196|120:228,1,50,8|2,0:0|0:0,0:0:0:0:
128,248,176887,6,0,P|83:235|23:259,1,99.9999999999999,6|8,0:0|0:0,0:0:0:0:
88,360,177554,2,0,L|152:376,1,50,2|0,0:0|0:0,0:0:0:0:
176,376,177887,1,8,0:0:0:0:
180,380,178054,2,0,P|222:354|269:336,1,99.9999999999999,0|0,0:0|0:0,0:0:0:0:
300,312,178554,1,8,0:0:0:0:
304,316,178720,2,0,P|342:347|386:371,1,99.9999999999999,0|0,0:0|0:0,0:0:0:0:
424,384,179221,2,0,L|468:352,1,50,8|0,0:0|0:0,0:0:0:0:
500,336,179554,6,0,P|483:288|482:239,1,99.9999999999999,6|8,0:0|0:0,0:0:0:0:
376,176,180221,2,0,P|360:201|337:221,1,50,2|2,0:0|0:0,0:0:0:0:
308,224,180554,2,0,P|290:206|268:193,1,50,12|2,0:0|0:0,0:0:0:0:
228,192,180887,2,0,P|185:218|136:224,1,99.9999999999999,2|2,0:0|0:0,0:0:0:0:
20,192,181554,2,0,L|30:143,1,50,2|2,0:0|0:0,0:0:0:0:
56,112,181887,2,0,L|45:63,1,50,2|2,0:0|0:0,0:0:0:0:
24,28,182221,6,0,P|76:44|128:36,1,99.9999999999999,12|2,0:0|0:0,0:0:0:0:
156,24,182721,1,12,0:0:0:0:
240,184,183221,2,0,P|188:200|136:192,1,99.9999999999999,12|2,0:0|0:0,0:0:0:0:
108,180,183721,1,12,0:0:0:0:
24,340,184221,2,0,P|76:356|128:348,1,99.9999999999999,8|4,0:3|0:3,0:0:0:0:
228,296,184887,5,4,0:0:0:0:
436,28,187054,6,0,L|380:40,1,50,2|2,0:0|0:0,0:0:0:0:
436,148,187554,6,0,P|454:195|450:244,1,89.999997253418,6|2,0:0|0:0,0:0:0:0:
436,264,188054,2,0,P|405:226|359:206,1,89.999997253418,4|0,0:0|0:0,0:0:0:0:
336,200,188554,2,0,P|248:308|244:169,1,359.999989013672,6|0,0:0|0:0,0:0:0:0:
224,56,190221,6,0,B|160:-14|59:41|59:41|51:91|112:122,1,269.999991760254,6|0,0:0|0:0,0:0:0:0:
136,224,191554,5,10,0:0:0:0:
140,228,191721,2,0,L|124:328,1,89.999997253418,8|8,0:3|0:3,0:0:0:0:
224,376,192387,1,8,0:3:0:0:
228,372,192554,1,4,0:3:0:0:
324,308,192887,6,0,P|366:293|410:293,1,89.999997253418,6|2,0:0|0:0,0:0:0:0:
444,277,193387,2,0,P|409:248|387:209,1,89.999997253418,6|0,0:0|0:0,0:0:0:0:
358,186,193887,2,0,B|316:229|231:267|155:200|163:96|241:77,1,314.999990386963,6|0,0:0|0:0,0:0:0:0:
272,77,195221,1,2,0:3:0:0:
188,0,195554,6,0,L|80:24,1,99.9999999999999,6|2,0:0|0:0,0:0:0:0:
52,24,196054,1,2,0:0:0:0:
48,28,196221,2,0,P|59:60|60:96,1,50,2|2,0:0|0:0,0:0:0:0:
48,112,196554,1,6,0:0:0:0:
100,220,196887,1,2,0:0:0:0:
104,224,197054,1,6,0:0:0:0:
108,228,197221,2,0,P|138:224|170:215,1,50,6|2,0:0|0:0,0:0:0:0:
184,192,197554,2,0,P|192:232|224:292,1,99.9999999999999,6|2,0:0|0:0,0:0:0:0:
312,207,198221,6,0,P|332:162|338:113,1,99.9999999999999,6|2,0:0|0:0,0:0:0:0:
328,76,198721,2,0,P|373:96|422:102,1,99.9999999999999,6|2,0:0|0:0,0:0:0:0:
460,88,199221,1,6,0:0:0:0:
512,260,199721,2,0,L|492:376,1,99.9999999999999,6|2,0:0|0:0,0:0:0:0:
464,384,200221,2,0,P|436:379|408:364,1,50,6|2,0:0|0:0,0:0:0:0:
388,340,200554,1,6,0:0:0:0:
272,368,200887,6,0,P|222:370|180:345,1,99.9999999999999,6|2,0:0|0:0,0:0:0:0:
148,320,201387,2,0,L|84:336,2,50,6|2|2,0:0|0:0|0:0,0:0:0:0:
164,284,201887,2,0,L|228:268,2,50,6|2|2,0:0|0:0|0:0,0:0:0:0:
136,256,202387,2,0,P|108:200|116:144,1,99.9999999999999,6|2,0:0|0:0,0:0:0:0:
124,128,202887,1,6,0:0:0:0:
232,176,203221,2,0,L|296:160,1,50,2|2,0:0|0:0,0:0:0:0:
320,176,203554,6,0,P|298:131|302:81,1,99.9999999999999,6|2,0:0|0:0,0:0:0:0:
324,48,204054,2,0,P|373:52|414:79,1,99.9999999999999,6|2,0:0|0:0,0:0:0:0:
444,108,204554,1,6,0:0:0:0:
460,288,205054,2,0,L|352:272,1,99.9999999999999,6|2,0:0|0:0,0:0:0:0:
332,247,205554,2,0,P|311:260|288:271,1,50,6|0,0:0|0:0,0:0:0:0:
248,280,205887,2,0,P|227:266|204:255,1,50,2|2,0:0|0:0,0:0:0:0:
164,260,206221,5,6,0:0:0:0:
120,148,206554,1,2,0:0:0:0:
194,53,206887,1,2,0:0:0:0:
312,70,207221,2,0,L|320:136,1,50,2|2,0:0|0:0,0:0:0:0:
340,152,207554,2,0,L|332:218,1,50,2|2,0:0|0:0,0:0:0:0:
308,232,207887,1,6,0:0:0:0:
204,168,208221,2,0,L|138:179,1,50,2|2,0:0|0:0,0:0:0:0:
116,188,208554,2,0,L|66:179,1,50,2|2,0:0|0:0,0:0:0:0:
28,168,208887,6,0,P|39:216|30:265,1,99.9999999999999,6|10,0:0|0:0,0:0:0:0:
4,296,209387,1,0,0:0:0:0:
8,300,209554,2,0,P|56:288|105:298,1,99.9999999999999,2|10,0:0|0:0,0:0:0:0:
144,308,210054,1,0,0:0:0:0:
148,312,210220,2,0,P|194:295|231:261,1,99.9999999999999,2|10,0:0|0:0,0:0:0:0:
300,164,210887,2,0,L|368:172,1,50,2|0,0:0|0:0,0:0:0:0:
376,200,211221,2,0,L|444:208,1,50,10|2,0:0|0:0,0:0:0:0:
455,231,211554,6,0,P|447:182|456:133,1,99.9999999999999,2|10,0:0|0:0,0:0:0:0:
472,96,212054,1,0,0:0:0:0:
468,92,212220,2,0,P|418:84|374:61,1,99.9999999999999,2|10,0:0|0:0,0:0:0:0:
344,36,212721,1,0,0:0:0:0:
340,40,212887,2,0,P|317:84|282:119,1,99.9999999999999,2|10,0:0|0:0,0:0:0:0:
168,156,213554,2,0,L|140:92,1,50,2|0,0:0|0:0,0:0:0:0:
128,76,213887,2,0,L|62:50,1,50,10|2,0:0|0:0,0:0:0:0:
48,80,214221,6,0,P|44:129|24:174,1,99.9999999999999,6|8,0:0|0:0,0:0:0:0:
0,208,214721,1,0,0:0:0:0:
4,212,214887,2,0,P|45:239|74:280,1,99.9999999999999,2|8,0:0|0:0,0:0:0:0:
164,360,215554,1,2,0:0:0:0:
168,356,215721,1,2,0:0:0:0:
172,352,215887,2,0,L|244:340,1,50,12|2,0:0|0:0,0:0:0:0:
256,324,216221,2,0,L|364:364,1,99.9999999999999,2|2,0:0|0:0,0:0:0:0:
460,308,216887,6,0,P|481:263|470:216,1,99.9999999999999,12|2,0:0|0:0,0:0:0:0:
440,188,217387,2,0,P|414:229|367:245,1,99.9999999999999,12|2,0:0|0:0,0:0:0:0:
328,240,217887,2,0,P|349:195|338:148,1,99.9999999999999,10|2,0:0|0:0,0:0:0:0:
308,120,218387,2,0,P|282:161|235:177,1,99.9999999999999,10|2,0:0|0:0,0:0:0:0:
200,160,218887,1,10,0:0:0:0:
112,240,219221,1,10,0:0:0:0:
116,244,219387,1,2,0:0:0:0:
120,248,219554,6,0,P|151:286|164:334,1,99.9999999999999,12|2,0:0|0:0,0:0:0:0:
188,368,220054,2,0,P|223:333|240:286,1,99.9999999999999,12|2,0:0|0:0,0:0:0:0:
272,260,220554,2,0,P|303:298|316:346,1,99.9999999999999,12|2,0:0|0:0,0:0:0:0:
340,380,221054,2,0,P|375:345|392:298,1,99.9999999999999,12|2,0:0|0:0,0:0:0:0:
400,260,221554,1,8,0:3:0:0:
512,300,221887,1,4,0:3:0:0:
490,184,222221,1,6,0:0:0:0:
204,40,232887,6,0,P|272:24|304:24,1,99.9999999999999,6|2,0:0|0:0,0:0:0:0:
340,32,233387,1,0,0:0:0:0:
280,200,233887,2,0,P|212:184|180:184,1,99.9999999999999,2|2,0:0|0:0,0:0:0:0:
144,192,234387,1,0,0:0:0:0:
204,359,234887,2,0,P|228:352|252:350,1,50,2|2,0:0|0:3,0:0:0:0:
292,344,235221,2,0,P|310:360|332:372,1,50,2|2,0:0|0:3,0:0:0:0:
372,364,235554,6,0,P|395:320|400:271,1,99.9999999999999,2|2,0:0|0:0,0:0:0:0:
388,232,236054,1,0,0:0:0:0:
232,140,236554,2,0,P|255:183|260:232,1,99.9999999999999,2|2,0:0|0:0,0:0:0:0:
248,272,237054,1,0,0:0:0:0:
92,364,237554,2,0,P|115:320|120:271,1,99.9999999999999,2|2,0:0|0:0,0:0:0:0:
100,236,238054,6,0,P|60:216|20:116,1,150,2|2,0:3|0:0,0:0:0:0:
87,24,238887,2,0,P|137:19|184:34,1,99.9999999999999,2|2,0:0|0:0,0:0:0:0:
212,64,239387,1,0,0:0:0:0:
328,28,239721,1,0,0:0:0:0:
398,127,240054,2,0,L|388:188,1,50,0|2,0:0|0:0,0:0:0:0:
372,212,240387,2,0,L|264:188,1,99.9999999999999,0|0,0:0|0:0,0:0:0:0:
236,204,240887,5,6,0:0:0:0:
256,192,241054,12,2,242221,0:0:0:0:
384,140,244888,6,0,L|392:196,1,50,12|2,0:0|0:0,0:0:0:0:
416,220,245221,1,2,0:0:0:0:
420,224,245387,2,0,P|375:202|325:203,1,99.9999999999999,12|2,0:0|0:0,0:0:0:0:
292,224,245887,1,12,0:0:0:0:
184,168,246221,1,2,0:0:0:0:
180,164,246387,2,0,L|200:52,1,99.9999999999999,12|2,0:0|0:0,0:0:0:0:
184,28,246887,1,12,0:0:0:0:
64,44,247221,2,0,L|55:93,1,50,14|2,0:0|0:0,0:0:0:0:
24,120,247554,6,0,L|40:167,1,50,14|2,0:0|0:0,0:0:0:0:
76,188,247887,1,2,0:0:0:0:
80,192,248054,2,0,P|60:228|68:296,1,99.9999999999999,12|2,0:0|0:0,0:0:0:0:
84,320,248554,2,0,L|148:332,1,50,12|2,0:0|0:0,0:0:0:0:
164,356,248887,1,2,0:0:0:0:
168,360,249054,2,0,P|204:340|272:348,1,99.9999999999999,12|2,0:0|0:0,0:0:0:0:
300,348,249554,2,0,P|322:328|340:296,1,50,12|2,0:0|0:0,0:0:0:0:
344,272,249887,1,12,0:0:0:0:
388,160,250221,6,0,L|456:168,1,50,12|2,0:0|0:0,0:0:0:0:
464,196,250554,1,2,0:0:0:0:
468,200,250721,2,0,P|496:156|496:96,1,99.9999999999999,12|2,0:0|0:0,0:0:0:0:
488,72,251221,1,12,0:0:0:0:
380,20,251554,1,2,0:0:0:0:
376,24,251721,2,0,P|304:48|272:40,1,99.9999999999999,12|2,0:0|0:0,0:0:0:0:
248,24,252221,1,12,0:0:0:0:
192,132,252554,2,0,L|204:192,1,50,12|2,0:0|0:0,0:0:0:0:
227,211,252887,6,0,P|180:196|131:199,1,99.9999999999999,12|2,0:0|0:0,0:0:0:0:
96,216,253387,2,0,P|133:249|155:293,1,99.9999999999999,12|2,0:0|0:0,0:0:0:0:
168,332,253887,1,12,0:0:0:0:
280,372,254221,6,0,L|327:356,1,50,2|2,0:0|0:0,0:0:0:0:
368,360,254554,2,0,L|390:315,1,50,2|2,0:0|0:0,0:0:0:0:
421,289,254887,2,0,L|405:241,1,50,2|2,0:0|0:0,0:0:0:0:
408,201,255221,2,0,L|363:178,1,50,2|2,0:0|0:0,0:0:0:0:
337,148,255554,5,6,0:0:0:0:
333,152,255721,2,0,P|309:160|283:160,1,50,0|8,0:0|0:0,0:0:0:0:
248,144,256054,2,0,P|217:105|174:78,1,99.9999999999999,0|0,0:0|0:0,0:0:0:0:
136,72,256554,1,8,0:0:0:0:
48,156,256887,1,2,0:0:0:0:
44,160,257054,2,0,L|56:224,1,50,0|8,0:0|0:0,0:0:0:0:
40,248,257387,2,0,L|148:292,1,99.9999999999999,0|0,0:0|0:0,0:0:0:0:
164,312,257887,2,0,P|178:291|197:275,1,50,8|2,0:0|0:0,0:0:0:0:
228,248,258221,5,2,0:0:0:0:
232,244,258387,2,0,P|251:259|273:271,1,50,0|8,0:0|0:0,0:0:0:0:
312,284,258721,2,0,P|348:249|394:233,1,99.9999999999999,0|0,0:0|0:0,0:0:0:0:
436,232,259221,1,8,0:0:0:0:
416,112,259554,2,0,L|308:128,1,99.9999999999999,2|8,0:0|0:0,0:0:0:0:
280,140,260054,1,0,0:0:0:0:
164,104,260387,2,0,L|172:40,1,50,8|2,0:0|0:0,0:0:0:0:
204,32,260721,6,0,P|133:14|60:48,1,150,12|8,0:0|0:0,0:0:0:0:
16,152,261554,2,0,L|36:208,1,50,2|0,0:0|0:0,0:0:0:0:
64,224,261887,1,8,0:0:0:0:
68,228,262054,2,0,P|52:280|72:336,1,99.9999999999999,0|0,0:0|0:0,0:0:0:0:
96,344,262554,1,8,0:0:0:0:
100,348,262721,2,0,P|126:306|170:284,1,99.9999999999999,0|0,0:0|0:0,0:0:0:0:
208,272,263221,2,0,P|252:284|276:284,1,50,8|0,0:0|0:0,0:0:0:0:
292,268,263554,6,0,L|280:164,1,99.9999999999999,6|8,0:0|0:0,0:0:0:0:
392,120,264221,1,2,0:0:0:0:
396,124,264387,1,2,0:0:0:0:
400,127,264554,2,0,L|451:135,1,50,12|2,0:0|0:0,0:0:0:0:
487,124,264887,6,0,P|480:147|480:172,1,50,2|2,0:0|0:0,0:0:0:0:
480,212,265221,2,0,P|461:228|449:250,1,50,2|0,0:0|0:0,0:0:0:0:
429,284,265554,2,0,P|404:289|383:301,1,50,2|2,0:0|0:0,0:0:0:0:
348,321,265887,2,0,P|324:313|299:313,1,50,2|2,0:0|0:0,0:0:0:0:
260,328,266221,6,0,P|260:294|211:234,1,99.9999999999999,12|2,0:0|0:0,0:0:0:0:
188,224,266721,1,12,0:0:0:0:
288,76,267221,2,0,P|288:109|336:169,1,99.9999999999999,12|2,0:0|0:0,0:0:0:0:
360,180,267721,1,12,0:0:0:0:
260,328,268221,2,0,P|230:311|155:322,1,99.9999999999999,12|12,0:0|0:0,0:0:0:0:
132,336,268721,1,2,0:0:0:0:
128,340,268887,6,0,P|96:302|91:253,1,99.9999999999999,12|2,0:0|0:0,0:0:0:0:
104,216,269387,1,12,0:0:0:0:
220,184,269721,1,2,0:0:0:0:
224,188,269887,2,0,P|284:196|340:172,1,99.9999999999999,12|2,0:0|0:0,0:0:0:0:
336,148,270387,2,0,P|312:92|264:55,1,99.9999999999999,12|2,0:0|0:0,0:0:0:0:
252,44,270887,2,0,L|184:68,1,50,2|2,0:0|0:0,0:0:0:0:
172,84,271221,2,0,L|124:67,1,50,2|0,0:0|0:0,0:0:0:0:
88,52,271554,6,0,L|64:172,1,99.9999999999999,12|2,0:0|0:0,0:0:0:0:
56,188,272054,1,12,0:0:0:0:
200,296,272554,2,0,L|224:176,1,99.9999999999999,12|2,0:0|0:0,0:0:0:0:
232,160,273054,1,12,0:0:0:0:
376,268,273554,2,0,L|352:388,1,99.9999999999999,8|4,0:3|0:3,0:0:0:0:
476,348,274221,5,4,0:0:0:0:
360,68,276387,5,2,0:0:0:0:
356,72,276554,2,0,L|300:64,1,50,6|2,0:0|0:0,0:0:0:0:
268,52,276887,6,0,P|268:84|256:116,1,50,12|2,0:0|0:0,0:0:0:0:
232,128,277221,1,2,0:0:0:0:
228,132,277387,2,0,P|188:128|128:88,1,99.9999999999999,12|2,0:0|0:0,0:0:0:0:
112,68,277887,1,12,0:0:0:0:
28,156,278221,1,2,0:0:0:0:
32,160,278387,2,0,P|48:196|43:268,1,99.9999999999999,12|2,0:0|0:0,0:0:0:0:
24,288,278887,2,0,L|67:312,1,50,12|2,0:0|0:0,0:0:0:0:
92,344,279221,2,0,L|140:330,1,50,12|2,0:0|0:0,0:0:0:0:
168,300,279554,5,12,0:0:0:0:
172,304,279721,2,0,P|212:320|236:320,1,50,2|2,0:0|0:0,0:0:0:0:
256,308,280054,2,0,P|284:267|294:218,1,99.9999999999999,12|2,0:0|0:0,0:0:0:0:
284,180,280554,1,12,0:0:0:0:
396,224,280887,1,2,0:0:0:0:
400,228,281054,2,0,L|520:204,1,99.9999999999999,12|2,0:0|0:0,0:0:0:0:
512,172,281554,1,12,0:0:0:0:
428,88,281887,1,12,0:0:0:0:
318,145,282221,6,0,L|312:208,2,50,12|2|2,0:0|0:0|0:0,0:0:0:0:
292,116,282721,2,0,L|298:53,2,50,12|2|2,0:0|0:0|0:0,0:0:0:0:
268,148,283221,2,0,P|224:172|162:169,1,99.9999999999999,12|2,0:0|0:0,0:0:0:0:
136,164,283721,2,0,P|109:121|67:96,1,99.9999999999999,12|2,0:0|0:0,0:0:0:0:
28,104,284221,2,0,L|40:48,1,50,12|2,0:0|0:0,0:0:0:0:
52,17,284554,1,12,0:0:0:0:
164,60,284887,6,0,P|214:64|258:43,1,99.9999999999999,12|2,0:0|0:0,0:0:0:0:
285,13,285387,2,0,P|316:50|363:66,1,99.9999999999999,12|2,0:0|0:0,0:0:0:0:
404,72,285887,1,12,0:0:0:0:
372,188,286221,2,0,L|380:244,1,50,2|2,0:0|0:0,0:0:0:0:
400,272,286554,2,0,L|366:317,1,50,2|2,0:0|0:0,0:0:0:0:
360,351,286887,2,0,L|304:359,1,50,2|2,0:0|0:0,0:0:0:0:
270,353,287221,1,2,0:0:0:0:
288,232,287554,6,0,P|298:183|287:135,1,99.9999999999999,12|2,0:0|0:0,0:0:0:0:
266,101,288054,2,0,P|230:135|182:150,1,99.9999999999999,12|2,0:0|0:0,0:0:0:0:
156,180,288554,2,0,P|166:131|155:83,1,99.9999999999999,12|2,0:0|0:0,0:0:0:0:
134,49,289054,2,0,P|98:83|50:98,1,99.9999999999999,12|2,0:0|0:0,0:0:0:0:
12,92,289554,1,12,0:0:0:0:
8,96,289721,1,2,0:0:0:0:
4,100,289887,1,12,0:0:0:0:
64,204,290221,6,0,L|49:302,1,99.9999999999999,12|2,0:0|0:0,0:0:0:0:
28,336,290721,2,0,L|117:380,1,99.9999999999999,12|2,0:0|0:0,0:0:0:0:
156,368,291221,2,0,L|170:269,1,99.9999999999999,12|2,0:0|0:0,0:0:0:0:
192,236,291721,2,0,L|286:203,1,99.9999999999999,12|2,0:0|0:0,0:0:0:0:
316,176,292221,2,0,L|376:196,1,50,12|2,0:0|0:0,0:0:0:0:
400,208,292554,1,12,0:0:0:0:
468,308,292887,6,0,P|423:330|374:327,1,99.9999999999999,12|0,0:0|0:0,0:0:0:0:
336,316,293387,2,0,P|286:313|242:335,1,99.9999999999999,12|0,0:0|0:0,0:0:0:0:
208,356,293887,2,0,P|192:309|155:275,1,99.9999999999999,12|0,0:0|0:0,0:0:0:0:
120,259,294387,2,0,P|122:210|149:168,1,99.9999999999999,12|0,0:0|0:0,0:0:0:0:
180,144,294887,1,12,0:0:0:0:
184,148,295054,1,2,0:0:0:0:
188,152,295221,1,12,0:0:0:0:
300,108,295554,6,0,L|288:52,2,50,12|2|2,0:0|0:0|0:0,0:0:0:0:
328,136,296054,2,0,L|340:192,2,50,12|2|2,0:0|0:0|0:0,0:0:0:0:
343,100,296554,2,0,P|390:84|439:93,1,99.9999999999999,12|2,0:0|0:0,0:0:0:0:
472,116,297054,2,0,P|448:159|449:208,1,99.9999999999999,12|2,0:0|0:0,0:0:0:0:
472,240,297554,2,0,P|456:268|452:292,1,50,12|2,0:0|0:0,0:0:0:0:
416,304,297887,2,0,P|388:288|364:284,1,50,2|2,0:0|0:0,0:0:0:0:
332,280,298221,1,4,0:0:0:0:
256,192,298387,12,0,303554,0:0:0:0:
