osu file format v14

[General]
AudioFilename: audio.mp3
AudioLeadIn: 0
PreviewTime: 244137
Countdown: 0
SampleSet: Soft
StackLeniency: 0.4
Mode: 0
LetterboxInBreaks: 0
WidescreenStoryboard: 1

[Editor]
Bookmarks: 11554
DistanceSpacing: 1
BeatDivisor: 4
GridSize: 4
TimelineZoom: 1.7

[Metadata]
Title:Neo-Aspect
TitleUnicode:Neo-Aspect
Artist:Roselia
ArtistUnicode:Roselia
Creator:Doormat
Version:Hard
Source:バンドリ! ガールズバンドパーティ!
Tags:Kalibe CLSW Crystal BanG Dream! Girls Band Party bandori garupa ガルパ ロゼリア full size minato yukina 湊友希那 aiba aina 相羽あいな hikawa sayo 氷川紗夜 kudou haruka 工藤晴香 imai lisa 今井リサ endou yurika 遠藤ゆりか nakashima yuki 中島由貴 udagawa ako 宇田川あこ sakuragawa megu 櫻川めぐ shirokane rinko 白金燐子 akesaka satomi 明坂聡美
BeatmapID:1717785
BeatmapSetID:800589

[Difficulty]
HPDrainRate:5
CircleSize:4
OverallDifficulty:7
ApproachRate:8
SliderMultiplier:1.4
SliderTickRate:1

[Events]
//Background and Video events
0,0,"neo-sayo.jpg",0,0
//Break Periods
2,27754,37137
2,222421,232137
//Storyboard Layer 0 (Background)
//Storyboard Layer 1 (Fail)
//Storyboard Layer 2 (Pass)
//Storyboard Layer 3 (Foreground)
//Storyboard Sound Samples

[TimingPoints]
888,333.333333333333,4,2,2,50,1,0
888,-125,4,2,2,50,0,0
11387,-100,4,2,1,60,0,0
12054,-100,4,2,1,80,0,0
12387,-100,4,2,1,60,0,0
13054,-100,4,2,1,80,0,0
13387,-100,4,2,1,60,0,0
13887,-100,4,2,1,80,0,0
14137,-100,4,2,1,5,0,0
14221,-100,4,2,1,60,0,0
14721,-100,4,2,1,80,0,0
15054,-100,4,2,1,60,0,0
15721,-100,4,2,1,80,0,0
16054,-100,4,2,1,60,0,0
16221,-100,4,2,1,70,0,0
16887,-100,4,2,1,80,0,0
27554,-100,4,2,1,50,0,0
27637,-100,4,2,1,5,0,0
30221,-100,4,2,2,50,0,0
31304,-100,4,2,2,5,0,0
32554,-100,4,2,2,50,0,0
33971,-100,4,2,2,5,0,0
35554,-100,4,2,2,50,0,0
37887,-100,4,2,1,60,0,0
38137,-100,4,2,1,5,0,0
38221,-111.111111111111,4,2,1,70,0,0
48887,-133.333333333333,4,2,1,60,0,0
59554,-111.111111111111,4,2,1,70,0,0
64887,-100,4,2,1,70,0,0
67554,-133.333333333333,4,2,1,80,0,0
67804,-133.333333333333,4,2,1,5,0,0
67887,-133.333333333333,4,2,1,80,0,0
68887,-133.333333333333,4,2,1,50,0,0
70221,-100,4,2,1,90,0,1
80137,-100,4,2,1,5,0,1
80221,-100,4,2,1,90,0,1
80804,-100,4,2,1,90,0,0
80887,-100,4,2,1,90,0,1
91471,-100,4,2,1,90,0,0
91554,-100,4,2,1,90,0,1
94221,-133.333333333333,4,2,1,80,0,0
96054,-100,4,2,1,5,0,0
96387,-100,4,2,1,60,0,0
96804,-100,4,2,1,5,0,0
96887,-100,4,2,1,90,0,1
107554,-100,4,2,1,80,0,0
118221,-111.111111111111,4,2,1,60,0,0
128221,-111.111111111111,4,2,1,60,0,0
128887,-100,4,2,1,70,0,0
139554,-133.333333333333,4,2,1,60,0,0
144887,-133.333333333333,4,2,1,50,0,0
150221,-111.111111111111,4,2,1,70,0,0
155554,-100,4,2,1,70,0,0
158221,-100,4,2,1,80,0,0
158471,-100,4,2,1,5,0,0
158554,-100,4,2,1,80,0,0
159554,-100,4,2,1,80,0,0
160554,-100,4,2,1,60,0,0
160804,-100,4,2,1,5,0,0
160887,-100,4,2,1,90,0,1
170804,-100,4,2,1,5,0,1
170887,-100,4,2,1,90,0,1
171471,-100,4,2,1,90,0,0
171554,-100,4,2,1,90,0,1
182137,-100,4,2,1,90,0,0
182221,-100,4,2,1,90,0,1
184887,-100,4,2,1,80,0,0
186054,-100,4,2,1,5,0,0
187054,-100,4,2,1,60,0,0
187471,-100,4,2,1,5,0,0
187554,-133.333333333333,4,2,1,70,0,0
188554,-133.333333333333,4,2,1,70,0,0
188637,-133.333333333333,4,2,1,5,0,0
189554,-133.333333333333,4,2,1,40,0,0
189887,-133.333333333333,4,2,1,70,0,0
190304,-133.333333333333,4,2,1,5,0,0
191554,-133.333333333333,4,2,1,70,0,0
192887,-133.333333333333,4,2,1,70,0,0
193887,-133.333333333333,4,2,1,70,0,0
193971,-133.333333333333,4,2,1,5,0,0
195054,-133.333333333333,4,2,1,70,0,0
195554,-133.333333333333,4,2,1,70,0,0
198221,-100,4,2,1,70,0,0
206221,-100,4,2,1,70,0,0
206471,-100,4,2,1,5,0,0
206554,-100,4,2,1,70,0,0
207554,-100,4,2,1,70,0,0
208887,-100,4,2,1,80,0,1
221554,-100,4,2,1,70,0,1
221887,-100,4,2,1,60,0,1
222221,-100,4,2,2,50,0,0
223304,-100,4,2,2,5,0,0
224221,-100,4,2,2,50,0,0
225971,-100,4,2,2,5,0,0
226887,-100,4,2,2,50,0,0
232221,-100,4,2,2,50,0,0
232887,-133.333333333333,4,2,1,60,0,0
239887,-133.333333333333,4,2,1,65,0,0
240221,-133.333333333333,4,2,1,70,0,0
240554,-133.333333333333,4,2,1,75,0,0
240887,-133.333333333333,4,2,1,80,0,0
242221,-133.333333333333,4,2,1,50,0,0
244554,-133.333333333333,4,2,1,5,0,0
244887,-100,4,2,1,90,0,1
255471,-100,4,2,1,90,0,0
255554,-100,4,2,1,90,0,1
266137,-100,4,2,1,90,0,0
266221,-100,4,2,1,90,0,1
271471,-100,4,2,1,90,0,0
271554,-100,4,2,1,90,0,1
274221,-100,4,2,1,80,0,0
276054,-100,4,2,1,5,0,0
276387,-133.333333333333,4,2,1,90,0,0
276887,-100,4,2,1,90,0,1
287471,-100,4,2,1,90,0,0
287554,-100,4,2,1,90,0,1
295554,-100,4,2,1,100,0,1
296054,-100,4,2,1,100,0,1
296554,-100,4,2,1,100,0,1
297054,-100,4,2,1,100,0,1
297554,-100,4,2,1,100,0,1
298221,-100,4,2,1,60,0,0
298304,-100,4,2,1,30,0,0
303554,-100,4,2,1,10,0,0

[Colours]
Combo1 : 4,45,155
Combo2 : 165,175,235
Combo3 : 55,110,250
Combo4 : 135,35,175

[HitObjects]
396,344,888,6,0,P|423:289|403:231,1,112,0|0,0:0|0:0,0:0:0:0:
352,192,1387,1,0,0:0:0:0:
280,224,1554,2,0,L|288:292,2,56,0|0|0,0:0|0:0|0:0,0:0:0:0:
212,184,2054,6,0,L|84:172,1,112,0|0,0:0|0:0,0:0:0:0:
108,96,2554,1,0,0:0:0:0:
112,92,2721,2,0,L|240:104,2,112,0|0|0,0:0|0:0|0:0,0:0:0:0:
36,116,3554,6,0,P|44:164|44:192,1,56,0|0,0:0|0:0,0:0:0:0:
0,236,3887,2,0,P|71:276|144:240,1,168,0|0,0:0|0:0,0:0:0:0:
204,192,4554,1,0,0:0:0:0:
208,188,4721,1,0,0:0:0:0:
276,228,4887,5,0,0:0:0:0:
280,232,5054,2,0,L|275:305,1,56,0|0,0:0|0:0,0:0:0:0:
350,318,5387,2,0,L|357:205,2,112,0|0|0,0:0|0:0|0:0,0:0:0:0:
288,368,6221,6,0,P|248:352|224:348,1,56,0|0,0:0|0:0,0:0:0:0:
160,372,6554,2,0,P|128:297|165:224,1,168,0|0,0:0|0:0,0:0:0:0:
228,176,7221,1,0,0:0:0:0:
234,174,7387,1,0,0:0:0:0:
284,236,7554,6,0,L|400:220,1,112,0|0,0:0|0:0,0:0:0:0:
424,148,8054,2,0,L|311:114,1,112,0|0,0:0|0:0,0:0:0:0:
240,92,8554,1,0,0:0:0:0:
236,96,8721,1,0,0:0:0:0:
168,136,8887,6,0,P|166:191|190:241,1,112,0|0,0:0|0:0,0:0:0:0:
252,292,9387,2,0,P|302:267|357:269,1,112,0|0,0:0|0:0,0:0:0:0:
428,304,9887,1,0,0:0:0:0:
492,260,10054,6,0,L|488:192,1,56,0|0,0:0|0:0,0:0:0:0:
512,128,10387,2,0,L|461:82,1,56,2|2,0:0|0:0,0:0:0:0:
432,21,10721,2,0,L|364:25,1,56,2|2,0:0|0:0,0:0:0:0:
300,1,11054,2,0,L|254:51,1,56,2|2,0:0|0:0,0:0:0:0:
184,64,11387,6,0,L|176:24,2,35,2|2|2,0:0|0:0|0:0,0:0:0:0:
204,164,11721,1,2,0:0:0:0:
204,164,12054,6,0,P|244:188|336:148,1,140,0|2,1:0|0:0,0:0:0:0:
332,156,12471,1,0,0:0:0:0:
336,152,12554,1,0,0:0:0:0:
416,212,12721,1,2,0:0:0:0:
416,212,13054,6,0,P|392:252|432:344,1,140,0|2,1:0|0:0,0:0:0:0:
328,380,13554,2,0,L|272:372,4,35,2|2|2|2|0,0:0|0:0|0:0|0:0|1:0,0:0:0:0:
304,164,14221,5,2,0:0:0:0:
204,184,14387,1,2,0:0:0:0:
204,184,14721,6,0,P|176:132|204:56,1,140,0|2,1:0|0:0,0:0:0:0:
204,55,15137,1,2,0:0:0:0:
208,51,15221,1,2,0:0:0:0:
112,20,15387,1,2,0:0:0:0:
112,20,15721,6,0,P|58:61|52:129,1,140,0|2,1:0|0:0,0:0:0:0:
80,228,16221,1,4,0:0:0:0:
144,175,16387,2,0,L|190:179,5,35,2|2|2|2|2|2,0:0|0:0|0:0|0:0|0:0|0:0,0:0:0:0:
212,192,16887,6,0,P|203:158|210:123,1,70,12|0,0:0|0:0,0:0:0:0:
264,60,17221,1,2,0:0:0:0:
336,104,17387,2,0,P|364:166|348:233,1,140,12|2,0:0|0:0,0:0:0:0:
280,284,17887,6,0,L|210:272,2,70,12|0|2,0:0|0:0|0:0,0:0:0:0:
348,336,18387,2,0,L|417:324,2,70,12|0|2,0:0|0:0|0:0,0:0:0:0:
276,380,18887,5,12,0:0:0:0:
272,376,19054,1,2,0:0:0:0:
196,340,19221,2,0,L|127:352,1,70,12|2,0:0|0:0,0:0:0:0:
123,356,19471,1,2,0:0:0:0:
119,360,19554,6,0,P|126:310|120:264,1,70,12|0,0:0|0:0,0:0:0:0:
108,208,19887,1,2,0:0:0:0:
191,219,20054,2,0,P|260:236|316:191,1,140,12|2,0:0|0:0,0:0:0:0:
254,136,20554,6,0,L|178:144,2,70,12|0|2,0:0|0:0|0:0,0:0:0:0:
298,64,21054,2,0,L|367:56,2,70,12|0|2,0:0|0:0|0:0,0:0:0:0:
238,4,21554,6,0,L|162:12,1,70,12|2,0:0|0:0,0:0:0:0:
82,8,21887,2,0,L|88:45,3,35,2|2|2|2,0:0|0:0|0:0|0:0,0:0:0:0:
98,76,22221,6,0,P|63:134|81:200,1,140,12|2,0:0|0:0,0:0:0:0:
162,224,22721,2,0,P|161:155|209:107,1,140,12|2,0:0|0:0,0:0:0:0:
282,152,23221,6,0,P|247:210|265:276,1,140,12|2,0:0|0:0,0:0:0:0:
346,300,23721,2,0,P|345:231|393:183,1,140,12|2,0:0|0:0,0:0:0:0:
446,116,24221,6,0,L|430:47,1,70,12|2,0:0|0:0,0:0:0:0:
350,24,24554,2,0,L|334:92,1,70,12|2,0:0|0:0,0:0:0:0:
331,96,24804,1,2,0:0:0:0:
327,100,24887,6,0,L|243:81,1,70,12|2,0:0|0:0,0:0:0:0:
178,64,25221,1,2,0:0:0:0:
114,119,25387,2,0,P|103:187|142:244,1,140,12|2,0:0|0:0,0:0:0:0:
216,204,25887,6,0,L|300:185,1,70,12|2,0:0|0:0,0:0:0:0:
365,168,26221,1,2,0:0:0:0:
428,224,26387,2,0,P|439:292|400:349,1,140,12|2,0:0|0:0,0:0:0:0:
320,324,26887,6,0,L|285:331,3,35,2|2|2|2,0:0|0:0|0:0|0:0,0:0:0:0:
256,352,27221,2,0,L|222:340,3,35,2|0|0|2,0:0|0:0|0:0|0:0,0:0:0:0:
196,318,27554,1,6,0:0:0:0:
256,192,37887,5,4,0:3:0:0:
32,216,38221,6,0,L|56:352,1,125.999996154785,6|8,0:0|0:0,0:0:0:0:
132,368,38721,1,0,0:0:0:0:
196,316,38887,2,0,L|268:328,1,62.9999980773926,2|0,0:0|0:0,0:0:0:0:
340,340,39221,1,2,0:0:0:0:
328,260,39387,6,0,P|319:198|353:147,1,125.999996154785,8|0,0:0|0:0,0:0:0:0:
432,124,39887,1,8,0:0:0:0:
416,44,40054,2,0,L|340:52,1,62.9999980773926,0|2,0:0|0:0,0:0:0:0:
276,24,40387,1,0,0:0:0:0:
212,76,40554,2,0,P|200:105|202:136,1,62.9999980773926,8|2,0:0|0:0,0:0:0:0:
206,140,40804,1,2,0:0:0:0:
210,144,40887,6,0,L|131:156,1,62.9999980773926,2|0,0:0|0:0,0:0:0:0:
184,228,41221,2,0,L|331:241,2,125.999996154785,8|2|0,0:0|0:0|0:0,0:0:0:0:
120,280,42054,1,8,0:0:0:0:
56,228,42221,6,0,P|33:190|49:107,1,125.999996154785,2|8,0:0|0:0,0:0:0:0:
112,64,42721,2,0,L|184:80,1,62.9999980773926,0|2,0:0|0:0,0:0:0:0:
252,108,43054,2,0,L|256:76,5,31.4999990386963,2|2|2|2|2|2,0:0|0:0|0:0|0:0|0:0|0:0,0:0:0:0:
256,44,43554,6,0,P|316:28|374:52,1,125.999996154785,6|8,0:0|0:0,0:0:0:0:
424,116,44054,1,0,0:0:0:0:
368,176,44221,2,0,L|360:256,1,62.9999980773926,2|0,0:0|0:0,0:0:0:0:
412,304,44554,1,2,0:0:0:0:
477,253,44720,1,8,0:0:0:0:
412,312,44887,6,0,L|270:325,1,125.999996154785,0|8,0:0|0:0,0:0:0:0:
208,352,45387,1,0,0:0:0:0:
136,312,45554,1,2,0:0:0:0:
132,308,45721,2,0,L|140:244,1,62.9999980773926,0|8,0:0|0:0,0:0:0:0:
96,176,46054,1,0,0:0:0:0:
156,120,46221,6,0,P|185:109|217:108,1,62.9999980773926,6|0,0:0|0:0,0:0:0:0:
276,168,46554,2,0,P|251:224|270:283,1,125.999996154785,8|2,0:0|0:0,0:0:0:0:
332,340,47054,1,2,0:0:0:0:
480,232,47387,6,0,L|462:107,1,125.999996154785,8|2,0:0|0:0,0:0:0:0:
420,36,47887,2,0,P|394:54|379:81,1,62.9999980773926,12|0,0:0|0:0,0:0:0:0:
304,116,48221,2,0,L|272:104,3,31.4999990386963,2|2|2|2,0:0|0:0|0:0|0:0,0:0:0:0:
248,84,48554,2,0,L|216:98,3,31.4999990386963,2|2|2|2,0:0|0:0|0:0|0:0,0:0:0:0:
196,116,48887,6,0,P|152:88|100:91,1,105.000004005432,6|8,0:0|0:0,0:0:0:0:
20,224,49554,1,2,0:0:0:0:
24,228,49721,1,2,0:0:0:0:
152,316,50054,2,0,P|196:288|248:291,1,105.000004005432,8|2,0:0|0:0,0:0:0:0:
320,320,50554,2,0,P|335:270|320:221,1,105.000004005432,8|2,0:0|0:0,0:0:0:0:
268,164,51054,1,2,0:0:0:0:
320,104,51221,2,0,L|388:112,1,52.5000020027161,8|2,0:0|0:0,0:0:0:0:
376,114,51471,1,2,0:0:0:0:
380,118,51554,6,0,P|366:80|353:8,1,105.000004005432,6|8,0:0|0:0,0:0:0:0:
500,80,52221,1,2,0:0:0:0:
504,84,52387,1,2,0:0:0:0:
512,244,52721,2,0,P|502:295|485:345,1,105.000004005432,8|2,0:0|0:0,0:0:0:0:
408,364,53221,2,0,P|373:324|333:290,1,105.000004005432,8|2,0:0|0:0,0:0:0:0:
256,272,53721,2,0,L|229:274,5,26.2500010013581,2|2|2|2|2|2,0:0|0:0|0:0|0:0|0:0|0:0,0:0:0:0:
200,260,54221,6,0,L|184:380,1,105.000004005432,6|8,0:0|0:0,0:0:0:0:
108,384,54721,1,0,0:0:0:0:
40,344,54887,1,2,0:0:0:0:
36,340,55054,2,0,L|36:276,1,52.5000020027161,2|0,0:0|0:0,0:0:0:0:
4,216,55387,2,0,P|45:185|97:183,1,105.000004005432,8|2,0:0|0:0,0:0:0:0:
168,220,55887,2,0,P|202:181|210:130,1,105.000004005432,8|2,0:0|0:0,0:0:0:0:
188,52,56387,1,2,0:0:0:0:
184,48,56554,2,0,L|128:56,1,52.5000020027161,8|0,0:0|0:0,0:0:0:0:
210,130,56887,6,0,L|267:135,1,52.5000020027161,6|0,0:0|0:0,0:0:0:0:
331,176,57221,2,0,P|361:134|361:82,1,105.000004005432,8|2,0:0|0:0,0:0:0:0:
324,12,57721,1,2,0:0:0:0:
476,56,58054,2,0,P|501:100|496:152,1,105.000004005432,8|2,0:0|0:0,0:0:0:0:
432,200,58554,1,8,0:0:0:0:
452,276,58721,1,8,3:0:0:0:
456,280,58804,1,8,0:3:0:0:
460,284,58887,2,0,L|520:276,1,52.5000020027161,8|4,0:3|0:3,0:0:0:0:
464,384,59221,1,4,0:0:0:0:
464,384,59554,6,0,L|328:364,1,125.999996154785,6|8,0:0|0:0,0:0:0:0:
264,328,60054,1,0,0:0:0:0:
260,324,60221,2,0,P|284:296|312:284,1,62.9999980773926,2|0,0:0|0:0,0:0:0:0:
268,212,60554,6,0,L|132:192,1,125.999996154785,8|2,0:0|0:0,0:0:0:0:
68,156,61054,1,0,0:0:0:0:
64,152,61221,2,0,P|88:124|116:112,1,62.9999980773926,8|0,0:0|0:0,0:0:0:0:
196,116,61554,6,0,L|191:47,1,62.9999980773926,2|0,0:0|0:0,0:0:0:0:
276,60,61887,2,0,L|280:128,1,62.9999980773926,8|0,0:0|0:0,0:0:0:0:
276,208,62221,6,0,L|400:187,1,125.999996154785,6|8,0:0|0:0,0:0:0:0:
472,144,62721,1,0,0:0:0:0:
476,148,62887,2,0,P|488:188|480:220,1,62.9999980773926,2|0,0:0|0:0,0:0:0:0:
444,280,63221,2,0,P|414:269|383:272,1,62.9999980773926,8|0,0:0|0:0,0:0:0:0:
320,328,63554,5,10,0:0:0:0:
316,324,63721,1,2,0:0:0:0:
248,276,63887,1,10,0:0:0:0:
244,280,64054,1,2,0:0:0:0:
180,332,64221,2,0,L|136:336,3,31.4999990386963,2|2|2|2,0:0|0:0|0:0|0:0,0:0:0:0:
120,348,64554,2,0,L|86:319,3,31.4999990386963,2|2|2|2,0:0|0:0|0:0|0:0,0:0:0:0:
64,312,64887,6,0,P|80:272|84:172,1,140,12|2,0:0|0:0,0:0:0:0:
160,124,65387,2,0,P|194:184|245:231,1,140,12|2,0:0|0:0,0:0:0:0:
328,192,65887,6,0,L|312:44,1,140,12|2,0:0|0:0,0:0:0:0:
404,72,66387,2,0,L|420:220,1,140,12|2,0:0|0:0,0:0:0:0:
360,280,66887,6,0,L|290:269,1,70,12|2,0:0|0:0,0:0:0:0:
308,360,67221,2,0,L|377:370,1,70,12|2,0:0|0:0,0:0:0:0:
468,352,67554,1,6,0:0:0:0:
512,144,67887,5,2,0:0:0:0:
508,140,68054,1,2,0:0:0:0:
436,88,68221,1,2,0:0:0:0:
432,92,68387,1,2,0:0:0:0:
380,164,68554,1,2,0:0:0:0:
384,168,68721,1,2,0:0:0:0:
456,220,68887,6,0,L|452:272,3,52.5000020027161,0|0|0|0,0:0|0:0|0:0|0:0,0:0:0:0:
308,164,70221,6,0,L|232:175,1,70,12|0,0:0|0:0,0:0:0:0:
168,232,70554,1,2,0:0:0:0:
88,188,70721,2,0,P|68:122|96:59,1,140,12|2,0:0|0:0,0:0:0:0:
176,16,71221,6,0,P|238:43|304:24,1,140,12|2,0:0|0:0,0:0:0:0:
392,52,71721,1,12,0:0:0:0:
396,56,71887,2,0,L|388:132,1,70,0|2,0:0|0:0,0:0:0:0:
328,196,72221,6,0,L|260:168,1,70,12|2,0:0|0:0,0:0:0:0:
256,260,72554,2,0,L|324:288,1,70,12|2,0:0|0:0,0:0:0:0:
325,291,72804,1,2,0:0:0:0:
329,295,72887,6,0,P|314:327|313:362,1,70,12|0,0:0|0:0,0:0:0:0:
404,348,73221,1,2,0:0:0:0:
464,280,73387,2,0,P|472:236|424:144,1,140,12|2,0:0|0:0,0:0:0:0:
356,104,73887,2,0,L|284:128,1,70,12|0,0:0|0:0,0:0:0:0:
204,156,74221,1,2,0:0:0:0:
236,240,74387,6,0,L|380:271,1,140,12|2,0:0|0:0,0:0:0:0:
320,344,74887,2,0,L|236:360,1,70,12|2,0:0|0:0,0:0:0:0:
160,368,75221,1,12,0:0:0:0:
104,296,75387,1,2,0:0:0:0:
100,292,75471,1,2,0:0:0:0:
96,288,75554,6,0,P|89:250|99:211,1,70,12|2,0:0|0:0,0:0:0:0:
136,136,75887,1,2,0:0:0:0:
220,176,76054,2,0,P|213:213|223:252,1,70,12|2,0:0|0:0,0:0:0:0:
260,328,76387,1,2,0:0:0:0:
340,280,76554,6,0,L|412:288,2,70,12|2|2,0:0|0:0|0:0,0:0:0:0:
260,328,77054,2,0,L|188:336,2,70,12|2|2,0:0|0:0|0:0,0:0:0:0:
340,280,77554,2,0,P|357:211|321:151,1,140,12|12,0:0|0:0,0:0:0:0:
240,120,78054,1,2,0:0:0:0:
236,116,78137,1,2,0:0:0:0:
232,112,78221,6,0,L|64:136,1,140,12|2,0:0|0:0,0:0:0:0:
80,40,78721,2,0,L|248:16,1,140,12|2,0:0|0:0,0:0:0:0:
308,0,79221,2,0,P|336:36|368:52,1,70,12|2,0:0|0:0,0:0:0:0:
440,88,79554,5,12,0:0:0:0:
444,92,79721,1,2,0:0:0:0:
400,172,79887,2,0,L|248:156,1,140,12|2,0:0|0:0,0:0:0:0:
172,132,80387,2,0,P|167:156|168:172,5,35,2|2|2|2|2|2,0:0|0:0|0:0|0:0|0:0|0:0,0:0:0:0:
180,200,80887,6,0,L|92:192,1,70,6|0,0:0|0:0,0:0:0:0:
40,256,81221,1,8,0:0:0:0:
92,332,81387,2,0,P|144:356|236:308,1,140,0|0,0:0|0:0,0:0:0:0:
280,260,81887,1,8,0:0:0:0:
284,256,82054,1,0,0:0:0:0:
372,284,82221,6,0,L|368:372,1,70,2|0,0:0|0:0,0:0:0:0:
456,384,82554,1,8,0:0:0:0:
500,304,82721,2,0,L|493:164,1,140,0|0,0:0|0:0,0:0:0:0:
432,96,83221,1,8,0:0:0:0:
368,160,83387,1,2,0:0:0:0:
364,164,83471,1,2,0:0:0:0:
360,168,83554,6,0,L|284:156,1,70,6|0,0:0|0:0,0:0:0:0:
208,200,83887,1,8,0:0:0:0:
140,136,84054,2,0,P|120:88|164:4,1,140,0|0,0:0|0:0,0:0:0:0:
244,0,84554,1,8,0:0:0:0:
248,4,84721,1,0,0:0:0:0:
304,76,84887,6,0,L|452:56,1,140,2|8,0:0|0:0,0:0:0:0:
484,140,85387,2,0,P|480:174|467:206,1,70,0|2,0:0|0:0,0:0:0:0:
376,188,85721,1,8,0:0:0:0:
372,184,85887,1,2,0:0:0:0:
284,212,86054,6,0,P|264:280|296:352,1,140,12|0,0:0|0:0,0:0:0:0:
372,376,86554,2,0,L|439:357,1,70,8|0,0:0|0:0,0:0:0:0:
484,276,86887,2,0,L|416:257,2,70,2|0|8,0:0|0:0|0:0,0:0:0:0:
499,183,87387,6,0,P|470:120|453:52,1,140,0|0,0:0|0:0,0:0:0:0:
368,16,87887,1,8,0:0:0:0:
364,20,88054,2,0,P|346:87|317:151,1,140,0|0,0:0|0:0,0:0:0:0:
248,212,88554,1,8,0:0:0:0:
176,156,88721,1,2,0:0:0:0:
172,152,88804,1,2,0:0:0:0:
168,148,88887,6,0,L|180:0,1,140,2|8,0:0|0:0,0:0:0:0:
20,104,89554,2,0,L|8:252,1,140,2|8,0:0|0:0,0:0:0:0:
160,352,90221,6,0,L|236:332,1,70,2|2,0:0|0:0,0:0:0:0:
184,252,90554,2,0,L|116:234,1,70,12|2,0:0|0:0,0:0:0:0:
172,160,90887,2,0,L|204:146,3,35,2|2|2|2,0:0|0:0|0:0|0:0,0:0:0:0:
228,120,91221,2,0,L|259:133,3,35,2|0|0|2,0:0|0:0|0:0|0:0,0:0:0:0:
288,156,91554,6,0,P|285:121|295:88,1,70,12|0,0:0|0:0,0:0:0:0:
376,132,91887,1,2,0:0:0:0:
424,212,92054,2,0,L|408:352,1,140,12|2,0:0|0:0,0:0:0:0:
316,364,92554,6,0,P|287:343|254:333,1,70,12|0,0:0|0:0,0:0:0:0:
164,356,92887,1,2,0:0:0:0:
120,276,93054,2,0,P|115:216|162:146,1,140,12|2,0:0|0:0,0:0:0:0:
248,164,93554,6,0,L|241:94,1,70,12|2,0:0|0:0,0:0:0:0:
332,104,93887,2,0,L|338:173,1,70,12|2,0:0|0:0,0:0:0:0:
432,132,94221,5,4,0:0:0:0:
256,192,94304,12,0,96054,0:0:0:0:
256,215,96387,6,0,L|256:180,2,35,8|8|4,0:3|0:3|0:3,0:0:0:0:
408,64,96887,6,0,P|394:131|427:191,1,140,12|2,0:0|0:0,0:0:0:0:
512,176,97387,2,0,P|525:108|492:48,1,140,12|2,0:0|0:0,0:0:0:0:
408,64,97887,6,0,L|268:96,1,140,12|2,0:0|0:0,0:0:0:0:
200,140,98387,2,0,L|63:108,1,140,12|2,0:0|0:0,0:0:0:0:
4,168,98887,1,12,0:0:0:0:
0,172,99054,1,2,0:0:0:0:
67,223,99221,2,0,P|84:254|91:288,1,70,12|2,0:0|0:0,0:0:0:0:
72,372,99554,6,0,L|2:362,2,70,12|2|2,0:0|0:0|0:0,0:0:0:0:
153,345,100054,2,0,L|222:335,2,70,12|2|2,0:0|0:0|0:0,0:0:0:0:
91,288,100554,6,0,L|21:278,2,70,12|2|2,0:0|0:0|0:0,0:0:0:0:
172,261,101054,2,0,L|241:251,2,70,12|2|2,0:0|0:0|0:0,0:0:0:0:
110,204,101554,6,0,P|102:154|113:120,1,70,12|2,0:0|0:0,0:0:0:0:
172,80,101887,2,0,L|228:92,3,35,2|2|2|2,0:0|0:0|0:0|0:0,0:0:0:0:
236,108,102221,6,0,L|316:56,1,70,12|0,0:0|0:0,0:0:0:0:
368,24,102554,1,2,0:0:0:0:
440,72,102721,2,0,P|464:136|442:201,1,140,12|2,0:0|0:0,0:0:0:0:
368,244,103221,6,0,L|274:224,1,70,12|0,0:0|0:0,0:0:0:0:
215,210,103554,1,2,0:0:0:0:
140,252,103721,2,0,P|115:316|137:381,1,140,12|2,0:0|0:0,0:0:0:0:
220,356,104221,5,12,0:0:0:0:
224,352,104387,1,2,0:0:0:0:
304,380,104554,1,12,0:0:0:0:
308,384,104720,1,2,0:0:0:0:
384,344,104887,6,0,L|372:268,2,70,12|2|2,0:0|0:0|0:0,0:0:0:0:
460,304,105387,2,0,L|468:156,1,140,12|2,0:0|0:0,0:0:0:0:
400,112,105887,1,12,0:0:0:0:
396,116,106054,1,2,0:0:0:0:
328,168,106221,6,0,L|240:156,1,70,12|2,0:0|0:0,0:0:0:0:
252,244,106554,2,0,L|340:256,1,70,12|2,0:0|0:0,0:0:0:0:
280,328,106887,2,0,L|236:344,3,35,2|2|2|2,0:0|0:0|0:0|0:0,0:0:0:0:
216,356,107221,2,0,L|173:336,3,35,2|0|0|2,0:0|0:0|0:0|0:0,0:0:0:0:
152,328,107554,6,0,P|126:265|160:206,1,140,12|2,0:0|0:0,0:0:0:0:
184,124,108054,2,0,P|124:90|62:115,1,140,12|2,0:0|0:0,0:0:0:0:
12,184,108554,6,0,L|24:260,2,70,12|0|2,0:0|0:0|0:0,0:0:0:0:
62,115,109054,2,0,L|50:39,2,70,12|0|2,0:0|0:0|0:0,0:0:0:0:
131,163,109554,6,0,P|165:173|200:176,1,70,12|2,0:0|0:0,0:0:0:0:
284,156,109887,2,0,P|301:125|323:98,1,70,12|2,0:0|0:0,0:0:0:0:
408,116,110221,5,12,0:0:0:0:
412,120,110387,2,0,L|419:200,1,70,0|2,0:0|0:0,0:0:0:0:
460,264,110721,2,0,P|396:289|328:264,1,140,12|2,0:0|0:0,0:0:0:0:
252,240,111221,5,12,0:0:0:0:
248,236,111387,2,0,L|167:243,1,70,0|2,0:0|0:0,0:0:0:0:
104,200,111721,2,0,P|81:264|107:328,1,140,12|2,0:0|0:0,0:0:0:0:
176,376,112221,5,12,0:0:0:0:
180,380,112387,1,2,0:0:0:0:
248,328,112554,2,0,L|300:336,3,35,2|2|2|2,0:0|0:0|0:0|0:0,0:0:0:0:
304,360,112887,6,0,L|349:227,1,140,12|2,0:0|0:0,0:0:0:0:
408,168,113387,2,0,L|296:83,1,140,12|2,0:0|0:0,0:0:0:0:
257,9,113887,6,0,L|142:89,1,140,12|2,0:0|0:0,0:0:0:0:
59,103,114387,2,0,L|100:236,1,140,12|2,0:0|0:0,0:0:0:0:
164,292,114887,6,0,P|178:260|182:225,1,70,12|2,0:0|0:0,0:0:0:0:
180,140,115221,1,12,0:0:0:0:
264,156,115387,1,2,0:0:0:0:
270,158,115471,1,2,0:0:0:0:
276,160,115554,6,0,L|353:146,1,70,12|2,0:0|0:0,0:0:0:0:
424,180,115887,1,0,0:0:0:0:
496,136,116054,2,0,P|516:76|472:0,1,140,12|2,0:0|0:0,0:0:0:0:
400,8,116554,2,0,L|331:20,1,70,12|2,0:0|0:0,0:0:0:0:
272,80,116887,6,0,L|188:60,1,70,2|2,0:0|0:0,0:0:0:0:
200,60,117137,1,2,0:0:0:0:
196,56,117221,2,0,L|127:72,1,70,2|2,0:0|0:0,0:0:0:0:
64,128,117554,2,0,L|76:176,3,35,2|0|2|2,0:0|0:0|0:0|0:0,0:0:0:0:
96,188,117887,2,0,L|84:236,3,35,2|2|2|2,0:0|0:0|0:0|0:0,0:0:0:0:
64,248,118221,6,0,P|132:232|188:260,1,125.999996154785,6|8,0:0|0:0,0:0:0:0:
232,320,118721,1,0,0:0:0:0:
304,280,118887,1,2,0:0:0:0:
308,276,119054,2,0,L|300:208,1,62.9999980773926,2|0,0:0|0:0,0:0:0:0:
284,132,119387,6,0,L|148:156,1,125.999996154785,8|2,0:0|0:0,0:0:0:0:
124,80,119887,2,0,L|260:56,1,125.999996154785,8|2,0:0|0:0,0:0:0:0:
328,36,120387,1,2,0:0:0:0:
332,40,120554,2,0,L|395:65,1,62.9999980773926,8|0,0:0|0:0,0:0:0:0:
356,140,120887,6,0,L|297:163,1,62.9999980773926,2|0,0:0|0:0,0:0:0:0:
216,144,121221,2,0,P|196:180|224:268,1,125.999996154785,8|2,0:0|0:0,0:0:0:0:
280,312,121721,1,2,0:0:0:0:
448,360,122054,6,0,L|464:220,1,125.999996154785,8|2,0:0|0:0,0:0:0:0:
464,152,122554,2,0,P|432:155|404:170,1,62.9999980773926,8|0,0:0|0:0,0:0:0:0:
332,208,122887,1,2,0:0:0:0:
328,212,123054,1,2,0:0:0:0:
276,148,123221,2,0,P|279:116|294:88,1,62.9999980773926,8|0,0:0|0:0,0:0:0:0:
236,28,123554,6,0,L|164:40,1,62.9999980773926,6|0,0:0|0:0,0:0:0:0:
92,24,123887,2,0,L|72:156,1,125.999996154785,8|2,0:0|0:0,0:0:0:0:
84,232,124387,1,2,0:0:0:0:
224,124,124721,6,0,P|285:116|341:144,1,125.999996154785,8|2,0:0|0:0,0:0:0:0:
388,212,125221,2,0,L|376:288,1,62.9999980773926,8|0,0:0|0:0,0:0:0:0:
308,320,125554,1,2,0:0:0:0:
304,316,125721,1,2,0:0:0:0:
240,264,125887,2,0,L|177:273,1,62.9999980773926,8|0,0:0|0:0,0:0:0:0:
96,296,126221,6,0,P|101:238|97:158,1,125.999996154785,2|8,0:0|0:0,0:0:0:0:
204,32,126887,1,2,0:0:0:0:
208,36,127054,1,2,0:0:0:0:
308,180,127387,6,0,P|365:185|445:181,1,125.999996154785,8|2,0:0|0:0,0:0:0:0:
508,148,127887,2,0,L|500:72,1,62.9999980773926,4|0,0:0|0:0,0:0:0:0:
440,28,128221,1,2,0:0:0:0:
368,68,128387,2,0,L|324:60,5,31.4999990386963,2|2|2|2|2|2,0:0|0:0|0:0|0:0|0:0|0:0,0:0:0:0:
308,44,128887,6,0,P|313:112|275:169,1,140,6|8,0:0|0:0,0:0:0:0:
192,192,129387,1,2,0:0:0:0:
180,276,129554,2,0,L|260:292,1,70,2|2,0:0|0:0,0:0:0:0:
208,364,129887,2,0,L|128:380,1,70,8|2,0:0|0:0,0:0:0:0:
63,335,130221,6,0,P|56:266|78:200,1,140,2|8,0:0|0:0,0:0:0:0:
144,148,130721,1,2,0:0:0:0:
100,76,130887,2,0,L|20:88,1,70,2|2,0:0|0:0,0:0:0:0:
144,148,131221,2,0,L|224:136,1,70,8|2,0:0|0:0,0:0:0:0:
292,168,131554,6,0,L|305:28,2,140,6|8|2,0:0|0:0|0:0,0:0:0:0:
348,232,132387,1,2,0:0:0:0:
408,172,132554,1,8,0:0:0:0:
412,168,132721,1,2,0:0:0:0:
468,232,132887,6,0,P|484:280|440:360,1,140,2|8,0:0|0:0,0:0:0:0:
360,364,133387,2,0,P|345:297|287:260,1,140,2|2,0:0|0:0,0:0:0:0:
204,264,133887,2,0,L|136:296,1,70,8|2,0:0|0:0,0:0:0:0:
60,264,134221,5,6,0:0:0:0:
56,260,134387,1,2,0:0:0:0:
100,188,134554,2,0,P|112:132|108:108,1,70,8|2,0:0|0:0,0:0:0:0:
108,36,134887,1,2,0:0:0:0:
112,32,135053,1,2,0:0:0:0:
184,76,135220,2,0,P|240:88|264:84,1,70,8|2,0:0|0:0,0:0:0:0:
332,56,135554,6,0,P|349:25|375:2,1,70,2|2,0:0|0:0,0:0:0:0:
460,4,135887,1,8,0:0:0:0:
464,8,136054,1,2,0:0:0:0:
488,88,136221,1,2,0:0:0:0:
484,92,136387,2,0,P|473:125|473:159,1,70,2|8,0:0|0:0,0:0:0:0:
488,244,136721,1,2,0:0:0:0:
408,220,136887,6,0,L|334:224,1,70,6|0,0:0|0:0,0:0:0:0:
272,276,137221,2,0,L|145:216,1,140,8|2,0:0|0:0,0:0:0:0:
100,144,137721,1,2,0:0:0:0:
94,145,137887,2,0,P|63:173|54:205,1,70,8|2,0:0|0:0,0:0:0:0:
40,284,138221,5,12,0:0:0:0:
44,288,138387,1,2,0:0:0:0:
100,352,138554,1,12,0:0:0:0:
104,356,138720,1,2,0:0:0:0:
168,300,138887,2,0,L|216:312,3,35,2|2|2|2,0:0|0:0|0:0|0:0,0:0:0:0:
224,336,139221,2,0,L|271:322,3,35,2|0|2|2,0:0|0:0|0:0|0:0,0:0:0:0:
288,320,139554,6,0,P|320:272|320:208,1,105.000004005432,12|0,0:0|0:0,0:0:0:0:
292,152,140054,1,8,0:0:0:0:
144,208,140387,1,2,0:0:0:0:
140,212,140471,1,2,0:0:0:0:
136,216,140554,2,0,P|104:168|104:104,1,105.000004005432,12|0,0:0|0:0,0:0:0:0:
132,48,141054,1,8,0:0:0:0:
280,104,141387,1,2,0:0:0:0:
284,108,141471,1,2,0:0:0:0:
288,112,141554,2,0,L|352:100,1,52.5000020027161,12|2,0:0|0:0,0:0:0:0:
400,52,141887,2,0,L|453:88,1,52.5000020027161,2|2,0:0|0:0,0:0:0:0:
447,86,142137,1,2,0:0:0:0:
451,90,142221,6,0,P|435:134|435:210,1,105.000004005432,12|0,0:0|0:0,0:0:0:0:
452,268,142721,1,8,0:0:0:0:
304,324,143054,1,2,0:0:0:0:
300,328,143137,1,2,0:0:0:0:
296,332,143221,2,0,P|280:288|280:212,1,105.000004005432,12|0,0:0|0:0,0:0:0:0:
297,154,143721,2,0,L|232:136,1,52.5000020027161,8|0,0:0|0:0,0:0:0:0:
172,168,144054,1,2,0:0:0:0:
168,164,144137,1,2,0:0:0:0:
164,160,144221,2,0,L|154:93,1,52.5000020027161,4|8,0:3|0:3,0:0:0:0:
80,132,144554,2,0,L|89:198,1,52.5000020027161,4|8,0:3|0:3,0:0:0:0:
80,262,144887,6,0,L|184:270,1,105.000004005432,6|2,0:0|0:0,0:0:0:0:
256,236,145387,1,2,0:0:0:0:
320,284,145554,2,0,L|312:352,1,52.5000020027161,8|2,0:0|0:0,0:0:0:0:
244,372,145887,1,2,0:0:0:0:
168,348,146054,2,0,L|124:356,2,26.2500010013581,2|2|2,0:0|0:0|0:0,0:0:0:0:
184,270,146387,1,2,0:0:0:0:
108,248,146554,2,0,P|101:222|104:196,1,52.5000020027161,2|2,0:0|0:0,0:0:0:0:
160,140,146887,2,0,P|207:159|257:147,1,105.000004005432,8|2,0:0|0:0,0:0:0:0:
316,92,147387,1,2,0:0:0:0:
320,88,147470,1,2,0:0:0:0:
324,84,147554,6,0,P|359:120|365:171,1,105.000004005432,6|2,0:0|0:0,0:0:0:0:
310,230,148054,1,2,0:0:0:0:
367,286,148221,1,8,0:0:0:0:
370,291,148387,2,0,L|444:275,1,52.5000020027161,2|2,0:0|0:0,0:0:0:0:
480,228,148721,2,0,L|510:232,2,26.2500010013581,2|2|2,0:0|0:0|0:0,0:0:0:0:
428,168,149054,1,2,0:0:0:0:
476,104,149221,2,0,P|484:76|476:36,1,52.5000020027161,2|2,0:0|0:0,0:0:0:0:
412,16,149554,2,0,L|362:34,1,52.5000020027161,6|2,0:0|0:0,0:0:0:0:
292,72,149887,2,0,L|242:53,1,52.5000020027161,6|2,0:0|0:0,0:0:0:0:
144,23,150221,6,0,P|145:86|153:149,1,125.999996154785,12|0,0:0|0:0,0:0:0:0:
188,224,150721,2,0,L|104:240,1,62.9999980773926,8|0,0:0|0:0,0:0:0:0:
52,308,151054,5,0,0:0:0:0:
56,312,151137,1,0,0:0:0:0:
60,316,151221,2,0,P|121:331|184:339,1,125.999996154785,12|0,0:0|0:0,0:0:0:0:
260,308,151721,2,0,L|268:372,1,62.9999980773926,8|0,0:0|0:0,0:0:0:0:
368,384,152054,5,0,0:0:0:0:
374,382,152137,1,0,0:0:0:0:
379,380,152221,2,0,P|390:350|391:319,1,62.9999980773926,12|0,0:0|0:0,0:0:0:0:
360,244,152554,2,0,P|335:223|319:197,1,62.9999980773926,0|0,0:0|0:0,0:0:0:0:
352,100,152887,6,0,L|484:112,1,125.999996154785,12|0,0:0|0:0,0:0:0:0:
512,36,153387,1,8,0:0:0:0:
512,36,153721,5,0,0:0:0:0:
508,32,153804,1,0,0:0:0:0:
504,28,153887,2,0,L|372:16,1,125.999996154785,12|0,0:0|0:0,0:0:0:0:
296,32,154387,2,0,P|269:87|285:146,1,125.999996154785,8|0,0:0|0:0,0:0:0:0:
352,196,154887,6,0,L|400:184,3,31.4999990386963,2|2|2|2,0:0|0:0|0:0|0:0,0:0:0:0:
408,168,155221,2,0,L|437:223,1,62.9999980773926,6|0,0:0|0:0,0:0:0:0:
408,312,155554,6,0,P|373:307|340:316,1,70,12|2,0:0|0:0,0:0:0:0:
273,377,155887,1,2,0:0:0:0:
192,332,156054,2,0,P|186:297|195:264,1,70,12|2,0:0|0:0,0:0:0:0:
257,197,156387,1,2,0:0:0:0:
196,128,156554,6,0,L|40:140,1,140,12|2,0:0|0:0,0:0:0:0:
64,48,157054,2,0,L|220:36,1,140,12|2,0:0|0:0,0:0:0:0:
292,12,157554,2,0,L|320:36,3,35,2|2|2|2,0:0|0:0|0:0|0:0,0:0:0:0:
344,60,157887,2,0,L|378:47,3,35,2|2|2|2,0:0|0:0|0:0|0:0,0:0:0:0:
408,32,158221,1,6,0:0:0:0:
500,240,158554,5,2,0:0:0:0:
496,244,158721,1,2,0:0:0:0:
424,300,158887,1,2,0:0:0:0:
420,296,159054,1,0,0:0:0:0:
364,224,159221,2,0,L|280:212,1,70,6|0,0:0|0:0,0:0:0:0:
360,124,159554,6,0,L|444:112,1,70,6|2,0:0|0:0,0:0:0:0:
488,44,159887,2,0,L|456:20,3,35,2|2|2|2,0:0|0:0|0:0|0:0,0:0:0:0:
432,4,160221,2,0,L|392:9,3,35,2|2|2|2,0:0|0:0|0:0|0:0,0:0:0:0:
372,32,160554,2,0,P|328:28|284:12,1,70,2|0,0:0|0:0,0:0:0:0:
196,20,160887,6,0,P|200:64|216:108,1,70,12|0,0:0|0:0,0:0:0:0:
260,164,161221,1,2,0:0:0:0:
180,208,161387,2,0,P|144:220|56:176,1,140,12|2,0:0|0:0,0:0:0:0:
0,248,161887,6,0,L|8:320,1,70,12|0,0:0|0:0,0:0:0:0:
80,376,162221,1,2,0:0:0:0:
152,320,162387,2,0,P|207:279|274:289,1,140,12|2,0:0|0:0,0:0:0:0:
348,344,162887,5,12,0:0:0:0:
352,348,163054,1,2,0:0:0:0:
424,292,163221,2,0,L|412:208,1,70,12|2,0:0|0:0,0:0:0:0:
348,160,163554,6,0,P|388:132|432:128,2,70,12|2|2,0:0|0:0|0:0,0:0:0:0:
284,224,164054,2,0,P|216:215|170:163,1,140,12|2,0:0|0:0,0:0:0:0:
144,76,164554,1,12,0:0:0:0:
236,84,164721,2,0,L|316:60,1,70,2|2,0:0|0:0,0:0:0:0:
396,60,165054,6,0,L|356:228,1,140,12|2,0:0|0:0,0:0:0:0:
424,268,165554,1,12,0:0:0:0:
428,272,165721,1,2,0:0:0:0:
356,332,165887,2,0,L|312:320,3,35,2|2|2|2,0:0|0:0|0:0|0:0,0:0:0:0:
288,328,166221,6,0,P|268:284|268:248,1,70,12|2,0:0|0:0,0:0:0:0:
280,172,166554,1,2,0:0:0:0:
188,156,166721,2,0,P|168:200|168:236,1,70,12|2,0:0|0:0,0:0:0:0:
180,312,167054,1,2,0:0:0:0:
88,328,167221,6,0,L|-4:304,2,70,12|2|2,0:0|0:0|0:0,0:0:0:0:
180,312,167721,2,0,L|272:288,2,70,12|2|2,0:0|0:0|0:0,0:0:0:0:
120,244,168221,2,0,P|112:176|150:116,1,140,12|12,0:0|0:0,0:0:0:0:
232,80,168721,1,2,0:0:0:0:
176,8,168887,6,0,L|96:28,2,70,12|0|2,0:0|0:0|0:0,0:0:0:0:
268,16,169387,2,0,P|272:80|331:127,1,140,12|2,0:0|0:0,0:0:0:0:
412,92,169887,1,12,0:0:0:0:
416,88,170054,1,2,0:0:0:0:
484,148,170221,6,0,L|472:228,1,70,12|2,0:0|0:0,0:0:0:0:
448,304,170554,2,0,L|312:220,1,140,12|2,0:0|0:0,0:0:0:0:
256,288,171054,2,0,P|251:304|251:322,5,35,2|2|2|2|2|2,0:0|0:0|0:0|0:0|0:0|0:0,0:0:0:0:
264,356,171554,6,0,P|232:341|196:336,1,70,6|0,0:0|0:0,0:0:0:0:
112,364,171887,1,8,0:0:0:0:
56,292,172054,2,0,P|40:248|80:160,1,140,0|0,0:0|0:0,0:0:0:0:
152,120,172554,1,8,0:0:0:0:
148,212,172721,1,0,0:0:0:0:
226,166,172887,6,0,L|298:154,1,70,2|0,0:0|0:0,0:0:0:0:
368,212,173221,1,8,0:0:0:0:
444,160,173387,2,0,P|460:116|420:28,1,140,0|0,0:0|0:0,0:0:0:0:
340,0,173887,1,8,0:0:0:0:
272,60,174054,1,2,0:0:0:0:
268,64,174137,1,2,0:0:0:0:
264,68,174221,6,0,P|194:59|126:44,1,140,6|8,0:0|0:0,0:0:0:0:
100,132,174721,2,0,P|106:201|119:270,1,140,0|0,0:0|0:0,0:0:0:0:
152,356,175221,1,8,0:0:0:0:
224,300,175387,1,0,0:0:0:0:
284,368,175554,6,0,L|356:352,2,70,2|0|8,0:0|0:0|0:0,0:0:0:0:
224,300,176054,2,0,P|200:256|232:172,1,140,0|0,0:0|0:0,0:0:0:0:
308,132,176554,1,8,0:0:0:0:
252,60,176721,1,2,0:0:0:0:
248,56,176804,1,2,0:0:0:0:
244,52,176887,6,0,P|200:72|104:84,1,140,6|8,0:0|0:0,0:0:0:0:
20,60,177387,1,0,0:0:0:0:
20,152,177554,2,0,L|40:236,1,70,2|0,0:0|0:0,0:0:0:0:
120,256,177887,1,8,0:0:0:0:
176,184,178054,6,0,P|145:166|111:164,1,70,0|2,0:0|0:0,0:0:0:0:
148,80,178387,2,0,P|165:49|167:15,1,70,0|8,0:0|0:0,0:0:0:0:
252,51,178721,2,0,P|282:68|316:70,1,70,0|2,0:0|0:0,0:0:0:0:
280,155,179054,2,0,P|262:185|260:219,1,70,0|8,0:0|0:0,0:0:0:0:
328,284,179387,1,0,0:0:0:0:
408,240,179554,6,0,P|428:200|404:104,2,140,6|8|2,0:0|0:0|0:0,0:0:0:0:
328,284,180387,1,2,0:0:0:0:
372,364,180554,2,0,L|440:348,1,70,12|2,0:0|0:0,0:0:0:0:
328,284,180887,6,0,L|279:275,3,35,2|2|2|2,0:0|0:0|0:0|0:0,0:0:0:0:
260,288,181221,2,0,L|231:247,3,35,2|2|2|2,0:0|0:0|0:0|0:0,0:0:0:0:
207,244,181554,2,0,L|215:195,3,35,2|2|2|2,0:0|0:0|0:0|0:0,0:0:0:0:
202,176,181887,2,0,L|242:147,3,35,2|2|2|2,0:0|0:0|0:0|0:0,0:0:0:0:
248,124,182221,6,0,P|278:140|313:145,1,70,12|2,0:0|0:0,0:0:0:0:
384,88,182554,1,2,0:0:0:0:
340,8,182721,2,0,L|200:21,1,140,12|2,0:0|0:0,0:0:0:0:
112,0,183220,6,0,P|106:34|115:68,1,70,12|2,0:0|0:0,0:0:0:0:
192,120,183554,1,2,0:0:0:0:
140,196,183721,2,0,P|206:210|264:174,1,140,12|2,0:0|0:0,0:0:0:0:
356,184,184221,6,0,L|364:244,2,46.6666666666667,8|8|8,0:3|0:3|0:3,0:0:0:0:
404,128,184554,2,0,L|396:68,2,46.6666666666667,4|4|4,0:3|0:3|0:3,0:0:0:0:
468,164,184887,1,4,0:0:0:0:
256,192,184971,12,0,186054,0:0:0:0:
256,180,187054,6,0,L|256:215,2,35,2|2|2,0:0|0:0|0:0,0:0:0:0:
408,228,187554,6,0,P|372:266|349:313,1,105.000004005432,6|2,0:0|0:0,0:0:0:0:
414,358,188054,2,0,P|449:319|472:272,1,105.000004005432,4|0,0:0|0:0,0:0:0:0:
408,228,188554,6,0,P|336:248|368:112,1,288.750011014939,6|0,0:0|0:0,0:0:0:0:
388,128,189554,2,0,L|396:80,4,26.2500010013581,0|0|0|0|0,0:0|0:0|0:0|0:0|0:0,0:0:0:0:
232,96,190221,6,0,B|195:133|144:160|86:130|56:88|56:88|72:28|152:24,1,315.000012016297,6|0,0:0|0:0,0:0:0:0:
137,25,191554,5,10,0:0:0:0:
232,96,191721,1,8,0:3:0:0:
228,104,192054,1,8,0:3:0:0:
224,112,192387,1,8,0:3:0:0:
294,17,192554,1,4,0:3:0:0:
154,207,192887,6,0,L|164:332,1,105.000004005432,6|2,0:0|0:0,0:0:0:0:
84,304,193387,2,0,L|74:179,1,105.000004005432,6|0,0:0|0:0,0:0:0:0:
153,206,193887,2,0,P|300:214|208:104,1,367.500014019013,6|0,0:0|0:0,0:0:0:0:
228,181,195221,1,2,0:3:0:0:
244,344,195554,6,0,L|347:324,1,105.000004005432,6|2,0:0|0:0,0:0:0:0:
428,264,196054,1,2,0:0:0:0:
509,322,196221,2,0,L|500:375,1,52.5000020027161,2|2,0:0|0:0,0:0:0:0:
347,323,196554,1,6,0:0:0:0:
347,323,196887,5,2,0:0:0:0:
428,264,197054,1,6,0:0:0:0:
347,331,197221,2,0,L|274:323,1,52.5000020027161,6|2,0:0|0:0,0:0:0:0:
305,225,197554,2,0,L|377:232,1,52.5000020027161,6|2,0:0|0:0,0:0:0:0:
366,130,197887,2,0,L|339:127,3,26.2500010013581,2|2|2|2,0:0|0:0|0:0|0:0,0:0:0:0:
312,108,198221,6,0,P|292:136|263:157,1,70,6|2,0:0|0:0,0:0:0:0:
176,172,198554,1,2,0:0:0:0:
124,96,198721,2,0,L|140:8,2,70,6|2|2,0:0|0:0|0:0,0:0:0:0:
60,164,199221,6,0,P|64:198|77:230,1,70,6|2,0:0|0:0,0:0:0:0:
160,272,199554,1,2,0:0:0:0:
124,356,199721,2,0,L|54:363,2,70,6|2|2,0:0|0:0|0:0,0:0:0:0:
160,272,200221,6,0,L|230:264,1,70,6|2,0:0|0:0,0:0:0:0:
295,197,200554,1,6,0:0:0:0:
230,132,200720,1,2,0:0:0:0:
227,127,200804,1,2,0:0:0:0:
224,122,200887,6,0,L|240:51,2,70,6|2|2,0:0|0:0|0:0,0:0:0:0:
159,188,201387,2,0,P|118:161|72:159,1,70,6|2,0:0|0:0,0:0:0:0:
8,172,201721,1,2,0:0:0:0:
0,80,201887,6,0,P|10:46|31:19,1,70,6|2,0:0|0:0,0:0:0:0:
124,8,202221,1,2,0:0:0:0:
148,96,202387,2,0,P|215:102|263:54,1,140,6|2,0:0|0:0,0:0:0:0:
340,104,202887,5,6,0:0:0:0:
344,108,203054,1,2,0:0:0:0:
400,36,203221,2,0,L|436:40,3,35,2|2|2|2,0:0|0:0|0:0|0:0,0:0:0:0:
468,52,203554,6,0,P|476:85|477:120,1,70,6|2,0:0|0:0,0:0:0:0:
440,204,203887,1,2,0:0:0:0:
352,176,204054,2,0,P|318:167|283:166,1,70,6|2,0:0|0:0,0:0:0:0:
200,204,204387,1,2,0:0:0:0:
232,288,204554,6,0,L|380:260,1,140,6|2,0:0|0:0,0:0:0:0:
429,328,205054,2,0,P|450:301|460:268,1,70,6|2,0:0|0:0,0:0:0:0:
480,180,205387,1,2,0:0:0:0:
392,156,205554,6,0,P|360:141|336:115,1,70,6|0,0:0|0:0,0:0:0:0:
244,120,205887,2,0,L|240:160,3,35,2|2|2|2,0:0|0:0|0:0|0:0,0:0:0:0:
256,188,206221,6,0,L|92:216,1,140,6|2,0:0|0:0,0:0:0:0:
52,276,206721,1,2,0:0:0:0:
92,358,206888,1,2,0:0:0:0:
96,362,207054,1,2,0:0:0:0:
186,349,207221,1,2,0:0:0:0:
190,345,207387,1,2,0:0:0:0:
205,255,207554,6,0,L|190:179,1,70,2|2,0:0|0:0,0:0:0:0:
132,116,207887,2,0,P|180:75|264:87,1,140,6|2,0:0|0:0,0:0:0:0:
332,128,208387,2,0,L|346:85,5,35,2|2|2|2|2|2,0:0|0:0|0:0|0:0|0:0|0:0,0:0:0:0:
370,72,208887,6,0,L|391:210,1,140,6|10,0:0|0:0,0:0:0:0:
332,280,209387,1,0,0:0:0:0:
242,262,209554,2,0,P|256:230|279:204,1,70,2|0,0:0|0:0,0:0:0:0:
332,280,209887,5,10,0:0:0:0:
276,352,210054,2,0,P|241:357|206:352,1,70,0|2,0:0|0:0,0:0:0:0:
124,316,210387,1,0,0:0:0:0:
168,235,210554,2,0,P|158:155|104:108,1,140,10|2,0:0|0:0,0:0:0:0:
36,80,211054,1,0,0:0:0:0:
0,163,211220,1,10,0:0:0:0:
119,115,211387,1,2,0:0:0:0:
124,111,211471,1,2,0:0:0:0:
128,107,211554,6,0,L|279:130,1,140,2|10,0:0|0:0,0:0:0:0:
336,188,212054,1,0,0:0:0:0:
416,144,212221,2,0,P|420:97|403:64,1,70,2|0,0:0|0:0,0:0:0:0:
352,8,212554,5,10,0:0:0:0:
268,48,212721,2,0,P|221:39|194:14,1,70,0|2,0:0|0:0,0:0:0:0:
128,80,213054,1,0,0:0:0:0:
184,152,213221,2,0,P|209:215|182:278,1,140,10|2,0:0|0:0,0:0:0:0:
100,320,213721,1,0,0:0:0:0:
59,238,213887,1,10,0:0:0:0:
182,278,214054,1,2,0:0:0:0:
188,281,214137,1,2,0:0:0:0:
194,283,214221,6,0,L|342:255,1,140,6|8,0:0|0:0,0:0:0:0:
424,252,214721,2,0,P|416:296|392:324,2,70,0|2|0,0:0|0:0|0:0,0:0:0:0:
372,176,215221,6,0,P|344:148|352:48,1,140,8|2,0:0|0:0,0:0:0:0:
432,16,215721,1,2,0:0:0:0:
339,54,215887,2,0,L|263:42,1,70,12|2,0:0|0:0,0:0:0:0:
180,20,216221,2,0,L|153:61,3,35,2|2|2|2,0:0|0:0|0:0|0:0,0:0:0:0:
136,76,216554,2,0,L|145:124,3,35,2|2|2|2,0:0|0:0|0:0|0:0,0:0:0:0:
168,136,216887,6,0,P|136:188|48:216,1,140,12|2,0:0|0:0,0:0:0:0:
88,304,217387,2,0,L|176:316,1,70,12|0,0:0|0:0,0:0:0:0:
248,324,217721,1,2,0:0:0:0:
240,232,217887,6,0,P|236:176|248:152,2,70,10|2|2,0:0|0:0|0:0,0:0:0:0:
324,271,218387,2,0,P|374:295|389:317,2,70,10|2|2,0:0|0:0|0:0,0:0:0:0:
248,324,218887,5,10,0:0:0:0:
244,328,219054,1,2,0:0:0:0:
164,282,219221,1,10,0:0:0:0:
160,278,219388,1,2,0:0:0:0:
240,232,219554,6,0,P|247:198|240:164,1,70,12|2,0:0|0:0,0:0:0:0:
196,84,219887,1,2,0:0:0:0:
280,44,220054,2,0,P|313:36|347:43,1,70,12|2,0:0|0:0,0:0:0:0:
428,88,220387,1,2,0:0:0:0:
372,160,220554,6,0,L|292:148,2,70,12|2|2,0:0|0:0|0:0,0:0:0:0:
436,224,221054,2,0,L|516:212,2,70,12|2|2,0:0|0:0|0:0,0:0:0:0:
380,296,221554,6,0,L|388:356,2,46.6666666666667,8|8|8,0:3|0:3|0:3,0:0:0:0:
308,280,221887,2,0,L|300:220,2,46.6666666666667,4|4|4,0:3|0:3|0:3,0:0:0:0:
248,324,222221,1,6,0:0:0:0:
76,84,232887,6,0,L|204:68,1,105.000004005432,6|2,0:0|0:0,0:0:0:0:
256,96,233387,1,0,0:0:0:0:
260,100,233554,2,0,P|236:136|216:148,1,52.5000020027161,2|0,0:0|0:0,0:0:0:0:
240,220,233887,6,0,L|368:204,1,105.000004005432,2|2,0:0|0:0,0:0:0:0:
420,232,234387,1,0,0:0:0:0:
424,236,234554,2,0,P|400:272|380:284,1,52.5000020027161,2|0,0:0|0:0,0:0:0:0:
332,328,234887,6,0,L|340:392,1,52.5000020027161,2|2,0:0|0:3,0:0:0:0:
258,376,235221,2,0,L|250:312,1,52.5000020027161,2|2,0:0|0:3,0:0:0:0:
256,232,235554,6,0,P|204:224|155:251,1,105.000004005432,2|2,0:0|0:0,0:0:0:0:
88,212,236054,1,0,0:0:0:0:
84,208,236221,2,0,L|92:144,1,52.5000020027161,2|0,0:0|0:0,0:0:0:0:
80,76,236554,6,0,P|131:68|180:95,1,105.000004005432,2|2,0:0|0:0,0:0:0:0:
248,56,237054,1,0,0:0:0:0:
252,52,237221,2,0,L|244:-12,1,52.5000020027161,2|0,0:0|0:0,0:0:0:0:
324,8,237554,6,0,P|368:24|436:32,1,105.000004005432,2|2,0:0|0:0,0:0:0:0:
504,20,238054,1,2,0:3:0:0:
508,112,238221,6,0,L|488:236,1,105.000004005432,2|2,0:0|0:0,0:0:0:0:
416,264,238721,1,0,0:0:0:0:
376,184,238887,2,0,L|252:164,1,105.000004005432,2|2,0:0|0:0,0:0:0:0:
184,160,239387,6,0,P|185:186|196:210,1,52.5000020027161,0|2,0:0|0:0,0:0:0:0:
260,270,239721,2,0,P|235:279|216:297,1,52.5000020027161,0|2,0:0|0:0,0:0:0:0:
178,378,240054,2,0,P|161:357|138:344,1,52.5000020027161,0|2,0:0|0:0,0:0:0:0:
47,339,240387,2,0,P|60:316|66:291,1,52.5000020027161,0|2,0:0|0:0,0:0:0:0:
71,198,240721,6,0,L|124:204,1,52.5000020027161,0|6,0:0|0:0,0:0:0:0:
180,136,241054,2,0,L|233:130,1,52.5000020027161,0|2,0:0|0:0,0:0:0:0:
312,168,241387,1,2,0:0:0:0:
316,172,241471,1,2,0:0:0:0:
320,176,241554,2,0,L|318:202,3,26.2500010013581,2|2|2|2,0:0|0:0|0:0|0:0,0:0:0:0:
304,224,241887,2,0,L|306:250,3,26.2500010013581,2|2|2|2,0:0|0:0|0:0|0:0,0:0:0:0:
320,272,242221,1,2,0:0:0:0:
256,192,242304,12,0,244554,0:0:0:0:
376,136,244887,6,0,L|368:208,1,70,12|2,0:0|0:0,0:0:0:0:
288,248,245221,1,2,0:0:0:0:
228,180,245387,2,0,P|188:156|88:184,1,140,12|2,0:0|0:0,0:0:0:0:
68,256,245887,5,12,0:0:0:0:
108,340,246054,2,0,L|188:324,1,70,2|2,0:0|0:0,0:0:0:0:
68,256,246387,2,0,L|-12:240,2,70,12|2|2,0:0|0:0|0:0,0:0:0:0:
148,212,246887,6,0,P|168:176|144:76,1,140,12|14,0:0|0:0,0:0:0:0:
208,12,247387,1,2,0:0:0:0:
212,16,247471,1,2,0:0:0:0:
216,20,247554,6,0,L|304:4,1,70,14|2,0:0|0:0,0:0:0:0:
360,60,247887,1,2,0:0:0:0:
296,128,248054,2,0,P|280:168|328:256,1,140,12|2,0:0|0:0,0:0:0:0:
408,272,248554,5,12,0:0:0:0:
384,360,248721,2,0,L|312:352,1,70,2|2,0:0|0:0,0:0:0:0:
238,301,249054,2,0,P|223:332|223:367,2,70,12|2|2,0:0|0:0|0:0,0:0:0:0:
224,212,249554,6,0,P|193:195|172:168,1,70,12|2,0:0|0:0,0:0:0:0:
256,128,249887,2,0,P|290:122|323:132,1,70,12|2,0:0|0:0,0:0:0:0:
328,137,250137,1,2,0:0:0:0:
332,141,250221,6,0,L|339:59,1,70,12|2,0:0|0:0,0:0:0:0:
420,112,250554,1,2,0:0:0:0:
400,200,250721,2,0,L|405:269,1,70,12|2,0:0|0:0,0:0:0:0:
488,229,251054,1,2,0:0:0:0:
480,320,251221,6,0,P|472:363|452:391,2,70,12|2|2,0:0|0:0|0:0,0:0:0:0:
405,269,251721,2,0,P|363:284|329:280,2,70,12|2|2,0:0|0:0|0:0,0:0:0:0:
488,229,252221,2,0,P|504:184|460:88,1,140,12|12,0:0|0:0,0:0:0:0:
388,72,252720,1,2,0:0:0:0:
384,76,252804,1,2,0:0:0:0:
380,80,252887,6,0,L|280:64,1,70,12|2,0:0|0:0,0:0:0:0:
220,52,253221,1,2,0:0:0:0:
168,128,253387,2,0,L|178:228,1,70,12|2,0:0|0:0,0:0:0:0:
182,289,253721,1,2,0:0:0:0:
116,352,253887,2,0,L|36:332,1,70,12|2,0:0|0:0,0:0:0:0:
182,289,254221,6,0,L|232:284,3,35,2|2|2|2,0:0|0:0|0:0|0:0,0:0:0:0:
248,304,254554,2,0,L|288:274,3,35,2|2|2|2,0:0|0:0|0:0|0:0,0:0:0:0:
312,283,254887,2,0,L|332:237,3,35,2|2|2|2,0:0|0:0|0:0|0:0,0:0:0:0:
357,233,255221,2,0,L|352:183,3,35,2|2|2|2,0:0|0:0|0:0|0:0,0:0:0:0:
360,164,255554,6,0,P|386:186|420:194,1,70,6|0,0:0|0:0,0:0:0:0:
492,136,255887,1,8,0:0:0:0:
468,48,256054,2,0,L|304:68,1,140,0|0,0:0|0:0,0:0:0:0:
256,120,256554,1,8,0:0:0:0:
200,46,256720,1,0,0:0:0:0:
120,88,256887,6,0,L|128:157,1,70,2|0,0:0|0:0,0:0:0:0:
200,216,257221,1,8,0:0:0:0:
148,292,257387,2,0,P|79:292|25:249,1,140,0|0,0:0|0:0,0:0:0:0:
0,160,257887,1,8,0:0:0:0:
22,69,258054,1,2,0:0:0:0:
24,63,258137,1,2,0:0:0:0:
26,57,258221,6,0,L|110:69,1,70,2|0,0:0|0:0,0:0:0:0:
176,20,258554,1,8,0:0:0:0:
228,96,258721,2,0,P|212:148|196:248,1,140,0|0,0:0|0:0,0:0:0:0:
184,324,259221,1,8,0:0:0:0:
267,365,259388,1,0,0:0:0:0:
331,298,259554,6,0,P|319:228|300:161,1,140,2|8,0:0|0:0,0:0:0:0:
348,84,260054,2,0,P|380:97|414:106,1,70,0|2,0:0|0:0,0:0:0:0:
504,84,260387,1,8,0:0:0:0:
508,80,260554,1,2,0:0:0:0:
508,172,260721,6,0,L|472:336,1,140,12|0,0:0|0:0,0:0:0:0:
416,376,261221,2,0,P|396:347|388:313,1,70,8|0,0:0|0:0,0:0:0:0:
400,224,261554,1,2,0:0:0:0:
328,169,261720,1,0,0:0:0:0:
244,203,261887,1,8,0:0:0:0:
232,291,262054,6,0,P|229:326|239:359,1,70,0|2,0:0|0:0,0:0:0:0:
148,360,262387,2,0,P|113:357|80:367,1,70,0|8,0:0|0:0,0:0:0:0:
79,275,262721,2,0,P|81:240|71:207,1,70,0|2,0:0|0:0,0:0:0:0:
163,206,263054,2,0,P|197:208|230:198,1,70,0|8,0:0|0:0,0:0:0:0:
288,124,263387,1,0,0:0:0:0:
372,160,263554,6,0,P|396:196|368:296,2,140,6|8|2,0:0|0:0|0:0,0:0:0:0:
288,124,264387,1,2,0:0:0:0:
312,36,264554,2,0,L|388:44,1,70,12|2,0:0|0:0,0:0:0:0:
288,123,264887,6,0,L|249:127,3,35,2|2|2|2,0:0|0:0|0:0|0:0,0:0:0:0:
224,104,265221,2,0,L|187:117,3,35,2|0|0|2,0:0|0:0|0:0|0:0,0:0:0:0:
157,102,265554,2,0,L|125:124,3,35,2|2|2|2,0:0|0:0|0:0|0:0,0:0:0:0:
91,117,265887,2,0,L|66:147,3,35,2|2|2|2,0:0|0:0|0:0|0:0,0:0:0:0:
40,164,266221,6,0,P|52:208|56:244,1,70,12|2,0:0|0:0,0:0:0:0:
12,312,266554,1,2,0:0:0:0:
104,320,266721,2,0,P|172:308|252:304,1,140,12|2,0:0|0:0,0:0:0:0:
300,376,267221,6,0,P|328:336|336:300,1,70,12|2,0:0|0:0,0:0:0:0:
320,224,267554,1,2,0:0:0:0:
228,224,267721,2,0,P|159:209|93:186,1,140,12|2,0:0|0:0,0:0:0:0:
148,112,268221,6,0,P|164:80|172:44,1,70,12|2,0:0|0:0,0:0:0:0:
80,48,268554,1,12,0:0:0:0:
16,114,268721,1,2,0:0:0:0:
12,118,268804,1,2,0:0:0:0:
8,122,268887,6,0,P|6:156|14:191,1,70,12|2,0:0|0:0,0:0:0:0:
48,276,269221,1,2,0:0:0:0:
120,220,269387,2,0,P|154:218|189:226,1,70,12|2,0:0|0:0,0:0:0:0:
274,260,269721,1,2,0:0:0:0:
340,196,269887,6,0,P|360:144|316:64,1,140,12|2,0:0|0:0,0:0:0:0:
240,40,270387,2,0,P|189:62|163:150,1,140,12|2,0:0|0:0,0:0:0:0:
176,228,270887,6,0,L|160:268,3,35,2|2|2|2,0:0|0:0|0:0|0:0,0:0:0:0:
140,288,271221,2,0,L|156:328,3,35,2|0|0|2,0:0|0:0|0:0|0:0,0:0:0:0:
167,352,271554,6,0,P|200:338|234:332,1,70,12|2,0:0|0:0,0:0:0:0:
320,364,271887,1,2,0:0:0:0:
396,316,272054,2,0,P|420:256|364:188,1,140,12|2,0:0|0:0,0:0:0:0:
344,112,272554,6,0,P|375:112|414:89,1,70,12|2,0:0|0:0,0:0:0:0:
352,24,272887,1,2,0:0:0:0:
260,32,273054,2,0,L|248:180,1,140,12|2,0:0|0:0,0:0:0:0:
180,232,273554,6,0,L|120:240,2,46.6666666666667,8|8|8,0:3|0:3|0:3,0:0:0:0:
236,280,273887,2,0,L|296:272,2,46.6666666666667,4|4|4,0:3|0:3|0:3,0:0:0:0:
200,344,274220,1,4,0:0:0:0:
256,192,274304,12,0,276054,0:0:0:0:
252,144,276387,5,2,0:0:0:0:
252,152,276471,1,2,0:0:0:0:
252,160,276554,2,0,L|252:232,1,52.5000020027161,6|2,0:0|0:0,0:0:0:0:
304,288,276887,6,0,P|364:255|389:191,1,140,12|2,0:0|0:0,0:0:0:0:
360,104,277387,2,0,P|296:79|262:18,1,140,12|2,0:0|0:0,0:0:0:0:
176,0,277887,6,0,L|96:20,1,70,12|2,0:0|0:0,0:0:0:0:
20,40,278221,1,2,0:0:0:0:
7,131,278387,2,0,P|68:164|133:145,1,140,12|2,0:0|0:0,0:0:0:0:
204,88,278887,5,12,0:0:0:0:
208,92,279054,1,2,0:0:0:0:
265,162,279220,1,12,0:0:0:0:
269,166,279387,1,2,0:0:0:0:
199,223,279554,6,0,P|189:266|200:300,1,70,12|2,0:0|0:0,0:0:0:0:
260,356,279887,1,2,0:0:0:0:
348,328,280054,2,0,P|338:285|349:251,1,70,12|2,0:0|0:0,0:0:0:0:
409,195,280387,1,2,0:0:0:0:
344,128,280554,6,0,L|272:140,2,70,12|2|2,0:0|0:0|0:0,0:0:0:0:
400,56,281054,2,0,L|472:44,2,70,12|2|2,0:0|0:0|0:0,0:0:0:0:
324,4,281554,5,12,0:0:0:0:
320,8,281721,1,2,0:0:0:0:
244,56,281887,2,0,L|209:50,3,35,12|0|2|0,0:0|0:0|0:0|0:0,0:0:0:0:
180,32,282221,6,0,L|164:112,1,70,12|2,0:0|0:0,0:0:0:0:
76,120,282554,1,2,0:0:0:0:
88,212,282721,2,0,L|168:196,1,70,12|2,0:0|0:0,0:0:0:0:
228,256,283054,1,2,0:0:0:0:
152,304,283221,6,0,P|149:338|164:369,1,70,12|2,0:0|0:0,0:0:0:0:
256,384,283554,1,2,0:0:0:0:
324,320,283721,2,0,P|391:307|450:342,1,140,12|2,0:0|0:0,0:0:0:0:
512,276,284221,6,0,L|504:196,1,70,12|2,0:0|0:0,0:0:0:0:
501,202,284471,1,2,0:0:0:0:
497,198,284554,2,0,L|423:164,1,70,12|2,0:0|0:0,0:0:0:0:
360,111,284887,6,0,P|346:143|343:178,2,70,12|2|2,0:0|0:0|0:0,0:0:0:0:
304,40,285387,2,0,P|256:20|160:60,1,140,12|2,0:0|0:0,0:0:0:0:
108,104,285887,1,12,0:0:0:0:
104,108,286054,1,2,0:0:0:0:
172,168,286221,6,0,L|168:216,3,35,2|2|2|2,0:0|0:0|0:0|0:0,0:0:0:0:
148,232,286554,2,0,L|179:268,3,35,2|2|2|2,0:0|0:0|0:0|0:0,0:0:0:0:
176,294,286887,2,0,L|223:298,3,35,2|2|2|2,0:0|0:0|0:0|0:0,0:0:0:0:
240,318,287221,2,0,L|276:286,3,35,2|0|0|2,0:0|0:0|0:0|0:0,0:0:0:0:
292,272,287554,6,0,P|317:335|378:367,1,140,12|2,0:0|0:0,0:0:0:0:
448,308,288054,2,0,P|427:242|454:179,1,140,12|2,0:0|0:0,0:0:0:0:
492,96,288554,6,0,L|400:80,1,70,12|2,0:0|0:0,0:0:0:0:
332,68,288887,1,2,0:0:0:0:
328,160,289054,2,0,P|289:216|221:227,1,140,12|2,0:0|0:0,0:0:0:0:
148,172,289554,5,12,0:0:0:0:
80,232,289721,1,2,0:0:0:0:
76,236,289804,1,2,0:0:0:0:
72,240,289887,2,0,L|80:320,1,70,12|2,0:0|0:0,0:0:0:0:
184,332,290221,6,0,P|218:320|259:312,1,70,12|2,0:0|0:0,0:0:0:0:
344,324,290554,1,2,0:0:0:0:
392,244,290721,2,0,P|385:208|371:169,1,70,12|2,0:0|0:0,0:0:0:0:
308,112,291054,1,2,0:0:0:0:
372,44,291221,6,0,L|448:56,2,70,12|2|2,0:0|0:0|0:0,0:0:0:0:
308,112,291721,2,0,L|232:100,1,70,12|2,0:0|0:0,0:0:0:0:
160,148,292054,1,2,0:0:0:0:
220,216,292221,6,0,P|228:249|222:283,1,70,12|2,0:0|0:0,0:0:0:0:
148,336,292554,1,12,0:0:0:0:
68,264,292721,1,2,0:0:0:0:
72,260,292804,1,2,0:0:0:0:
76,256,292887,6,0,L|172:244,2,70,12|0|0,0:0|0:0|0:0,0:0:0:0:
28,180,293387,2,0,P|20:128|32:88,1,70,12|0,0:0|0:0,0:0:0:0:
88,48,293721,1,0,0:0:0:0:
160,104,293887,6,0,P|194:103|227:91,1,70,12|0,0:0|0:0,0:0:0:0:
296,32,294221,1,0,0:0:0:0:
360,96,294387,2,0,L|340:244,1,140,12|0,0:0|0:0,0:0:0:0:
256,272,294887,5,12,0:0:0:0:
252,276,295054,1,2,0:0:0:0:
300,356,295221,2,0,L|384:344,1,70,12|2,0:0|0:0,0:0:0:0:
373,350,295471,1,2,0:0:0:0:
377,354,295554,6,0,L|391:270,1,70,12|2,0:0|0:0,0:0:0:0:
404,196,295887,1,2,0:0:0:0:
312,212,296054,2,0,P|272:220|232:212,1,70,12|2,0:0|0:0,0:0:0:0:
168,164,296387,1,2,0:0:0:0:
88,212,296554,6,0,P|84:246|91:280,1,70,12|2,0:0|0:0,0:0:0:0:
152,352,296887,1,2,0:0:0:0:
220,288,297054,2,0,L|304:304,1,70,12|2,0:0|0:0,0:0:0:0:
380,320,297387,1,2,0:0:0:0:
368,228,297554,6,0,P|365:193|380:162,1,70,12|2,0:0|0:0,0:0:0:0:
456,216,297887,1,2,0:0:0:0:
457,224,297970,1,2,0:0:0:0:
459,233,298053,1,2,0:0:0:0:
460,241,298136,1,2,0:0:0:0:
462,250,298220,1,4,0:0:0:0:
256,192,298304,12,0,303554,0:0:0:0:
