osu file format v14

[General]
AudioFilename: audio.mp3
AudioLeadIn: 0
PreviewTime: 244137
Countdown: 0
SampleSet: Soft
StackLeniency: 0.4
Mode: 0
LetterboxInBreaks: 0
WidescreenStoryboard: 0

[Editor]
Bookmarks: 11554
DistanceSpacing: 1
BeatDivisor: 4
GridSize: 4
TimelineZoom: 1.6

[Metadata]
Title:Neo-Aspect
TitleUnicode:Neo-Aspect
Artist:Roselia
ArtistUnicode:Roselia
Creator:Doormat
Version:Anfang
Source:バンドリ! ガールズバンドパーティ!
Tags:Kalibe CLSW Crystal BanG Dream! Girls Band Party bandori garupa ガルパ ロゼリア full size minato yukina 湊友希那 aiba aina 相羽あいな hikawa sayo 氷川紗夜 kudou haruka 工藤晴香 imai lisa 今井リサ endou yurika 遠藤ゆりか nakashima yuki 中島由貴 udagawa ako 宇田川あこ sakuragawa megu 櫻川めぐ shirokane rinko 白金燐子 akesaka satomi 明坂聡美
BeatmapID:1680755
BeatmapSetID:800589

[Difficulty]
HPDrainRate:5.5
CircleSize:4
OverallDifficulty:9
ApproachRate:9.3
SliderMultiplier:1.7
SliderTickRate:1

[Events]
//Background and Video events
0,0,"neo-aspect.jpg",0,0
//Break Periods
//Storyboard Layer 0 (Background)
//Storyboard Layer 1 (Fail)
//Storyboard Layer 2 (Pass)
//Storyboard Layer 3 (Foreground)
//Storyboard Sound Samples

[TimingPoints]
888,333.333333333333,4,2,2,50,1,0
888,-142.857142857143,4,2,2,50,0,0
11387,-100,4,2,1,60,0,0
12054,-66.6666666666667,4,2,1,80,0,0
12387,-100,4,2,1,60,0,0
13054,-57.1428571428571,4,2,1,80,0,0
13387,-100,4,2,1,60,0,0
13887,-66.6666666666667,4,2,1,80,0,0
14137,-66.6666666666667,4,2,1,5,0,0
14221,-100,4,2,1,60,0,0
14721,-66.6666666666667,4,2,1,80,0,0
15054,-100,4,2,1,60,0,0
15721,-57.1428571428571,4,2,1,80,0,0
16054,-100,4,2,1,60,0,0
16221,-100,4,2,1,70,0,0
16887,-100,4,2,1,80,0,0
27554,-200,4,2,1,50,0,0
27637,-200,4,2,1,5,0,0
30221,-200,4,2,2,50,0,0
31304,-200,4,2,2,5,0,0
32554,-200,4,2,2,50,0,0
33971,-200,4,2,2,5,0,0
35554,-200,4,2,2,50,0,0
37887,-133.333333333333,4,2,1,60,0,0
38137,-133.333333333333,4,2,1,5,0,0
38221,-100,4,2,1,70,0,0
48887,-142.857142857143,4,2,1,60,0,0
59554,-100,4,2,1,70,0,0
64887,-100,4,2,1,70,0,0
67554,-133.333333333333,4,2,1,80,0,0
67804,-133.333333333333,4,2,1,5,0,0
67887,-133.333333333333,4,2,1,80,0,0
68887,-133.333333333333,4,2,1,50,0,0
70221,-90.9090909090909,4,2,1,90,0,1
80137,-90.9090909090909,4,2,1,5,0,1
80221,-90.9090909090909,4,2,1,90,0,1
80804,-90.9090909090909,4,2,1,90,0,0
80887,-90.9090909090909,4,2,1,90,0,1
91471,-90.9090909090909,4,2,1,90,0,0
91554,-90.9090909090909,4,2,1,90,0,1
94221,-200,4,2,1,80,0,0
96054,-200,4,2,1,5,0,0
96387,-200,4,2,1,60,0,0
96804,-200,4,2,1,5,0,0
96887,-100,4,2,1,90,0,1
107554,-100,4,2,1,80,0,0
118221,-125,4,2,1,60,0,0
128221,-100,4,2,1,60,0,0
128887,-100,4,2,1,70,0,0
139554,-100,4,2,1,60,0,0
144887,-125,4,2,1,50,0,0
150221,-100,4,2,1,70,0,0
155554,-100,4,2,1,70,0,0
158221,-133.333333333333,4,2,1,80,0,0
158471,-133.333333333333,4,2,1,5,0,0
158554,-133.333333333333,4,2,1,80,0,0
159554,-100,4,2,1,80,0,0
160554,-250,4,2,1,60,0,0
160804,-250,4,2,1,5,0,0
160887,-90.9090909090909,4,2,1,90,0,1
170804,-90.9090909090909,4,2,1,5,0,1
170887,-90.9090909090909,4,2,1,90,0,1
171471,-90.9090909090909,4,2,1,90,0,0
171554,-90.9090909090909,4,2,1,90,0,1
182137,-90.9090909090909,4,2,1,90,0,0
182221,-90.9090909090909,4,2,1,90,0,1
184887,-100,4,2,1,80,0,0
186054,-100,4,2,1,5,0,0
187054,-200,4,2,1,60,0,0
187471,-200,4,2,1,5,0,0
187554,-133.333333333333,4,2,1,70,0,0
188554,-200,4,2,1,70,0,0
188637,-200,4,2,1,5,0,0
189554,-200,4,2,1,40,0,0
189887,-200,4,2,1,70,0,0
190304,-200,4,2,1,5,0,0
191554,-200,4,2,1,70,0,0
192887,-133.333333333333,4,2,1,70,0,0
193887,-200,4,2,1,70,0,0
193971,-200,4,2,1,5,0,0
195054,-200,4,2,1,70,0,0
195554,-133.333333333333,4,2,1,70,0,0
198221,-100,4,2,1,70,0,0
206221,-133.333333333333,4,2,1,70,0,0
206471,-133.333333333333,4,2,1,5,0,0
206554,-133.333333333333,4,2,1,70,0,0
207554,-100,4,2,1,70,0,0
208887,-100,4,2,1,80,0,1
221554,-100,4,2,1,70,0,1
221887,-100,4,2,1,60,0,1
222221,-166.666666666667,4,2,2,50,0,0
223304,-166.666666666667,4,2,2,5,0,0
224221,-166.666666666667,4,2,2,50,0,0
225971,-166.666666666667,4,2,2,5,0,0
226887,-166.666666666667,4,2,2,50,0,0
232221,-125,4,2,2,50,0,0
232887,-125,4,2,1,60,0,0
239887,-125,4,2,1,65,0,0
240221,-125,4,2,1,70,0,0
240554,-125,4,2,1,75,0,0
240887,-125,4,2,1,80,0,0
242221,-125,4,2,1,50,0,0
244554,-125,4,2,1,5,0,0
244887,-90.9090909090909,4,2,1,90,0,1
255471,-90.9090909090909,4,2,1,90,0,0
255554,-90.9090909090909,4,2,1,90,0,1
266137,-90.9090909090909,4,2,1,90,0,0
266221,-90.9090909090909,4,2,1,90,0,1
271471,-90.9090909090909,4,2,1,90,0,0
271554,-90.9090909090909,4,2,1,90,0,1
274221,-133.333333333333,4,2,1,80,0,0
276054,-133.333333333333,4,2,1,5,0,0
276387,-133.333333333333,4,2,1,90,0,0
276887,-90.9090909090909,4,2,1,90,0,1
287471,-90.9090909090909,4,2,1,90,0,0
287554,-90.9090909090909,4,2,1,90,0,1
295554,-90.9090909090909,4,2,1,100,0,1
296054,-83.3333333333333,4,2,1,100,0,1
296554,-76.9230769230769,4,2,1,100,0,1
297054,-71.4285714285714,4,2,1,100,0,1
297554,-66.6666666666667,4,2,1,100,0,1
298221,-100,4,2,1,60,0,0
298304,-100,4,2,1,30,0,0
303554,-100,4,2,1,10,0,0

[Colours]
Combo1 : 4,45,155
Combo2 : 165,175,235
Combo3 : 55,110,250
Combo4 : 135,35,175

[HitObjects]
144,160,888,6,0,L|156:244,1,59.4999981842042,0|0,0:0|0:0,0:0:0:0:
240,132,1221,2,0,L|229:216,1,59.4999981842042,0|0,0:0|0:0,0:0:0:0:
324,164,1554,2,0,L|336:248,1,59.4999981842042,0|0,0:0|0:0,0:0:0:0:
420,136,1887,2,0,L|409:220,1,59.4999981842042,0|0,0:0|0:0,0:0:0:0:
404,332,2221,6,0,L|393:247,1,59.4999981842042,0|0,0:0|0:0,0:0:0:0:
308,304,2554,2,0,L|320:220,1,59.4999981842042,0|0,0:0|0:0,0:0:0:0:
224,336,2888,2,0,L|213:251,1,59.4999981842042,0|0,0:0|0:0,0:0:0:0:
128,308,3221,2,0,L|140:224,1,59.4999981842042,0|0,0:0|0:0,0:0:0:0:
308,304,3554,6,0,P|312:344|328:376,1,59.4999981842042,0|0,0:0|0:0,0:0:0:0:
376,256,3887,2,0,P|399:288|429:308,1,59.4999981842042,0|0,0:0|0:0,0:0:0:0:
410,180,4221,2,0,P|446:196|482:198,1,59.4999981842042,0|0,0:0|0:0,0:0:0:0:
402,97,4554,2,0,P|442:92|474:77,1,59.4999981842042,0|0,0:0|0:0,0:0:0:0:
244,72,4887,6,0,P|207:55|171:53,1,59.4999981842042,0|0,0:0|0:0,0:0:0:0:
251,154,5220,2,0,P|211:158|179:174,1,59.4999981842042,0|0,0:0|0:0,0:0:0:0:
300,222,5554,2,0,P|267:245|247:275,1,59.4999981842042,0|0,0:0|0:0,0:0:0:0:
376,256,5887,2,0,P|359:292|357:328,1,59.4999981842042,0|0,0:0|0:0,0:0:0:0:
220,376,6221,6,0,L|156:356,1,59.4999981842042,0|0,0:0|0:0,0:0:0:0:
299,328,6554,2,0,L|363:308,1,59.4999981842042,0|0,0:0|0:0,0:0:0:0:
220,284,6887,2,0,L|163:266,1,59.4999981842042,0|0,0:0|0:0,0:0:0:0:
299,236,7221,2,0,L|355:218,1,59.4999981842042,0|0,0:0|0:0,0:0:0:0:
163,170,7554,6,0,L|99:190,1,59.4999981842042,0|0,0:0|0:0,0:0:0:0:
242,218,7887,2,0,L|306:238,1,59.4999981842042,0|0,0:0|0:0,0:0:0:0:
163,262,8220,2,0,L|106:280,1,59.4999981842042,0|0,0:0|0:0,0:0:0:0:
242,310,8554,2,0,L|298:328,1,59.4999981842042,0|0,0:0|0:0,0:0:0:0:
395,195,8887,6,0,P|396:165|387:137,1,59.4999981842042,0|0,0:0|0:0,0:0:0:0:
291,185,9221,2,0,P|289:214|298:242,1,59.4999981842042,0|0,0:0|0:0,0:0:0:0:
192,236,9554,2,0,P|193:206|184:178,1,59.4999981842042,0|0,0:0|0:0,0:0:0:0:
88,227,9888,2,0,P|86:256|95:284,1,59.4999981842042,0|0,0:0|0:0,0:0:0:0:
298,242,10221,1,0,0:0:0:0:
193,236,10387,5,2,0:0:0:0:
345,339,10554,1,2,0:0:0:0:
356,155,10721,1,2,0:0:0:0:
238,331,10887,5,2,0:0:0:0:
403,251,11054,1,2,0:0:0:0:
252,147,11221,1,2,0:0:0:0:
404,380,11387,5,2,0:0:0:0:
404,380,11471,1,2,0:0:0:0:
404,380,11554,1,2,0:0:0:0:
439,130,11721,1,2,0:0:0:0:
439,130,12054,6,0,B|383:146|383:146|339:130|339:130|287:154|287:154|163:114,1,255.000009727478,0|2,1:0|0:0,0:0:0:0:
195,121,12471,1,0,0:0:0:0:
191,117,12554,1,0,0:0:0:0:
384,356,12721,1,2,0:0:0:0:
384,356,13054,6,0,B|476:256|432:206|432:206|392:252|484:324,1,297.500002837181,0|2,1:0|0:0,0:0:0:0:
212,236,13554,1,2,0:0:0:0:
215,257,13637,1,2,0:0:0:0:
230,278,13720,1,2,0:0:0:0:
233,299,13804,1,2,0:0:0:0:
224,320,13887,6,0,B|236:250|236:250|211:200|211:200|224:134,1,191.250007295609,0|0,1:0|0:0,0:0:0:0:
240,108,14221,5,2,0:0:0:0:
39,271,14387,1,2,0:0:0:0:
39,271,14721,6,0,B|77:268|97:252|97:252|136:278|136:278|162:256|193:255|193:255|222:283|272:273,1,255.000009727478,0|2,1:0|0:0,0:0:0:0:
276,269,15137,1,2,0:0:0:0:
280,265,15221,1,2,0:0:0:0:
124,56,15387,1,2,0:0:0:0:
124,56,15721,6,0,B|160:48|194:65|194:65|168:-4|69:-8|12:28|-10:95,1,297.500002837181,0|2,1:0|0:0,0:0:0:0:
316,196,16221,2,0,L|320:135,1,42.5,4|0,0:0|0:0,0:0:0:0:
80,147,16387,5,2,0:0:0:0:
81,168,16470,1,2,0:0:0:0:
83,189,16553,1,2,0:0:0:0:
84,210,16636,1,2,0:0:0:0:
85,232,16720,1,2,0:0:0:0:
86,253,16803,1,2,0:0:0:0:
88,274,16887,6,0,L|183:252,1,85,12|0,0:0|0:0,0:0:0:0:
319,356,17221,1,2,0:0:0:0:
401,172,17387,6,0,L|306:150,1,85,12|0,0:0|0:0,0:0:0:0:
170,254,17721,1,2,0:0:0:0:
416,384,17887,6,0,L|424:280,1,85,12|0,0:0|0:0,0:0:0:0:
320,152,18221,1,2,0:0:0:0:
72,160,18387,6,0,L|80:263,1,85,12|0,0:0|0:0,0:0:0:0:
203,374,18721,1,2,0:0:0:0:
204,92,18887,5,12,0:0:0:0:
140,312,19054,1,2,0:0:0:0:
436,324,19221,5,12,0:0:0:0:
364,52,19387,1,2,0:0:0:0:
364,52,19471,1,2,0:0:0:0:
364,52,19554,6,0,L|264:64,1,85,12|0,0:0|0:0,0:0:0:0:
392,204,19887,1,2,0:0:0:0:
157,155,20054,6,0,L|72:144,1,85,12|0,0:0|0:0,0:0:0:0:
140,312,20387,1,2,0:0:0:0:
272,80,20554,6,0,L|258:163,1,85,12|0,0:0|0:0,0:0:0:0:
431,71,20887,1,2,0:0:0:0:
464,288,21054,6,0,L|477:371,1,85,12|0,0:0|0:0,0:0:0:0:
304,280,21387,1,2,0:0:0:0:
264,48,21554,5,12,0:0:0:0:
386,232,21721,1,2,0:0:0:0:
132,281,21888,5,2,0:0:0:0:
132,269,21971,1,2,0:0:0:0:
133,257,22054,1,2,0:0:0:0:
133,245,22137,1,2,0:0:0:0:
134,233,22221,5,12,0:0:0:0:
20,384,22387,1,2,0:0:0:0:
0,196,22554,1,2,0:0:0:0:
264,268,22721,5,12,0:0:0:0:
116,52,22887,1,2,0:0:0:0:
8,292,23054,1,2,0:0:0:0:
260,96,23221,5,12,0:0:0:0:
140,240,23387,1,2,0:0:0:0:
116,52,23554,1,2,0:0:0:0:
356,56,23721,5,12,0:0:0:0:
112,148,23887,1,2,0:0:0:0:
320,308,24054,1,2,0:0:0:0:
84,28,24221,5,12,0:0:0:0:
96,256,24387,1,2,0:0:0:0:
332,80,24554,5,12,0:0:0:0:
320,308,24721,1,2,0:0:0:0:
320,308,24804,1,2,0:0:0:0:
320,308,24887,5,12,0:0:0:0:
436,148,25054,1,2,0:0:0:0:
469,343,25221,1,2,0:0:0:0:
256,80,25387,5,12,0:0:0:0:
252,376,25554,1,2,0:0:0:0:
512,232,25721,1,2,0:0:0:0:
176,236,25887,5,12,0:0:0:0:
376,220,26054,1,2,0:0:0:0:
252,376,26221,1,2,0:0:0:0:
200,92,26387,5,12,0:0:0:0:
100,372,26554,1,2,0:0:0:0:
392,320,26721,1,2,0:0:0:0:
148,27,26887,5,2,0:0:0:0:
165,16,26970,1,2,0:0:0:0:
185,9,27053,1,2,0:0:0:0:
206,8,27136,1,2,0:0:0:0:
227,12,27220,1,2,0:0:0:0:
246,22,27303,1,2,0:0:0:0:
262,36,27386,1,2,0:0:0:0:
273,54,27470,1,2,0:0:0:0:
279,74,27554,6,0,B|215:183|215:183|284:164|343:205|343:205|372:295|299:351|299:351|219:338|211:272,1,552.5,6|0,0:0|0:0,0:0:0:0:
211,273,30221,6,0,L|115:289,1,85,2|0,0:0|0:0,0:0:0:0:
203,376,30720,2,0,L|299:360,1,85,2|0,0:0|0:0,0:0:0:0:
392,192,31221,2,0,P|284:142|319:255,1,297.5,2|0,0:0|0:0,0:0:0:0:
408,304,32554,5,0,0:0:0:0:
407,308,32637,1,0,0:0:0:0:
406,312,32721,1,0,0:0:0:0:
405,317,32804,1,0,0:0:0:0:
404,321,32887,6,0,P|327:329|300:336,1,85,2|0,0:0|0:0,0:0:0:0:
231,250,33387,2,0,P|273:246|314:237,1,85,2|0,0:0|0:0,0:0:0:0:
152,116,33887,2,0,B|153:221|60:300|60:300|132:300|188:348,1,340,2|0,0:0|0:0,0:0:0:0:
178,340,35554,6,0,P|217:324|259:324,1,85,2|0,0:0|0:0,0:0:0:0:
299,203,36054,2,0,P|257:196|220:175,1,85,2|0,0:0|0:0,0:0:0:0:
402,146,36554,6,0,L|409:230,1,85,2|0,0:0|0:0,0:0:0:0:
306,287,37054,2,0,L|299:203,1,85,2|0,0:0|0:0,0:0:0:0:
395,67,37554,6,0,P|431:75|455:75,1,42.5,2|0,0:0|0:0,0:0:0:0:
299,202,37887,6,0,P|255:187|203:187,1,95.6250036478044,4|0,0:3|0:0,0:0:0:0:
179,175,38221,6,0,L|353:157,1,170,6|8,0:0|0:0,0:0:0:0:
240,309,38721,1,0,0:0:0:0:
329,76,38887,1,2,0:0:0:0:
364,243,39054,1,0,0:0:0:0:
200,54,39220,1,2,0:0:0:0:
240,309,39387,1,8,0:0:0:0:
136,188,39554,6,0,L|310:162,1,170,2|8,0:0|0:0,0:0:0:0:
385,288,40054,1,0,0:0:0:0:
260,384,40221,2,0,L|150:360,1,85,2|0,0:0|0:0,0:0:0:0:
304,163,40554,1,8,0:0:0:0:
388,324,40721,1,2,0:0:0:0:
388,324,40804,1,2,0:0:0:0:
388,324,40887,6,0,L|471:306,1,85,2|0,0:0|0:0,0:0:0:0:
432,120,41221,2,0,P|346:93|262:152,1,170,8|2,0:0|0:0,0:0:0:0:
189,264,41721,1,2,0:0:0:0:
361,208,41887,1,0,0:0:0:0:
288,0,42054,1,8,0:0:0:0:
116,56,42221,6,0,L|100:232,1,170,2|8,0:0|0:0,0:0:0:0:
212,344,42721,1,0,0:0:0:0:
288,176,42887,2,0,L|232:168,1,42.5,2|0,0:0|0:0,0:0:0:0:
212,344,43054,5,2,0:0:0:0:
230,331,43137,1,2,0:0:0:0:
249,322,43221,1,2,0:0:0:0:
269,316,43305,1,2,0:0:0:0:
290,313,43388,1,2,0:0:0:0:
311,315,43471,1,2,0:0:0:0:
333,320,43554,6,0,P|408:357|509:340,1,170,6|8,0:0|0:0,0:0:0:0:
385,192,44054,1,0,0:0:0:0:
199,260,44221,2,0,L|215:360,1,85,2|0,0:0|0:0,0:0:0:0:
385,192,44554,1,2,0:0:0:0:
141,88,44721,1,8,0:0:0:0:
327,20,44887,6,0,L|295:220,1,170,0|8,0:0|0:0,0:0:0:0:
504,296,45387,1,0,0:0:0:0:
488,80,45554,1,2,0:0:0:0:
277,265,45721,1,0,0:0:0:0:
259,40,45887,2,0,L|344:31,1,85,8|0,0:0|0:0,0:0:0:0:
277,265,46221,6,0,P|246:256|175:256,1,85,6|0,0:0|0:0,0:0:0:0:
378,124,46554,2,0,P|390:164|410:201,1,85,8|0,0:0|0:0,0:0:0:0:
207,106,46887,1,2,0:0:0:0:
207,106,47054,2,0,P|236:76|259:40,1,85,2|0,0:0|0:0,0:0:0:0:
0,176,47387,6,0,L|36:364,1,170,8|2,0:0|0:0,0:0:0:0:
216,276,47887,2,0,L|232:176,1,85,12|0,0:0|0:0,0:0:0:0:
31,342,48221,5,2,0:0:0:0:
60,332,48304,1,2,0:0:0:0:
91,329,48387,1,2,0:0:0:0:
122,337,48471,1,2,0:0:0:0:
149,354,48554,1,2,0:0:0:0:
175,371,48637,1,2,0:0:0:0:
205,379,48721,1,2,0:0:0:0:
238,378,48804,1,2,0:0:0:0:
266,367,48887,6,0,L|328:356,1,59.4999981842042,6|0,0:0|0:0,0:0:0:0:
260,228,49221,2,0,L|198:216,1,59.4999981842042,8|0,0:0|0:0,0:0:0:0:
328,116,49554,1,2,0:0:0:0:
328,116,49721,1,2,0:0:0:0:
328,116,50054,6,0,L|336:252,1,118.999996368408,8|2,0:0|0:0,0:0:0:0:
432,140,50554,2,0,P|436:96|428:76,1,59.4999981842042,8|0,0:0|0:0,0:0:0:0:
351,10,50887,1,2,0:0:0:0:
328,116,51054,1,2,0:0:0:0:
431,82,51221,1,8,0:0:0:0:
248,44,51387,1,2,0:0:0:0:
248,44,51471,1,2,0:0:0:0:
248,44,51554,6,0,L|168:36,1,59.4999981842042,6|0,0:0|0:0,0:0:0:0:
224,176,51887,2,0,L|283:181,1,59.4999981842042,8|0,0:0|0:0,0:0:0:0:
168,284,52221,1,2,0:0:0:0:
168,284,52387,1,2,0:0:0:0:
168,284,52721,6,0,P|192:240|164:156,1,118.999996368408,8|2,0:0|0:0,0:0:0:0:
320,148,53221,2,0,L|328:232,1,59.4999981842042,8|0,0:0|0:0,0:0:0:0:
180,144,53554,6,0,L|184:98,1,29.7499990921021,2|2,0:0|0:0,0:0:0:0:
296,40,53721,1,2,0:0:0:0:
325,38,53804,1,2,0:0:0:0:
354,45,53887,1,2,0:0:0:0:
379,60,53971,1,2,0:0:0:0:
399,82,54054,1,2,0:0:0:0:
412,109,54137,1,2,0:0:0:0:
416,138,54221,6,0,P|400:190|384:274,1,118.999996368408,6|8,0:0|0:0,0:0:0:0:
284,324,54721,1,0,0:0:0:0:
244,208,54887,1,2,0:0:0:0:
244,208,55054,2,0,L|308:200,1,59.4999981842042,2|0,0:0|0:0,0:0:0:0:
284,324,55387,6,0,P|236:316|148:308,1,118.999996368408,8|2,0:0|0:0,0:0:0:0:
168,184,55887,2,0,L|228:179,1,59.4999981842042,8|0,0:0|0:0,0:0:0:0:
340,228,56221,1,2,0:0:0:0:
340,228,56387,1,2,0:0:0:0:
392,96,56554,2,0,L|332:90,1,59.4999981842042,8|0,0:0|0:0,0:0:0:0:
340,228,56887,6,0,P|340:271|356:311,1,59.4999981842042,6|0,0:0|0:0,0:0:0:0:
231,237,57221,2,0,P|231:194|215:154,1,59.4999981842042,8|0,0:0|0:0,0:0:0:0:
128,264,57554,1,2,0:0:0:0:
128,264,57721,1,2,0:0:0:0:
128,264,58054,6,0,L|272:276,1,118.999996368408,8|2,0:0|0:0,0:0:0:0:
328,156,58554,2,0,L|264:148,1,59.4999981842042,8|8,0:0|3:0,0:0:0:0:
268,148,58804,1,8,0:3:0:0:
268,148,58887,1,8,0:3:0:0:
336,280,59054,1,4,0:3:0:0:
452,148,59221,2,0,L|516:156,1,59.4999981842042,4|0,0:0|0:0,0:0:0:0:
336,280,59554,6,0,P|266:327|185:310,1,170,6|8,0:0|0:0,0:0:0:0:
299,187,60054,1,0,0:0:0:0:
436,284,60221,2,0,L|520:272,1,85,2|0,0:0|0:0,0:0:0:0:
299,187,60554,6,0,P|229:234|148:217,1,170,8|2,0:0|0:0,0:0:0:0:
262,94,61054,1,0,0:0:0:0:
399,191,61221,2,0,L|483:179,1,85,8|0,0:0|0:0,0:0:0:0:
312,292,61554,5,2,0:0:0:0:
262,94,61721,1,0,0:0:0:0:
76,176,61887,2,0,L|94:258,1,85,8|0,0:0|0:0,0:0:0:0:
312,292,62221,6,0,P|379:271|491:255,1,170,6|8,0:0|0:0,0:0:0:0:
369,381,62721,1,0,0:0:0:0:
211,271,62887,2,0,L|223:183,1,85,2|0,0:0|0:0,0:0:0:0:
477,255,63221,2,0,L|488:339,1,85,8|0,0:0|0:0,0:0:0:0:
292,140,63554,5,10,0:0:0:0:
508,68,63721,1,2,0:0:0:0:
264,12,63887,5,10,0:0:0:0:
352,248,64054,1,2,0:0:0:0:
108,296,64221,5,2,0:0:0:0:
89,277,64304,1,2,0:0:0:0:
75,254,64387,1,2,0:0:0:0:
68,228,64471,1,2,0:0:0:0:
68,202,64554,1,2,0:0:0:0:
74,176,64637,1,2,0:0:0:0:
87,153,64721,1,2,0:0:0:0:
105,134,64804,1,2,0:0:0:0:
127,120,64887,6,0,L|231:132,1,85,12|0,0:0|0:0,0:0:0:0:
328,238,65220,1,2,0:0:0:0:
444,32,65387,6,0,L|340:20,1,85,12|0,0:0|0:0,0:0:0:0:
211,129,65721,1,2,0:0:0:0:
428,274,65887,6,0,P|432:222|400:166,1,85,12|0,0:0|0:0,0:0:0:0:
232,248,66221,1,2,0:0:0:0:
92,92,66387,6,0,P|88:40|120:-16,1,85,12|0,0:0|0:0,0:0:0:0:
300,64,66721,1,2,0:0:0:0:
72,224,66887,5,12,0:0:0:0:
336,252,67054,1,2,0:0:0:0:
120,76,67221,5,12,0:0:0:0:
56,344,67387,1,2,0:0:0:0:
56,344,67471,1,2,0:0:0:0:
56,344,67554,6,0,L|172:336,1,95.6250036478044,6|0,0:0|0:0,0:0:0:0:
176,344,67887,1,2,0:0:0:0:
108,188,68054,1,2,0:0:0:0:
308,236,68221,1,2,0:0:0:0:
328,68,68387,1,2,0:0:0:0:
168,256,68554,1,2,0:0:0:0:
368,384,68721,1,2,0:0:0:0:
440,120,68887,5,0,0:0:0:0:
431,121,69054,1,0,0:0:0:0:
423,123,69221,1,0,0:0:0:0:
415,124,69387,1,0,0:0:0:0:
415,124,70221,6,0,L|515:108,1,93.5000028533936,12|0,0:0|0:0,0:0:0:0:
411,288,70554,1,2,0:0:0:0:
209,105,70721,6,0,L|109:89,1,93.5000028533936,12|0,0:0|0:0,0:0:0:0:
213,269,71054,1,2,0:0:0:0:
482,146,71221,6,0,L|492:240,1,93.5000028533936,12|0,0:0|0:0,0:0:0:0:
400,384,71554,1,2,0:0:0:0:
213,269,71721,6,0,L|203:176,1,93.5000028533936,12|0,0:0|0:0,0:0:0:0:
295,31,72054,1,2,0:0:0:0:
368,300,72221,5,12,0:0:0:0:
120,156,72387,1,2,0:0:0:0:
432,84,72554,5,12,0:0:0:0:
213,269,72721,1,2,0:0:0:0:
213,269,72804,1,2,0:0:0:0:
213,269,72887,5,12,0:0:0:0:
444,180,73054,1,0,0:0:0:0:
192,104,73221,1,2,0:0:0:0:
448,364,73387,6,0,L|456:256,1,93.5000028533936,12|0,0:0|0:0,0:0:0:0:
368,112,73721,1,2,0:0:0:0:
256,336,73887,5,12,0:0:0:0:
280,84,74054,1,0,0:0:0:0:
454,270,74221,1,2,0:0:0:0:
124,384,74387,6,0,L|116:276,1,93.5000028533936,12|0,0:0|0:0,0:0:0:0:
176,124,74721,1,2,0:0:0:0:
288,352,74887,5,12,0:0:0:0:
36,220,75054,1,2,0:0:0:0:
268,24,75221,5,12,0:0:0:0:
152,312,75387,1,2,0:0:0:0:
152,312,75471,1,2,0:0:0:0:
152,312,75554,5,12,0:0:0:0:
132,48,75721,1,2,0:0:0:0:
348,200,75887,1,2,0:0:0:0:
36,260,76054,6,0,L|56:164,1,93.5000028533936,12|2,0:0|0:0,0:0:0:0:
208,248,76387,1,2,0:0:0:0:
256,8,76554,5,12,0:0:0:0:
55,168,76721,1,2,0:0:0:0:
292,268,76887,1,2,0:0:0:0:
40,28,77054,5,12,0:0:0:0:
272,136,77221,1,2,0:0:0:0:
72,296,77387,1,2,0:0:0:0:
184,44,77554,5,12,0:0:0:0:
288,300,77721,1,2,0:0:0:0:
472,84,77887,5,12,0:0:0:0:
184,148,78054,1,2,0:0:0:0:
184,148,78137,1,2,0:0:0:0:
184,148,78221,6,0,P|91:137|0:118,1,187.000005706787,12|2,0:0|0:0,0:0:0:0:
260,300,78721,2,0,P|351:280|444:270,1,187.000005706787,12|2,0:0|0:0,0:0:0:0:
256,116,79221,5,12,0:0:0:0:
167,372,79387,1,2,0:0:0:0:
104,120,79554,5,12,0:0:0:0:
336,196,79721,1,2,0:0:0:0:
167,372,79887,2,0,L|28:347,1,140.25000428009,12|0,0:0|0:0,0:0:0:0:
112,272,80221,6,0,L|184:264,1,46.7500014266968,2|2,0:0|0:0,0:0:0:0:
380,312,80387,1,2,0:0:0:0:
414,295,80470,1,2,0:0:0:0:
440,266,80553,1,2,0:0:0:0:
453,230,80636,1,2,0:0:0:0:
451,191,80720,1,2,0:0:0:0:
434,156,80803,1,2,0:0:0:0:
405,130,80887,5,6,0:0:0:0:
248,280,81054,1,0,0:0:0:0:
232,64,81221,1,8,0:0:0:0:
248,280,81387,2,0,P|255:325|276:367,1,93.5000028533936,0|2,0:0|0:0,0:0:0:0:
48,272,81721,2,0,P|69:230|76:184,1,93.5000028533936,0|8,0:0|0:0,0:0:0:0:
56,8,82054,1,0,0:0:0:0:
272,176,82221,5,2,0:0:0:0:
72,96,82387,1,0,0:0:0:0:
268,4,82554,1,8,0:0:0:0:
72,95,82721,2,0,P|27:110|-18:110,1,93.5000028533936,0|2,0:0|0:0,0:0:0:0:
148,248,83054,2,0,P|194:248|238:262,1,93.5000028533936,0|8,0:0|0:0,0:0:0:0:
368,364,83387,1,2,0:0:0:0:
368,364,83471,1,2,0:0:0:0:
368,364,83554,5,6,0:0:0:0:
288,164,83721,1,0,0:0:0:0:
184,352,83887,1,8,0:0:0:0:
288,164,84054,2,0,P|300:116|296:64,1,93.5000028533936,0|2,0:0|0:0,0:0:0:0:
64,120,84387,2,0,P|64:169|82:218,1,93.5000028533936,0|8,0:0|0:0,0:0:0:0:
228,272,84721,1,0,0:0:0:0:
192,40,84887,6,0,L|-24:18,1,187.000005706787,2|8,0:0|0:0,0:0:0:0:
144,184,85388,1,0,0:0:0:0:
308,32,85554,5,2,0:0:0:0:
51,130,85721,1,8,0:0:0:0:
308,32,85887,1,2,0:0:0:0:
376,312,86054,6,0,P|284:295|190:289,1,187.000005706787,12|0,0:0|0:0,0:0:0:0:
80,104,86554,2,0,P|127:100|172:87,1,93.5000028533936,8|0,0:0|0:0,0:0:0:0:
416,184,86887,5,2,0:0:0:0:
304,32,87054,1,0,0:0:0:0:
248,272,87221,1,8,0:0:0:0:
512,220,87387,2,0,L|500:120,1,93.5000028533936,0|2,0:0|0:0,0:0:0:0:
248,272,87721,2,0,L|237:364,1,93.5000028533936,0|8,0:0|0:0,0:0:0:0:
496,204,88054,2,0,L|484:104,1,93.5000028533936,0|2,0:0|0:0,0:0:0:0:
232,256,88388,2,0,L|221:348,1,93.5000028533936,0|8,0:0|0:0,0:0:0:0:
376,156,88721,1,2,0:0:0:0:
376,156,88804,1,2,0:0:0:0:
376,156,88887,6,0,P|285:135|200:97,1,187.000005706787,2|8,0:0|0:0,0:0:0:0:
16,140,89387,1,0,0:0:0:0:
104,352,89554,2,0,P|190:314|281:293,1,187.000005706787,2|8,0:0|0:0,0:0:0:0:
464,336,90054,1,0,0:0:0:0:
360,128,90221,5,2,0:0:0:0:
276,384,90387,1,2,0:0:0:0:
168,128,90554,5,12,0:0:0:0:
370,296,90720,1,2,0:0:0:0:
440,36,90887,5,2,0:0:0:0:
417,18,90970,1,2,0:0:0:0:
390,8,91053,1,2,0:0:0:0:
361,4,91136,1,2,0:0:0:0:
332,8,91220,1,2,0:0:0:0:
305,19,91303,1,2,0:0:0:0:
282,37,91386,1,2,0:0:0:0:
264,60,91470,1,2,0:0:0:0:
251,87,91554,6,0,L|267:199,1,93.5000028533936,12|0,0:0|0:0,0:0:0:0:
288,340,91887,1,2,0:0:0:0:
32,380,92054,6,0,L|48:268,1,93.5000028533936,12|0,0:0|0:0,0:0:0:0:
69,127,92387,1,2,0:0:0:0:
280,248,92554,6,0,L|380:232,1,93.5000028533936,12|0,0:0|0:0,0:0:0:0:
256,80,92887,1,2,0:0:0:0:
148,328,93054,6,0,L|48:312,1,93.5000028533936,12|0,0:0|0:0,0:0:0:0:
172,160,93387,1,2,0:0:0:0:
372,352,93554,5,12,0:0:0:0:
336,104,93721,1,2,0:0:0:0:
60,360,93887,5,12,0:0:0:0:
88,112,94054,1,2,0:0:0:0:
400,224,94221,5,4,0:0:0:0:
256,192,94304,12,0,96054,0:0:0:0:
304,212,96387,5,8,0:3:0:0:
304,212,96471,1,8,0:3:0:0:
304,212,96554,2,0,L|224:199,1,63.75,4|0,0:3|0:0,0:0:0:0:
216,188,96887,6,0,B|228:312,1,85,12|0,0:0|0:0,0:0:0:0:
80,236,97221,1,2,0:0:0:0:
196,8,97387,6,0,B|204:92,1,85,12|0,0:0|0:0,0:0:0:0:
340,44,97721,1,2,0:0:0:0:
440,264,97887,6,0,L|336:280,1,85,12|0,0:0|0:0,0:0:0:0:
184,304,98221,1,2,0:0:0:0:
84,84,98387,6,0,L|188:68,1,85,12|0,0:0|0:0,0:0:0:0:
340,44,98721,1,2,0:0:0:0:
92,220,98887,5,12,0:0:0:0:
116,0,99054,1,2,0:0:0:0:
351,266,99221,5,12,0:0:0:0:
340,44,99388,1,2,0:0:0:0:
116,224,99554,5,12,0:0:0:0:
256,44,99721,1,2,0:0:0:0:
320,264,99887,1,2,0:0:0:0:
364,52,100054,5,12,0:0:0:0:
224,232,100221,1,2,0:0:0:0:
160,12,100387,1,2,0:0:0:0:
166,331,100554,5,12,0:0:0:0:
391,156,100721,1,2,0:0:0:0:
116,76,100887,1,2,0:0:0:0:
381,21,101054,5,12,0:0:0:0:
156,196,101221,1,2,0:0:0:0:
431,276,101387,1,2,0:0:0:0:
112,44,101554,5,12,0:0:0:0:
62,298,101721,1,2,0:0:0:0:
316,188,101887,5,2,0:0:0:0:
302,185,101970,1,2,0:0:0:0:
288,183,102053,1,2,0:0:0:0:
274,181,102136,1,2,0:0:0:0:
260,178,102221,6,0,L|376:152,1,85,12|0,0:0|0:0,0:0:0:0:
328,324,102554,1,2,0:0:0:0:
96,260,102721,6,0,L|-20:286,1,85,12|0,0:0|0:0,0:0:0:0:
28,114,103054,1,2,0:0:0:0:
260,178,103221,6,0,L|248:276,1,85,12|0,0:0|0:0,0:0:0:0:
156,80,103554,1,2,0:0:0:0:
13,278,103721,6,0,L|25:376,1,85,12|0,0:0|0:0,0:0:0:0:
117,180,104054,1,2,0:0:0:0:
232,380,104221,5,12,0:0:0:0:
16,176,104387,1,2,0:0:0:0:
320,84,104554,5,12,0:0:0:0:
128,296,104721,1,2,0:0:0:0:
52,12,104887,5,12,0:0:0:0:
248,140,105054,1,2,0:0:0:0:
16,176,105221,1,2,0:0:0:0:
248,12,105387,5,12,0:0:0:0:
128,220,105554,1,2,0:0:0:0:
368,192,105721,1,2,0:0:0:0:
88,88,105887,5,12,0:0:0:0:
248,304,106054,1,2,0:0:0:0:
344,8,106221,5,12,0:0:0:0:
128,220,106387,1,2,0:0:0:0:
440,272,106554,5,12,0:0:0:0:
220,88,106721,1,2,0:0:0:0:
96,368,106887,5,2,0:0:0:0:
117,369,106970,1,2,0:0:0:0:
138,370,107053,1,2,0:0:0:0:
159,371,107136,1,2,0:0:0:0:
180,373,107220,1,2,0:0:0:0:
202,374,107303,1,2,0:0:0:0:
223,375,107386,1,2,0:0:0:0:
244,376,107470,1,2,0:0:0:0:
266,378,107554,6,0,L|382:354,1,85,12|0,0:0|0:0,0:0:0:0:
508,332,107887,1,2,0:0:0:0:
384,188,108054,6,0,L|268:164,1,85,12|0,0:0|0:0,0:0:0:0:
142,142,108387,1,2,0:0:0:0:
364,8,108554,6,0,P|366:69|346:118,1,85,12|0,0:0|0:0,0:0:0:0:
204,40,108887,1,2,0:0:0:0:
144,240,109054,6,0,P|141:301|161:350,1,85,12|0,0:0|0:0,0:0:0:0:
304,272,109387,1,2,0:0:0:0:
140,96,109554,5,12,0:0:0:0:
240,336,109721,1,2,0:0:0:0:
440,148,109887,5,12,0:0:0:0:
160,220,110054,1,2,0:0:0:0:
424,384,110221,6,0,L|432:276,1,85,12|0,0:0|0:0,0:0:0:0:
440,148,110554,1,2,0:0:0:0:
236,60,110721,6,0,L|244:168,1,85,12|0,0:0|0:0,0:0:0:0:
252,296,111054,1,2,0:0:0:0:
440,148,111221,6,0,L|344:136,1,85,12|0,0:0|0:0,0:0:0:0:
216,224,111554,1,2,0:0:0:0:
78,12,111721,6,0,L|174:0,1,85,12|0,0:0|0:0,0:0:0:0:
303,87,112054,1,2,0:0:0:0:
95,255,112221,5,12,0:0:0:0:
162,1,112387,1,2,0:0:0:0:
336,208,112554,5,2,0:0:0:0:
322,210,112637,1,2,0:0:0:0:
308,213,112721,1,2,0:0:0:0:
294,215,112804,1,2,0:0:0:0:
281,218,112887,5,12,0:0:0:0:
377,49,113054,1,2,0:0:0:0:
419,240,113221,1,2,0:0:0:0:
248,72,113387,5,12,0:0:0:0:
349,306,113554,1,2,0:0:0:0:
487,91,113720,1,2,0:0:0:0:
216,264,113887,5,12,0:0:0:0:
150,79,114054,1,2,0:0:0:0:
328,157,114220,1,2,0:0:0:0:
92,224,114387,5,12,0:0:0:0:
343,280,114554,1,2,0:0:0:0:
300,24,114721,1,2,0:0:0:0:
36,76,114887,5,12,0:0:0:0:
324,176,115054,1,2,0:0:0:0:
0,283,115221,1,12,0:0:0:0:
288,383,115388,1,2,0:0:0:0:
288,383,115471,1,2,0:0:0:0:
288,383,115554,5,12,0:0:0:0:
232,196,115721,1,2,0:0:0:0:
404,287,115887,1,0,0:0:0:0:
128,283,116054,5,12,0:0:0:0:
364,155,116221,1,2,0:0:0:0:
128,27,116387,1,2,0:0:0:0:
24,295,116554,5,12,0:0:0:0:
172,168,116721,1,2,0:0:0:0:
232,355,116887,6,0,L|176:363,1,42.5,2|2,0:0|0:0,0:0:0:0:
172,168,117054,1,2,0:0:0:0:
176,172,117137,1,2,0:0:0:0:
180,176,117221,2,0,L|236:168,1,42.5,2|2,0:0|0:0,0:0:0:0:
416,112,117387,5,2,0:0:0:0:
428,138,117470,1,2,0:0:0:0:
433,168,117553,1,2,0:0:0:0:
430,197,117636,1,2,0:0:0:0:
419,225,117720,1,2,0:0:0:0:
401,249,117803,1,2,0:0:0:0:
378,267,117886,1,2,0:0:0:0:
350,278,117970,1,2,0:0:0:0:
321,282,118053,1,2,0:0:0:0:
292,277,118136,1,2,0:0:0:0:
264,265,118221,6,0,P|204:254|107:244,1,136,6|8,0:0|0:0,0:0:0:0:
236,384,118721,1,0,0:0:0:0:
378,267,118887,1,2,0:0:0:0:
378,267,119054,2,0,L|370:175,1,68,2|0,0:0|0:0,0:0:0:0:
215,124,119387,6,0,P|180:188|201:258,1,136,8|2,0:0|0:0,0:0:0:0:
26,306,119887,2,0,L|17:222,1,68,8|0,0:0|0:0,0:0:0:0:
88,96,120221,1,2,0:0:0:0:
88,96,120387,1,2,0:0:0:0:
202,258,120554,2,0,L|134:266,1,68,8|0,0:0|0:0,0:0:0:0:
248,80,120887,6,0,P|280:89|314:94,1,68,2|0,0:0|0:0,0:0:0:0:
268,272,121221,2,0,P|235:262|201:257,1,68,8|0,0:0|0:0,0:0:0:0:
400,356,121554,1,2,0:0:0:0:
400,356,121721,2,0,L|420:280,1,68,2|0,0:0|0:0,0:0:0:0:
228,208,122054,6,0,L|240:360,1,136,8|2,0:0|0:0,0:0:0:0:
417,290,122554,2,0,L|411:214,1,68,8|0,0:0|0:0,0:0:0:0:
300,88,122887,1,2,0:0:0:0:
300,88,123054,1,2,0:0:0:0:
472,8,123221,2,0,L|478:84,1,68,8|0,0:0|0:0,0:0:0:0:
300,88,123554,6,0,P|260:76|212:72,1,68,6|0,0:0|0:0,0:0:0:0:
408,200,123887,2,0,P|441:194|473:184,1,68,8|0,0:0|0:0,0:0:0:0:
300,312,124221,1,2,0:0:0:0:
300,312,124387,2,0,P|260:300|212:296,1,68,2|0,0:0|0:0,0:0:0:0:
166,113,124721,6,0,L|300:88,1,136,8|2,0:0|0:0,0:0:0:0:
456,152,125221,1,8,0:0:0:0:
409,41,125387,1,0,0:0:0:0:
345,198,125554,1,2,0:0:0:0:
345,198,125721,1,2,0:0:0:0:
504,280,125887,2,0,L|512:196,1,68,8|0,0:0|0:0,0:0:0:0:
345,198,126221,6,0,P|297:214|205:218,1,136,2|8,0:0|0:0,0:0:0:0:
301,86,126721,1,0,0:0:0:0:
469,218,126887,1,2,0:0:0:0:
469,218,127054,1,2,0:0:0:0:
451,67,127221,1,0,0:0:0:0:
319,236,127387,6,0,P|337:294|353:394,1,136,8|2,0:0|0:0,0:0:0:0:
504,296,127887,2,0,P|508:240|516:204,1,68,4|0,0:0|0:0,0:0:0:0:
350,252,128221,6,0,L|294:260,1,42.5,2|0,0:0|0:0,0:0:0:0:
217,102,128387,1,2,0:0:0:0:
236,81,128470,1,2,0:0:0:0:
260,66,128553,1,2,0:0:0:0:
287,59,128637,1,2,0:0:0:0:
316,59,128720,1,2,0:0:0:0:
343,68,128803,1,2,0:0:0:0:
365,82,128887,6,0,P|355:164|349:270,1,170,6|8,0:0|0:0,0:0:0:0:
257,345,129387,1,2,0:0:0:0:
160,151,129554,1,2,0:0:0:0:
139,282,129720,1,2,0:0:0:0:
350,252,129887,1,8,0:0:0:0:
290,132,130054,1,2,0:0:0:0:
160,151,130221,6,0,P|76:163|8:116,1,170,2|8,0:0|0:0,0:0:0:0:
104,52,130721,1,2,0:0:0:0:
272,168,130887,1,2,0:0:0:0:
246,26,131054,1,2,0:0:0:0:
130,194,131221,1,8,0:0:0:0:
104,52,131387,1,2,0:0:0:0:
272,168,131554,6,0,L|360:152,1,85,6|2,0:0|0:0,0:0:0:0:
152,296,131887,2,0,L|64:280,1,85,8|2,0:0|0:0,0:0:0:0:
192,128,132221,1,2,0:0:0:0:
240,284,132387,1,2,0:0:0:0:
296,72,132554,1,8,0:0:0:0:
344,220,132721,1,2,0:0:0:0:
192,128,132887,6,0,L|104:144,1,85,2|2,0:0|0:0,0:0:0:0:
204,40,133221,1,8,0:0:0:0:
204,40,133387,1,2,0:0:0:0:
279,159,133554,2,0,P|286:201|275:242,1,85,2|2,0:0|0:0,0:0:0:0:
103,225,133887,2,0,P|96:183|107:142,1,85,8|2,0:0|0:0,0:0:0:0:
279,160,134221,6,0,L|393:140,1,85,6|2,0:0|0:0,0:0:0:0:
512,220,134554,1,8,0:0:0:0:
336,280,134721,1,2,0:0:0:0:
460,136,134887,1,2,0:0:0:0:
504,316,135054,1,2,0:0:0:0:
300,196,135221,1,8,0:0:0:0:
344,376,135388,1,2,0:0:0:0:
460,136,135554,5,2,0:0:0:0:
420,320,135721,1,2,0:0:0:0:
292,100,135887,1,8,0:0:0:0:
252,284,136054,1,2,0:0:0:0:
460,136,136221,1,2,0:0:0:0:
420,320,136387,2,0,L|324:300,1,85,2|8,0:0|0:0,0:0:0:0:
220,200,136721,1,2,0:0:0:0:
460,136,136887,6,0,P|452:188|452:228,1,85,6|0,0:0|0:0,0:0:0:0:
292,132,137221,2,0,P|300:80|300:40,1,85,8|0,0:0|0:0,0:0:0:0:
140,176,137554,1,2,0:0:0:0:
324,284,137721,1,2,0:0:0:0:
192,64,137887,1,8,0:0:0:0:
56,256,138054,1,2,0:0:0:0:
296,376,138221,5,12,0:0:0:0:
116,148,138387,1,2,0:0:0:0:
420,100,138554,5,12,0:0:0:0:
184,292,138721,1,2,0:0:0:0:
112,24,138887,5,2,0:0:0:0:
122,23,138970,1,2,0:0:0:0:
133,22,139053,1,2,0:0:0:0:
143,23,139137,1,2,0:0:0:0:
154,22,139220,1,2,0:0:0:0:
164,21,139303,1,2,0:0:0:0:
175,22,139387,1,2,0:0:0:0:
185,21,139470,1,2,0:0:0:0:
196,20,139554,6,0,P|233:46|243:169,1,170,12|0,0:0|0:0,0:0:0:0:
96,205,140054,1,8,0:0:0:0:
96,205,140387,5,2,0:0:0:0:
100,209,140471,1,2,0:0:0:0:
104,213,140554,2,0,P|186:218|246:161,1,170,12|0,0:0|0:0,0:0:0:0:
320,4,141054,1,8,0:0:0:0:
320,4,141387,5,2,0:0:0:0:
324,8,141470,1,2,0:0:0:0:
328,12,141554,1,12,0:0:0:0:
292,160,141721,1,2,0:0:0:0:
484,48,141887,1,2,0:0:0:0:
448,196,142054,1,2,0:0:0:0:
446,202,142137,1,2,0:0:0:0:
444,208,142221,6,0,P|433:269|425:385,1,170,12|0,0:0|0:0,0:0:0:0:
264,240,142721,1,8,0:0:0:0:
264,240,143054,5,2,0:0:0:0:
262,234,143137,1,2,0:0:0:0:
260,228,143221,2,0,P|249:167|241:51,1,170,12|0,0:0|0:0,0:0:0:0:
80,196,143721,1,8,0:0:0:0:
143,122,143887,1,0,0:0:0:0:
246,140,144054,5,2,0:0:0:0:
246,140,144137,1,2,0:0:0:0:
246,140,144221,1,4,0:3:0:0:
214,296,144387,1,8,0:3:0:0:
64,112,144554,1,4,0:3:0:0:
32,269,144720,1,8,0:3:0:0:
214,296,144887,6,0,L|374:280,1,136,6|2,0:0|0:0,0:0:0:0:
432,200,145387,1,2,0:0:0:0:
308,136,145554,2,0,L|312:212,1,68,8|2,0:0|0:0,0:0:0:0:
404,92,145887,1,2,0:0:0:0:
432,200,146054,5,2,0:0:0:0:
432,200,146137,1,2,0:0:0:0:
432,200,146221,2,0,L|436:276,1,68,2|2,0:0|0:0,0:0:0:0:
368,344,146554,1,2,0:0:0:0:
291,276,146720,1,2,0:0:0:0:
432,200,146887,1,8,0:0:0:0:
355,132,147054,1,2,0:0:0:0:
451,100,147221,1,2,0:0:0:0:
259,164,147387,5,2,0:0:0:0:
259,164,147471,1,2,0:0:0:0:
259,164,147554,2,0,P|204:156|112:148,1,136,6|2,0:0|0:0,0:0:0:0:
0,200,148054,1,2,0:0:0:0:
36,112,148221,1,8,0:0:0:0:
87,236,148387,2,0,L|76:308,1,68,2|2,0:0|0:0,0:0:0:0:
259,164,148721,5,2,0:0:0:0:
259,164,148804,1,2,0:0:0:0:
259,164,148887,1,2,0:0:0:0:
223,252,149054,1,2,0:0:0:0:
184,116,149221,1,2,0:0:0:0:
148,204,149388,1,2,0:0:0:0:
334,212,149554,5,6,0:0:0:0:
298,300,149721,1,2,0:0:0:0:
184,116,149887,1,6,0:0:0:0:
148,204,150054,1,2,0:0:0:0:
334,212,150221,6,0,P|408:196|502:184,1,170,12|0,0:0|0:0,0:0:0:0:
352,324,150721,1,8,0:0:0:0:
276,128,150887,1,0,0:0:0:0:
84,244,151054,5,0,0:0:0:0:
84,244,151137,1,0,0:0:0:0:
84,244,151221,2,0,P|168:254|251:271,1,170,12|0,0:0|0:0,0:0:0:0:
88,136,151721,1,8,0:0:0:0:
12,328,151887,1,0,0:0:0:0:
251,271,152054,1,0,0:0:0:0:
251,271,152137,1,0,0:0:0:0:
251,271,152221,2,0,L|240:184,1,85,12|0,0:0|0:0,0:0:0:0:
64,140,152554,2,0,L|53:224,1,85
172,56,152887,6,0,L|7:13,1,170,12|0,0:0|0:0,0:0:0:0:
148,184,153387,1,8,0:0:0:0:
284,16,153554,1,0,0:0:0:0:
444,208,153721,5,0,0:0:0:0:
444,208,153804,1,0,0:0:0:0:
444,208,153887,2,0,L|279:250,1,170,12|0,0:0|0:0,0:0:0:0:
92,68,154387,2,0,L|257:111,1,170,8|0,0:0|0:0,0:0:0:0:
444,208,154887,5,2,0:0:0:0:
447,187,154970,1,2,0:0:0:0:
451,166,155053,1,2,0:0:0:0:
455,145,155137,1,2,0:0:0:0:
459,124,155221,2,0,P|456:76|443:36,1,85,6|0,0:0|0:0,0:0:0:0:
164,120,155554,5,12,0:0:0:0:
363,40,155721,1,2,0:0:0:0:
331,251,155887,1,2,0:0:0:0:
162,98,156054,5,12,0:0:0:0:
381,49,156221,1,2,0:0:0:0:
314,262,156387,1,2,0:0:0:0:
164,76,156554,5,12,0:0:0:0:
399,61,156721,1,2,0:0:0:0:
294,271,156887,1,2,0:0:0:0:
168,55,157054,5,12,0:0:0:0:
415,77,157221,1,2,0:0:0:0:
272,278,157387,1,2,0:0:0:0:
178,32,157554,5,2,0:0:0:0:
219,33,157637,1,2,0:0:0:0:
255,56,157720,1,2,0:0:0:0:
274,93,157804,1,2,0:0:0:0:
273,135,157887,1,2,0:0:0:0:
250,170,157970,1,2,0:0:0:0:
213,189,158054,1,2,0:0:0:0:
171,187,158137,1,2,0:0:0:0:
134,163,158221,6,0,P|67:150|17:143,1,95.6250036478044,6|0,0:0|0:0,0:0:0:0:
7,152,158554,1,2,0:0:0:0:
168,32,158721,1,2,0:0:0:0:
208,256,158887,1,2,0:0:0:0:
4,56,159054,1,0,0:0:0:0:
0,296,159221,2,0,L|64:284,1,63.7500024318696,6|0,0:0|0:0,0:0:0:0:
324,220,159554,6,0,L|260:212,1,42.5,6|2,0:0|0:0,0:0:0:0:
156,81,159721,1,2,0:0:0:0:
184,50,159804,1,2,0:0:0:0:
220,28,159887,1,2,0:0:0:0:
261,17,159971,1,2,0:0:0:0:
303,18,160054,1,2,0:0:0:0:
344,31,160137,1,2,0:0:0:0:
379,55,160221,1,2,0:0:0:0:
367,95,160304,1,2,0:0:0:0:
374,137,160387,1,2,0:0:0:0:
399,171,160471,1,2,0:0:0:0:
435,192,160554,6,0,P|461:189|483:177,1,51,2|0,0:0|0:0,0:0:0:0:
367,95,160887,6,0,L|246:107,1,93.5000028533936,12|0,0:0|0:0,0:0:0:0:
336,248,161221,1,2,0:0:0:0:
60,136,161387,6,0,L|181:148,1,93.5000028533936,12|0,0:0|0:0,0:0:0:0:
91,289,161721,1,2,0:0:0:0:
396,140,161887,5,12,0:0:0:0:
176,240,162054,1,0,0:0:0:0:
412,300,162221,1,2,0:0:0:0:
196,128,162387,5,12,0:0:0:0:
464,216,162554,1,0,0:0:0:0:
212,344,162721,1,2,0:0:0:0:
444,96,162887,5,12,0:0:0:0:
480,332,163054,1,2,0:0:0:0:
212,96,163221,5,12,0:0:0:0:
212,344,163388,1,2,0:0:0:0:
212,344,163471,1,2,0:0:0:0:
212,344,163554,5,12,0:0:0:0:
464,216,163721,1,2,0:0:0:0:
212,96,163887,1,2,0:0:0:0:
128,384,164054,6,0,L|256:364,1,93.5000028533936,12|2,0:0|0:0,0:0:0:0:
416,344,164387,1,2,0:0:0:0:
140,184,164554,5,12,0:0:0:0:
324,372,164720,1,2,0:0:0:0:
394,118,164887,1,2,0:0:0:0:
144,336,165054,5,12,0:0:0:0:
212,44,165220,1,2,0:0:0:0:
430,248,165387,1,2,0:0:0:0:
88,140,165554,5,12,0:0:0:0:
68,384,165721,1,2,0:0:0:0:
316,172,165887,5,2,0:0:0:0:
292,168,165970,1,2,0:0:0:0:
269,165,166053,1,2,0:0:0:0:
246,162,166137,1,2,0:0:0:0:
223,158,166220,5,12,0:0:0:0:
388,336,166387,1,2,0:0:0:0:
459,104,166554,1,2,0:0:0:0:
208,65,166721,6,0,L|224:165,1,93.5000028533936,12|2,0:0|0:0,0:0:0:0:
384,84,167054,1,2,0:0:0:0:
492,252,167221,5,12,0:0:0:0:
296,72,167387,1,2,0:0:0:0:
238,331,167554,1,2,0:0:0:0:
499,211,167721,5,12,0:0:0:0:
266,358,167887,1,2,0:0:0:0:
255,82,168054,1,2,0:0:0:0:
492,252,168221,5,12,0:0:0:0:
452,0,168387,1,2,0:0:0:0:
196,304,168554,5,12,0:0:0:0:
184,60,168720,1,2,0:0:0:0:
184,60,168804,1,0,0:0:0:0:
184,60,168887,6,0,L|368:32,1,187.000005706787,12|2,0:0|0:0,0:0:0:0:
448,356,169387,2,0,L|263:327,1,187.000005706787,12|2,0:0|0:0,0:0:0:0:
408,44,169887,5,12,0:0:0:0:
456,244,170054,1,2,0:0:0:0:
196,64,170221,5,12,0:0:0:0:
192,268,170387,1,2,0:0:0:0:
428,148,170554,2,0,L|280:124,1,140.25000428009,12|0,0:0|0:0,0:0:0:0:
196,64,170887,6,0,L|128:84,1,46.7500014266968,2|2,0:0|0:0,0:0:0:0:
55,239,171054,1,2,0:0:0:0:
82,266,171137,1,2,0:0:0:0:
117,281,171220,1,2,0:0:0:0:
156,282,171304,1,2,0:0:0:0:
192,268,171387,1,2,0:0:0:0:
220,242,171470,1,2,0:0:0:0:
236,206,171554,5,6,0:0:0:0:
408,332,171721,1,0,0:0:0:0:
196,368,171887,1,8,0:0:0:0:
407,332,172054,2,0,L|500:319,1,93.5000028533936,0|2,0:0|0:0,0:0:0:0:
420,120,172387,2,0,L|327:107,1,93.5000028533936,0|8,0:0|0:0,0:0:0:0:
116,204,172721,1,0,0:0:0:0:
360,248,172887,5,2,0:0:0:0:
196,96,173054,1,0,0:0:0:0:
208,320,173221,1,8,0:0:0:0:
196,96,173387,2,0,L|194:2,1,93.5000028533936,0|2,0:0|0:0,0:0:0:0:
406,80,173721,2,0,L|408:174,1,93.5000028533936,0|8,0:0|0:0,0:0:0:0:
208,320,174054,1,2,0:0:0:0:
208,320,174137,1,2,0:0:0:0:
208,320,174221,6,0,L|25:280,1,187.000005706787,6|8,0:0|0:0,0:0:0:0:
140,104,174721,2,0,P|186:97|227:76,1,93.5000028533936,0|2,0:0|0:0,0:0:0:0:
376,232,175054,2,0,P|334:210|288:204,1,93.5000028533936,0|8,0:0|0:0,0:0:0:0:
296,356,175387,1,0,0:0:0:0:
500,288,175554,6,0,L|468:100,1,187.000005706787,2|8,0:0|0:0,0:0:0:0:
296,40,176054,1,0,0:0:0:0:
233,213,176220,1,2,0:0:0:0:
468,103,176387,1,0,0:0:0:0:
233,213,176555,1,8,0:0:0:0:
405,276,176721,1,2,0:0:0:0:
405,276,176804,1,2,0:0:0:0:
405,276,176887,6,0,P|450:263|496:255,1,93.5000028533936,6|0,0:0|0:0,0:0:0:0:
233,213,177221,2,0,P|186:204|141:192,1,93.5000028533936,8|0,0:0|0:0,0:0:0:0:
356,140,177554,5,2,0:0:0:0:
276,344,177721,1,0,0:0:0:0:
208,104,177887,1,8,0:0:0:0:
480,108,178054,2,0,L|456:220,1,93.5000028533936,0|2,0:0|0:0,0:0:0:0:
408,28,178387,2,0,L|388:120,1,93.5000028533936,0|8,0:0|0:0,0:0:0:0:
207,104,178721,2,0,L|183:-8,1,93.5000028533936,0|2,0:0|0:0,0:0:0:0:
135,184,179054,2,0,L|115:92,1,93.5000028533936,0|8,0:0|0:0,0:0:0:0:
312,188,179387,1,0,0:0:0:0:
120,316,179554,6,0,P|74:303|29:294,1,93.5000028533936,6|0,0:0|0:0,0:0:0:0:
312,188,179887,2,0,P|357:178|402:166,1,93.5000028533936,8|0,0:0|0:0,0:0:0:0:
232,24,180221,5,2,0:0:0:0:
239,258,180387,1,2,0:0:0:0:
492,28,180554,1,12,0:0:0:0:
484,262,180721,1,2,0:0:0:0:
232,24,180887,6,0,L|320:12,1,46.7500014266968,2|2,0:0|0:0,0:0:0:0:
416,88,181054,2,0,L|328:76,1,46.7500014266968,2|2,0:0|0:0,0:0:0:0:
224,136,181221,2,0,L|312:124,1,46.7500014266968,2|2,0:0|0:0,0:0:0:0:
408,200,181388,2,0,L|320:188,1,46.7500014266968,2|2,0:0|0:0,0:0:0:0:
216,248,181554,5,2,0:0:0:0:
226,281,181637,1,2,0:0:0:0:
245,310,181720,1,2,0:0:0:0:
271,333,181804,1,2,0:0:0:0:
303,347,181887,1,2,0:0:0:0:
338,352,181970,1,2,0:0:0:0:
372,347,182054,1,2,0:0:0:0:
404,333,182137,1,2,0:0:0:0:
431,311,182221,6,0,L|447:199,1,93.5000028533936,12|2,0:0|0:0,0:0:0:0:
468,52,182554,1,2,0:0:0:0:
189,22,182721,6,0,L|205:134,1,93.5000028533936,12|2,0:0|0:0,0:0:0:0:
226,281,183054,1,2,0:0:0:0:
324,24,183221,5,12,0:0:0:0:
84,164,183387,1,2,0:0:0:0:
360,200,183554,1,2,0:0:0:0:
8,248,183721,6,0,P|-24:192|16:84,1,187.000005706787,12|2,0:0|0:0,0:0:0:0:
256,168,184221,5,8,0:3:0:0:
256,168,184332,2,0,B|272:200|272:200|262:238,1,62.3333352355958,8|8,0:3|0:3,0:0:0:0:
108,240,184554,5,4,0:3:0:0:
108,240,184665,2,0,B|92:208|92:208|101:169,1,62.3333352355958,4|4,0:3|0:3,0:0:0:0:
168,76,184887,5,4,0:0:0:0:
256,192,184971,12,0,186054,0:0:0:0:
152,96,187054,5,2,0:0:0:0:
152,96,187137,1,2,0:0:0:0:
152,96,187221,2,0,P|148:136|160:168,1,63.75,2|0,0:0|0:0,0:0:0:0:
176,168,187554,6,0,P|239:159|302:153,1,127.500004863739,6|2,0:0|0:0,0:0:0:0:
432,64,188054,2,0,P|368:55|305:49,1,127.500004863739,4|0,0:0|0:0,0:0:0:0:
408,224,188554,6,0,B|412:288|484:308|521:282|537:202|488:144,1,255,6|0,0:0|0:0,0:0:0:0:
486,142,189637,1,0,0:0:0:0:
482,138,189721,1,0,0:0:0:0:
478,134,189804,1,0,0:0:0:0:
474,130,189887,1,0,0:0:0:0:
260,308,190221,6,0,B|112:264|112:264|200:208,1,255,6|0,0:0|0:0,0:0:0:0:
432,176,191554,5,10,0:0:0:0:
292,224,191721,1,8,0:3:0:0:
292,224,192054,1,8,0:3:0:0:
292,224,192387,1,8,0:3:0:0:
386,270,192554,1,4,0:3:0:0:
268,31,192887,6,0,P|206:49|143:56,1,127.500004863739,6|2,0:0|0:0,0:0:0:0:
40,140,193387,2,0,P|101:157|164:164,1,127.500004863739,6|0,0:0|0:0,0:0:0:0:
340,96,193887,6,0,P|454:116|356:197,1,297.5,6|0,0:0|0:0,0:0:0:0:
267,164,195221,1,2,0:3:0:0:
100,204,195554,6,0,L|128:344,1,127.5,6|2,0:0|0:0,0:0:0:0:
224,236,196054,1,2,0:0:0:0:
4,136,196221,1,2,0:0:0:0:
12,348,196387,1,2,0:0:0:0:
144,104,196554,1,6,0:0:0:0:
144,104,196887,5,2,0:0:0:0:
12,348,197054,1,6,0:0:0:0:
160,120,197221,1,6,0:0:0:0:
28,364,197388,1,2,0:0:0:0:
4,136,197554,5,6,0:0:0:0:
184,348,197721,1,2,0:0:0:0:
245,132,197887,1,2,0:0:0:0:
223,129,197970,1,2,0:0:0:0:
202,126,198054,1,2,0:0:0:0:
181,123,198137,1,2,0:0:0:0:
160,120,198221,6,0,L|40:144,1,85,6|2,0:0|0:0,0:0:0:0:
148,280,198554,1,2,0:0:0:0:
332,148,198721,6,0,L|415:131,1,85,6|2,0:0|0:0,0:0:0:0:
403,291,199054,1,2,0:0:0:0:
200,160,199221,6,0,L|212:60,1,85,6|2,0:0|0:0,0:0:0:0:
36,100,199554,1,2,0:0:0:0:
8,300,199721,6,0,L|20:400,1,85,6|2,0:0|0:0,0:0:0:0:
182,324,200054,1,2,0:0:0:0:
36,100,200221,5,6,0:0:0:0:
100,272,200387,1,2,0:0:0:0:
192,16,200554,5,6,0:0:0:0:
256,188,200721,1,2,0:0:0:0:
256,188,200804,1,2,0:0:0:0:
256,188,200887,5,6,0:0:0:0:
36,100,201054,1,2,0:0:0:0:
264,36,201221,1,2,0:0:0:0:
124,220,201387,5,6,0:0:0:0:
344,116,201554,1,2,0:0:0:0:
120,24,201721,1,2,0:0:0:0:
12,276,201887,6,0,L|94:297,1,85,6|2,0:0|0:0,0:0:0:0:
252,336,202221,1,2,0:0:0:0:
384,128,202387,6,0,L|301:149,1,85,6|2,0:0|0:0,0:0:0:0:
144,188,202721,1,2,0:0:0:0:
428,236,202887,5,6,0:0:0:0:
356,8,203054,1,2,0:0:0:0:
138,104,203221,1,2,0:0:0:0:
139,125,203304,1,2,0:0:0:0:
141,146,203387,1,2,0:0:0:0:
142,167,203471,1,2,0:0:0:0:
144,188,203554,6,0,L|128:296,1,85,6|2,0:0|0:0,0:0:0:0:
12,144,203887,1,2,0:0:0:0:
256,60,204054,6,0,L|272:168,1,85,6|2,0:0|0:0,0:0:0:0:
388,16,204387,1,2,0:0:0:0:
504,220,204554,6,0,L|400:248,1,85,6|2,0:0|0:0,0:0:0:0:
268,144,204887,1,2,0:0:0:0:
152,344,205054,6,0,L|256:372,1,85,6|2,0:0|0:0,0:0:0:0:
388,268,205387,1,2,0:0:0:0:
168,184,205554,5,6,0:0:0:0:
324,384,205721,1,0,0:0:0:0:
419,148,205887,1,2,0:0:0:0:
397,146,205970,1,2,0:0:0:0:
376,144,206053,1,2,0:0:0:0:
355,142,206137,1,2,0:0:0:0:
334,141,206221,6,0,P|287:152|240:159,1,95.6250036478044,6|0,0:0|0:0,0:0:0:0:
216,148,206554,1,2,0:0:0:0:
355,49,206721,1,2,0:0:0:0:
384,226,206887,1,2,0:0:0:0:
180,40,207054,1,2,0:0:0:0:
172,252,207220,1,2,0:0:0:0:
336,32,207387,1,2,0:0:0:0:
484,276,207553,5,2,0:0:0:0:
448,64,207720,1,2,0:0:0:0:
280,312,207887,5,6,0:0:0:0:
244,100,208054,1,2,0:0:0:0:
484,276,208221,6,0,L|480:336,1,42.5,2|2,0:0|0:0,0:0:0:0:
182,270,208387,1,2,0:0:0:0:
165,238,208470,1,2,0:0:0:0:
161,202,208553,1,2,0:0:0:0:
167,168,208637,1,2,0:0:0:0:
185,137,208720,1,2,0:0:0:0:
211,114,208803,1,2,0:0:0:0:
244,100,208887,5,6,0:0:0:0:
430,201,209054,2,0,L|425:286,1,85,0|10,0:0|0:0,0:0:0:0:
260,84,209387,5,0,0:0:0:0:
447,185,209554,2,0,L|441:269,1,85,2|0,0:0|0:0,0:0:0:0:
276,68,209887,5,10,0:0:0:0:
463,169,210054,2,0,L|457:253,1,85,0|2,0:0|0:0,0:0:0:0:
292,52,210387,5,0,0:0:0:0:
479,153,210554,2,0,L|473:237,1,85,10|0,0:0|0:0,0:0:0:0:
265,324,210887,5,2,0:0:0:0:
373,135,211054,1,0,0:0:0:0:
184,27,211221,1,10,0:0:0:0:
76,216,211387,1,2,0:0:0:0:
76,216,211471,1,2,0:0:0:0:
76,216,211554,5,2,0:0:0:0:
265,324,211721,2,0,L|276:236,1,85,0|10,0:0|0:0,0:0:0:0:
60,232,212054,5,0,0:0:0:0:
249,340,212221,2,0,L|260:252,1,85,2|0,0:0|0:0,0:0:0:0:
44,248,212554,5,10,0:0:0:0:
233,356,212721,2,0,L|244:268,1,85,0|2,0:0|0:0,0:0:0:0:
28,264,213054,5,0,0:0:0:0:
216,372,213221,2,0,L|228:284,1,85,10|0,0:0|0:0,0:0:0:0:
64,88,213554,5,2,0:0:0:0:
121,298,213721,1,0,0:0:0:0:
331,240,213888,1,10,0:0:0:0:
274,30,214054,1,2,0:0:0:0:
274,30,214138,1,2,0:0:0:0:
274,30,214221,5,6,0:0:0:0:
226,269,214387,1,0,0:0:0:0:
456,191,214554,1,8,0:0:0:0:
174,134,214721,5,0,0:0:0:0:
365,302,214887,1,2,0:0:0:0:
416,52,215054,1,0,0:0:0:0:
216,279,215221,5,8,0:0:0:0:
469,193,215387,1,0,0:0:0:0:
159,131,215554,5,2,0:0:0:0:
426,41,215721,1,2,0:0:0:0:
370,316,215887,5,12,0:0:0:0:
269,16,216054,1,2,0:0:0:0:
483,195,216221,5,2,0:0:0:0:
501,234,216304,1,2,0:0:0:0:
500,276,216387,1,2,0:0:0:0:
483,314,216471,1,2,0:0:0:0:
451,342,216554,1,2,0:0:0:0:
410,354,216637,1,2,0:0:0:0:
369,348,216721,1,2,0:0:0:0:
333,326,216804,1,2,0:0:0:0:
310,291,216887,6,0,L|318:187,1,85,12|0,0:0|0:0,0:0:0:0:
184,328,217221,1,2,0:0:0:0:
52,200,217387,6,0,L|44:96,1,85,12|0,0:0|0:0,0:0:0:0:
178,237,217721,1,2,0:0:0:0:
192,24,217887,5,10,0:0:0:0:
96,280,218054,1,2,0:0:0:0:
96,280,218221,1,2,0:0:0:0:
388,224,218387,5,10,0:0:0:0:
136,128,218554,1,2,0:0:0:0:
136,128,218721,1,2,0:0:0:0:
432,12,218887,5,10,0:0:0:0:
468,252,219054,1,2,0:0:0:0:
168,28,219221,5,10,0:0:0:0:
158,272,219388,1,2,0:0:0:0:
460,116,219554,5,12,0:0:0:0:
186,156,219721,1,2,0:0:0:0:
470,92,219887,1,2,0:0:0:0:
240,312,220054,5,12,0:0:0:0:
212,32,220220,1,2,0:0:0:0:
271,320,220387,1,2,0:0:0:0:
392,16,220554,5,12,0:0:0:0:
120,128,220721,1,2,0:0:0:0:
416,32,220887,1,2,0:0:0:0:
176,276,221054,5,12,0:0:0:0:
464,184,221220,1,2,0:0:0:0:
152,252,221387,1,2,0:0:0:0:
344,48,221554,5,8,0:3:0:0:
344,48,221665,2,0,B|313:43|313:43|291:56,1,56.6666666666667,8|8,0:3|0:3,0:0:0:0:
328,248,221887,5,4,0:3:0:0:
328,248,221998,2,0,B|358:252|358:252|381:239,1,56.6666666666667,4|4,0:3|0:3,0:0:0:0:
236,204,222221,6,0,P|237:255|246:306,1,101.999996887207,6|0,0:0|0:0,0:0:0:0:
156,332,222721,2,0,P|154:281|145:230,1,101.999996887207,2|0,0:0|0:0,0:0:0:0:
128,140,223221,2,0,P|3:141|76:41,1,305.999990661621,2|2,0:0|0:0,0:0:0:0:
76,41,224554,1,2,0:0:0:0:
252,88,224887,6,0,P|302:80|352:70,1,101.999996887207,2|0,0:0|0:0,0:0:0:0:
372,160,225387,2,0,P|321:167|271:177,1,101.999996887207,2|0,0:0|0:0,0:0:0:0:
224,256,225887,2,0,B|272:256|304:292|304:292|283:400|176:394|131:339,1,305.999990661621,2|2,0:0|0:0,0:0:0:0:
44,212,227221,5,0,0:0:0:0:
44,206,227304,1,0,0:0:0:0:
45,199,227387,1,0,0:0:0:0:
46,193,227471,1,0,0:0:0:0:
47,187,227554,6,0,P|48:120|27:71,1,101.999996887207,6|0,0:0|0:0,0:0:0:0:
124,56,228054,2,0,P|160:68|192:68,1,50.9999984436036,2|0,0:0|0:0,0:0:0:0:
264,52,228387,1,2,0:0:0:0:
264,52,228554,1,2,0:0:0:0:
304,148,228721,6,0,L|236:160,1,50.9999984436036,2|0,0:0|0:0,0:0:0:0:
248,260,229054,2,0,L|348:243,1,101.999996887207,2|2,0:0|0:0,0:0:0:0:
452,232,229554,2,0,P|447:203|426:180,1,50.9999984436036,2|0,0:0|0:0,0:0:0:0:
388,92,229887,2,0,P|409:74|420:44,1,50.9999984436036,2|0,0:0|0:0,0:0:0:0:
316,12,230221,6,0,P|280:36|208:60,1,101.999996887207,2|0,0:0|0:0,0:0:0:0:
128,112,230721,2,0,P|164:136|236:160,1,101.999996887207,2|0,0:0|0:0,0:0:0:0:
316,212,231221,2,0,P|280:236|208:260,1,101.999996887207,2|0,0:0|0:0,0:0:0:0:
128,312,231721,2,0,P|164:336|236:360,1,101.999996887207,2|0,0:0|0:0,0:0:0:0:
316,212,232221,6,0,L|312:131,1,68,2|0,0:0|0:0,0:0:0:0:
124,244,232554,2,0,L|127:312,1,68,2|0,0:0|0:0,0:0:0:0:
172,124,232887,6,0,L|24:148,1,136,6|2,0:0|0:0,0:0:0:0:
124,244,233387,1,0,0:0:0:0:
252,212,233554,2,0,P|292:180|308:136,1,68,2|0,0:0|0:0,0:0:0:0:
156,108,233887,6,0,L|8:132,1,136,2|2,0:0|0:0,0:0:0:0:
108,228,234387,1,0,0:0:0:0:
236,196,234554,2,0,P|276:164|292:120,1,68,2|0,0:0|0:0,0:0:0:0:
436,60,234887,5,2,0:0:0:0:
467,198,235054,1,2,0:3:0:0:
451,43,235221,1,2,0:0:0:0:
481,180,235388,1,2,0:3:0:0:
304,208,235554,6,0,L|288:58,1,136,2|2,0:0|0:0,0:0:0:0:
407,130,236054,1,0,0:0:0:0:
409,262,236221,2,0,P|388:309|350:336,1,68,2|0,0:0|0:0,0:0:0:0:
288,192,236554,6,0,L|272:42,1,136,2|2,0:0|0:0,0:0:0:0:
391,114,237054,1,0,0:0:0:0:
393,246,237221,2,0,P|372:293|334:320,1,68,2|0,0:0|0:0,0:0:0:0:
216,300,237554,6,0,P|171:249|100:236,1,136,2|2,0:0|0:0,0:0:0:0:
116,348,238054,1,2,0:3:0:0:
304,364,238221,6,0,L|384:352,1,68,2|0,0:0|0:0,0:0:0:0:
364,208,238554,2,0,L|284:196,1,68,2|0,0:0|0:0,0:0:0:0:
264,56,238887,2,0,P|314:12|380:16,1,136,2|2,0:0|0:0,0:0:0:0:
472,175,239387,6,0,P|461:208|456:241,1,68,0|2,0:0|0:0,0:0:0:0:
324,144,239721,2,0,P|322:177|326:211,1,68,0|2,0:0|0:0,0:0:0:0:
180,140,240054,2,0,P|169:172|164:205,1,68,0|2,0:0|0:0,0:0:0:0:
31,108,240388,2,0,P|29:141|33:175,1,68,0|2,0:0|0:0,0:0:0:0:
180,140,240721,6,0,L|278:122,1,68,0|6,0:0|0:0,0:0:0:0:
180,348,241054,2,0,L|81:330,1,68,0|2,0:0|0:0,0:0:0:0:
31,108,241387,5,2,0:0:0:0:
58,88,241470,1,2,0:0:0:0:
89,75,241553,1,2,0:0:0:0:
123,74,241637,1,2,0:0:0:0:
156,82,241720,1,2,0:0:0:0:
186,98,241804,1,2,0:0:0:0:
215,114,241887,1,2,0:0:0:0:
248,123,241970,1,2,0:0:0:0:
282,120,242054,1,2,0:0:0:0:
314,109,242137,1,2,0:0:0:0:
341,89,242220,1,2,0:0:0:0:
256,192,242304,12,0,244554,0:0:0:0:
350,106,244887,5,12,0:0:0:0:
312,312,245054,1,2,0:0:0:0:
152,176,245221,1,2,0:0:0:0:
390,220,245387,6,0,L|494:188,1,93.5000028533936,12|2,0:0|0:0,0:0:0:0:
394,40,245721,1,2,0:0:0:0:
312,312,245887,5,12,0:0:0:0:
270,75,246054,1,2,0:0:0:0:
497,153,246221,1,2,0:0:0:0:
252,200,246387,5,12,0:0:0:0:
488,284,246554,1,2,0:0:0:0:
444,36,246721,1,2,0:0:0:0:
188,284,246887,5,12,0:0:0:0:
220,36,247054,1,2,0:0:0:0:
488,284,247221,5,14,0:0:0:0:
444,36,247387,1,2,0:0:0:0:
444,36,247471,1,2,0:0:0:0:
444,36,247554,5,14,0:0:0:0:
332,272,247721,1,2,0:0:0:0:
220,36,247887,1,2,0:0:0:0:
512,116,248054,6,0,L|496:228,1,93.5000028533936,12|2,0:0|0:0,0:0:0:0:
344,32,248387,1,2,0:0:0:0:
232,224,248554,6,0,L|248:336,1,93.5000028533936,12|2,0:0|0:0,0:0:0:0:
400,140,248887,1,2,0:0:0:0:
136,76,249054,5,12,0:0:0:0:
360,240,249221,1,2,0:0:0:0:
92,308,249387,1,2,0:0:0:0:
340,120,249554,5,12,0:0:0:0:
369,354,249721,1,2,0:0:0:0:
136,76,249887,5,12,0:0:0:0:
92,308,250054,1,2,0:0:0:0:
92,308,250137,1,2,0:0:0:0:
92,308,250221,5,12,0:0:0:0:
340,236,250387,1,2,0:0:0:0:
136,76,250554,1,2,0:0:0:0:
400,132,250721,5,12,0:0:0:0:
152,204,250887,1,2,0:0:0:0:
356,364,251054,1,2,0:0:0:0:
82,318,251221,5,12,0:0:0:0:
355,238,251387,1,2,0:0:0:0:
130,62,251554,1,2,0:0:0:0:
409,121,251721,5,12,0:0:0:0:
136,201,251887,1,2,0:0:0:0:
361,377,252054,1,2,0:0:0:0:
130,62,252221,5,12,0:0:0:0:
82,318,252387,1,2,0:0:0:0:
410,122,252554,5,12,0:0:0:0:
361,377,252720,1,2,0:0:0:0:
361,377,252804,1,2,0:0:0:0:
361,377,252887,6,0,L|268:356,1,93.5000028533936,12|2,0:0|0:0,0:0:0:0:
464,228,253221,1,2,0:0:0:0:
268,128,253387,6,0,L|174:149,1,93.5000028533936,12|2,0:0|0:0,0:0:0:0:
370,277,253721,1,2,0:0:0:0:
164,32,253887,5,12,0:0:0:0:
140,279,254054,1,2,0:0:0:0:
396,76,254221,6,0,L|332:56,1,46.7500014266968,2|2,0:0|0:0,0:0:0:0:
164,32,254387,2,0,L|125:57,1,46.7500014266968,2|2,0:0|0:0,0:0:0:0:
140,279,254554,5,2,0:0:0:0:
172,292,254637,1,2,0:0:0:0:
207,290,254720,1,2,0:0:0:0:
237,274,254804,1,2,0:0:0:0:
258,246,254888,5,2,0:0:0:0:
250,201,254971,1,2,0:0:0:0:
226,161,255054,1,2,0:0:0:0:
188,134,255138,1,2,0:0:0:0:
144,123,255221,1,2,0:0:0:0:
98,129,255304,1,2,0:0:0:0:
58,154,255388,1,2,0:0:0:0:
30,190,255471,1,2,0:0:0:0:
19,236,255554,5,6,0:0:0:0:
208,44,255721,1,0,0:0:0:0:
256,308,255887,1,8,0:0:0:0:
208,44,256054,2,0,P|162:33|115:31,1,93.5000028533936,0|2,0:0|0:0,0:0:0:0:
296,180,256387,2,0,P|342:177|388:167,1,93.5000028533936,0|8,0:0|0:0,0:0:0:0:
512,60,256721,1,0,0:0:0:0:
208,20,256887,5,2,0:0:0:0:
280,280,257054,1,0,0:0:0:0:
424,52,257221,1,8,0:0:0:0:
280,279,257387,2,0,P|284:326|300:370,1,93.5000028533936,0|2,0:0|0:0,0:0:0:0:
72,284,257721,2,0,P|91:241|99:195,1,93.5000028533936,0|8,0:0|0:0,0:0:0:0:
28,8,258054,1,2,0:0:0:0:
28,8,258137,1,2,0:0:0:0:
28,8,258221,5,2,0:0:0:0:
268,128,258387,1,0,0:0:0:0:
12,216,258554,1,8,0:0:0:0:
268,128,258721,2,0,P|324:112|372:108,1,93.5000028533936,0|2,0:0|0:0,0:0:0:0:
280,332,259054,2,0,P|233:326|189:312,1,93.5000028533936,0|8,0:0|0:0,0:0:0:0:
120,128,259387,1,0,0:0:0:0:
344,48,259554,6,0,P|328:140|320:240,1,187.000005706787,2|8,0:0|0:0,0:0:0:0:
472,160,260054,1,0,0:0:0:0:
204,64,260221,5,2,0:0:0:0:
236,344,260387,1,8,0:0:0:0:
204,64,260554,1,2,0:0:0:0:
472,160,260721,6,0,L|280:136,1,187.000005706787,12|0,0:0|0:0,0:0:0:0:
24,32,261221,2,0,L|116:20,1,93.5000028533936,8|0,0:0|0:0,0:0:0:0:
320,172,261554,5,2,0:0:0:0:
24,32,261721,1,0,0:0:0:0:
48,268,261887,1,8,0:0:0:0:
304,56,262054,2,0,L|192:40,1,93.5000028533936,0|2,0:0|0:0,0:0:0:0:
272,252,262387,2,0,L|179:265,1,93.5000028533936,0|8,0:0|0:0,0:0:0:0:
388,104,262721,2,0,L|500:88,1,93.5000028533936,0|2,0:0|0:0,0:0:0:0:
420,300,263054,2,0,L|512:313,1,93.5000028533936,0|8,0:0|0:0,0:0:0:0:
304,152,263387,1,0,0:0:0:0:
68,256,263554,6,0,P|72:320|84:364,1,93.5000028533936,6|0,0:0|0:0,0:0:0:0:
304,152,263887,2,0,P|300:88|288:44,1,93.5000028533936,8|0,0:0|0:0,0:0:0:0:
72,128,264221,5,2,0:0:0:0:
272,284,264387,1,2,0:0:0:0:
396,32,264554,1,12,0:0:0:0:
188,180,264721,1,2,0:0:0:0:
399,300,264887,5,2,0:0:0:0:
428,270,264970,1,2,0:0:0:0:
440,231,265053,1,2,0:0:0:0:
433,191,265136,1,2,0:0:0:0:
409,159,265220,1,2,0:0:0:0:
373,140,265303,1,2,0:0:0:0:
333,139,265386,1,2,0:0:0:0:
296,156,265470,1,2,0:0:0:0:
272,189,265554,5,2,0:0:0:0:
242,224,265637,1,2,0:0:0:0:
200,244,265720,1,2,0:0:0:0:
154,246,265803,1,2,0:0:0:0:
111,227,265887,1,2,0:0:0:0:
80,193,265970,1,2,0:0:0:0:
65,149,266053,1,2,0:0:0:0:
71,103,266137,1,2,0:0:0:0:
95,64,266221,6,0,L|214:50,1,93.5000028533936,12|2,0:0|0:0,0:0:0:0:
359,32,266554,1,2,0:0:0:0:
418,278,266721,6,0,L|299:264,1,93.5000028533936,12|2,0:0|0:0,0:0:0:0:
154,246,267054,1,2,0:0:0:0:
359,32,267221,6,0,L|372:136,1,93.5000028533936,12|2,0:0|0:0,0:0:0:0:
220,24,267554,1,2,0:0:0:0:
154,246,267721,6,0,L|166:350,1,93.5000028533936,12|2,0:0|0:0,0:0:0:0:
286,204,268054,1,2,0:0:0:0:
60,80,268221,5,12,0:0:0:0:
32,304,268387,1,2,0:0:0:0:
280,92,268554,5,12,0:0:0:0:
308,316,268720,1,2,0:0:0:0:
308,316,268804,1,2,0:0:0:0:
308,316,268887,6,0,L|188:340,1,93.5000028533936,12|2,0:0|0:0,0:0:0:0:
32,304,269221,1,2,0:0:0:0:
188,110,269387,6,0,L|280:92,1,93.5000028533936,12|2,0:0|0:0,0:0:0:0:
465,123,269721,1,2,0:0:0:0:
224,300,269887,5,12,0:0:0:0:
376,104,270054,1,2,0:0:0:0:
464,336,270221,1,2,0:0:0:0:
248,152,270387,5,12,0:0:0:0:
336,384,270554,1,2,0:0:0:0:
488,188,270721,1,2,0:0:0:0:
224,300,270887,5,2,0:0:0:0:
192,314,270970,1,2,0:0:0:0:
157,315,271053,1,2,0:0:0:0:
124,303,271136,1,2,0:0:0:0:
99,279,271220,1,2,0:0:0:0:
84,248,271303,1,2,0:0:0:0:
82,213,271386,1,2,0:0:0:0:
94,180,271470,1,2,0:0:0:0:
117,154,271553,5,12,0:0:0:0:
344,276,271721,1,2,0:0:0:0:
335,19,271887,1,2,0:0:0:0:
192,287,272054,5,12,0:0:0:0:
183,18,272222,1,2,0:0:0:0:
420,144,272388,1,2,0:0:0:0:
102,155,272554,5,12,0:0:0:0:
351,288,272722,1,2,0:0:0:0:
341,5,272888,1,2,0:0:0:0:
188,294,273054,5,12,0:0:0:0:
179,11,273222,1,2,0:0:0:0:
428,144,273388,1,2,0:0:0:0:
102,155,273554,5,8,0:3:0:0:
102,155,273665,2,0,B|93:188|93:188|98:215,1,62.3333352355958,8|8,0:3|0:3,0:0:0:0:
284,252,273887,5,4,0:3:0:0:
284,252,273998,2,0,B|292:218|292:218|286:190,1,62.3333352355958,4|4,0:3|0:3,0:0:0:0:
172,320,274221,5,4,0:0:0:0:
256,192,274304,12,0,276054,0:0:0:0:
263,117,276387,5,2,0:0:0:0:
263,117,276471,1,2,0:0:0:0:
263,117,276554,1,6,0:0:0:0:
248,265,276721,1,2,0:0:0:0:
444,288,276887,6,0,L|430:195,1,93.5000028533936,12|2,0:0|0:0,0:0:0:0:
404,32,277221,1,2,0:0:0:0:
188,8,277387,6,0,L|174:100,1,93.5000028533936,12|2,0:0|0:0,0:0:0:0:
148,264,277721,1,2,0:0:0:0:
424,172,277887,6,0,P|352:164|316:180,1,93.5000028533936,12|2,0:0|0:0,0:0:0:0:
380,316,278221,1,2,0:0:0:0:
104,120,278387,6,0,P|176:112|212:128,1,93.5000028533936,12|2,0:0|0:0,0:0:0:0:
148,264,278721,1,2,0:0:0:0:
372,64,278887,5,12,0:0:0:0:
384,288,279054,1,2,0:0:0:0:
156,40,279221,5,12,0:0:0:0:
148,264,279388,1,2,0:0:0:0:
444,152,279554,5,12,0:0:0:0:
264,300,279721,1,2,0:0:0:0:
224,68,279887,1,2,0:0:0:0:
436,252,280054,6,0,L|424:356,1,93.5000028533936,12|2,0:0|0:0,0:0:0:0:
296,180,280387,1,2,0:0:0:0:
184,384,280554,5,12,0:0:0:0:
119,120,280721,1,2,0:0:0:0:
380,196,280887,1,2,0:0:0:0:
84,316,281054,6,0,L|72:212,1,93.5000028533936,12|2,0:0|0:0,0:0:0:0:
288,332,281387,1,2,0:0:0:0:
344,60,281554,5,12,0:0:0:0:
88,136,281720,1,2,0:0:0:0:
396,312,281887,5,12,0:0:0:0:
120,304,282053,1,2,0:0:0:0:
210,39,282221,5,12,0:0:0:0:
290,315,282387,1,2,0:0:0:0:
430,63,282554,1,2,0:0:0:0:
402,367,282721,5,12,0:0:0:0:
322,91,282887,1,2,0:0:0:0:
182,343,283054,1,2,0:0:0:0:
496,124,283221,5,12,0:0:0:0:
193,212,283387,1,2,0:0:0:0:
470,366,283554,1,2,0:0:0:0:
148,336,283721,5,12,0:0:0:0:
452,248,283887,1,2,0:0:0:0:
175,94,284054,1,2,0:0:0:0:
512,196,284221,5,12,0:0:0:0:
220,360,284387,1,2,0:0:0:0:
220,360,284471,1,2,0:0:0:0:
220,360,284554,5,12,0:0:0:0:
248,28,284721,1,2,0:0:0:0:
504,308,284887,6,0,L|400:328,1,93.5000028533936,12|2,0:0|0:0,0:0:0:0:
220,360,285221,1,2,0:0:0:0:
180,92,285387,6,0,L|284:112,1,93.5000028533936,12|2,0:0|0:0,0:0:0:0:
464,144,285721,1,2,0:0:0:0:
216,284,285887,5,12,0:0:0:0:
252,0,286054,1,2,0:0:0:0:
0,136,286221,6,0,L|16:220,1,46.7500014266968,2|2,0:0|0:0,0:0:0:0:
88,352,286387,2,0,L|96:306,1,46.7500014266968,2|2,0:0|0:0,0:0:0:0:
164,128,286554,2,0,L|180:212,1,46.7500014266968,2|2,0:0|0:0,0:0:0:0:
252,344,286720,2,0,L|260:298,1,46.7500014266968,2|2,0:0|0:0,0:0:0:0:
328,119,286887,5,2,0:0:0:0:
369,100,286970,1,2,0:0:0:0:
416,98,287053,1,2,0:0:0:0:
459,116,287136,1,2,0:0:0:0:
491,149,287220,1,2,0:0:0:0:
507,193,287303,1,2,0:0:0:0:
504,239,287386,1,2,0:0:0:0:
483,280,287470,1,2,0:0:0:0:
448,310,287554,6,0,L|328:322,1,93.5000028533936,12|2,0:0|0:0,0:0:0:0:
232,144,287887,1,2,0:0:0:0:
108,372,288054,6,0,L|228:384,1,93.5000028533936,12|2,0:0|0:0,0:0:0:0:
324,206,288387,1,2,0:0:0:0:
48,96,288554,6,0,L|56:196,1,93.5000028533936,12|2,0:0|0:0,0:0:0:0:
211,10,288887,1,2,0:0:0:0:
324,206,289054,6,0,L|316:306,1,93.5000028533936,12|2,0:0|0:0,0:0:0:0:
161,120,289387,1,2,0:0:0:0:
416,32,289554,5,12,0:0:0:0:
220,212,289721,1,2,0:0:0:0:
220,212,289804,1,2,0:0:0:0:
220,212,289887,5,12,0:0:0:0:
480,260,290054,1,2,0:0:0:0:
220,372,290221,6,0,L|124:348,1,93.5000028533936,12|2,0:0|0:0,0:0:0:0:
336,284,290554,1,2,0:0:0:0:
104,124,290721,6,0,L|8:148,1,93.5000028533936,12|2,0:0|0:0,0:0:0:0:
220,212,291054,1,2,0:0:0:0:
424,92,291221,6,0,L|412:0,1,93.5000028533936,12|2,0:0|0:0,0:0:0:0:
268,64,291554,1,2,0:0:0:0:
264,288,291721,6,0,L|275:380,1,93.5000028533936,12|2,0:0|0:0,0:0:0:0:
420,316,292054,1,2,0:0:0:0:
172,88,292221,5,12,0:0:0:0:
148,341,292387,1,2,0:0:0:0:
399,63,292554,5,12,0:0:0:0:
420,316,292720,1,2,0:0:0:0:
420,316,292804,1,2,0:0:0:0:
420,316,292887,5,12,0:0:0:0:
168,212,293054,1,0,0:0:0:0:
399,63,293221,1,0,0:0:0:0:
240,368,293387,5,12,0:0:0:0:
472,180,293554,1,0,0:0:0:0:
208,40,293721,1,0,0:0:0:0:
140,344,293887,5,12,0:0:0:0:
292,108,294054,1,0,0:0:0:0:
368,380,294221,1,0,0:0:0:0:
116,176,294387,5,12,0:0:0:0:
400,312,294554,1,0,0:0:0:0:
440,0,294721,1,0,0:0:0:0:
160,272,294887,5,12,0:0:0:0:
132,0,295054,1,2,0:0:0:0:
400,312,295221,5,12,0:0:0:0:
444,36,295388,1,2,0:0:0:0:
444,36,295471,1,2,0:0:0:0:
444,36,295554,2,0,L|372:28,1,46.7500014266968,12|2,0:0|0:0,0:0:0:0:
180,8,295721,5,2,0:0:0:0:
153,30,295804,1,2,0:0:0:0:
137,61,295887,1,2,0:0:0:0:
135,96,295970,1,2,0:0:0:0:
146,129,296054,2,0,L|218:137,1,50.9999984436036,12|2,0:0|0:0,0:0:0:0:
448,128,296221,5,2,0:0:0:0:
464,163,296304,1,2,0:0:0:0:
464,202,296387,1,2,0:0:0:0:
446,236,296470,1,2,0:0:0:0:
418,259,296554,2,0,L|346:251,1,55.2499974708558,12|2,0:0|0:0,0:0:0:0:
140,220,296721,5,2,0:0:0:0:
110,248,296804,1,2,0:0:0:0:
94,286,296887,1,2,0:0:0:0:
97,327,296970,1,2,0:0:0:0:
117,363,297054,2,0,L|189:371,1,59.4999981842042,12|2,0:0|0:0,0:0:0:0:
409,383,297221,5,2,0:0:0:0:
430,344,297304,1,2,0:0:0:0:
433,300,297387,1,2,0:0:0:0:
418,259,297470,1,2,0:0:0:0:
387,227,297554,2,0,L|315:235,1,63.7500024318696,12|2,0:0|0:0,0:0:0:0:
110,248,297721,5,2,0:0:0:0:
76,209,297804,1,2,0:0:0:0:
64,158,297887,1,2,0:0:0:0:
78,107,297970,1,2,0:0:0:0:
114,69,298054,1,2,0:0:0:0:
164,53,298137,1,2,0:0:0:0:
216,63,298220,1,4,0:0:0:0:
256,192,298304,12,0,303554,0:0:0:0:
