osu file format v14

[General]
AudioFilename: audio.mp3
AudioLeadIn: 0
PreviewTime: 244216
Countdown: 0
SampleSet: Normal
StackLeniency: 0.7
Mode: 3
LetterboxInBreaks: 0
SpecialStyle: 0
WidescreenStoryboard: 0

[Editor]
DistanceSpacing: 1.4
BeatDivisor: 4
GridSize: 16
TimelineZoom: 2.5

[Metadata]
Title:Neo-Aspect
TitleUnicode:Neo-Aspect
Artist:Roselia
ArtistUnicode:Roselia
Creator:Damaree
Version:Brighter Future // 4K
Source:バンドリ! ガールズバンドパーティ!
Tags:BanG Dream! Garupa Bandori Girls Band Party!Minato Yukina Hikawa Sayo Imai Lisa Udagawa Ako Shirokane Rinko Asuka Oda bandori game version
BeatmapID:2106898
BeatmapSetID:1006727

[Difficulty]
HPDrainRate:8
CircleSize:4
OverallDifficulty:8
ApproachRate:5
SliderMultiplier:1.4
SliderTickRate:1

[Events]
//Background and Video events
0,0,"gearclock.png",0,0
//Break Periods
//Storyboard Layer 0 (Background)
//Storyboard Layer 1 (Fail)
//Storyboard Layer 2 (Pass)
//Storyboard Layer 3 (Foreground)
//Storyboard Sound Samples

[TimingPoints]
883,333.333333333333,4,1,0,0,1,0
70216,-100,4,1,0,0,0,1
80799,-100,4,1,0,0,0,0
80882,-100,4,1,0,0,0,1
94216,-100,4,1,0,0,0,0
96882,-100,4,1,0,0,0,1
107549,-100,4,1,0,0,0,0
160882,-100,4,1,0,0,0,1
171466,-100,4,1,0,0,0,0
171549,-100,4,1,0,0,0,1
184882,-100,4,1,0,0,0,0
244882,-100,4,1,0,0,0,1
255466,-100,4,1,0,0,0,0
255549,-100,4,1,0,0,0,1
266132,-100,4,1,0,0,0,0
266216,-100,4,1,0,0,0,1
271466,-100,4,1,0,0,0,0
271549,-100,4,1,0,0,0,1
274216,-100,4,1,0,0,0,0
276882,-100,4,1,0,0,0,1
298216,-100,4,1,0,0,0,0

[HitObjects]
64,192,882,5,0,0:0:0:0:
448,192,882,1,0,0:0:0:0:
64,192,1049,1,0,0:0:0:0:
64,192,1216,1,0,0:0:0:0:
64,192,1382,1,0,0:0:0:0:
320,192,1382,1,0,0:0:0:0:
64,192,1549,1,0,0:0:0:0:
64,192,1716,1,0,0:0:0:0:
64,192,1882,1,0,0:0:0:0:
192,192,1882,1,0,0:0:0:0:
64,192,2049,1,0,0:0:0:0:
64,192,2216,1,0,0:0:0:0:
64,192,2382,1,0,0:0:0:0:
64,192,2549,1,0,0:0:0:0:
64,192,2716,1,0,0:0:0:0:
64,192,2882,1,0,0:0:0:0:
64,192,3049,1,0,0:0:0:0:
64,192,3216,1,0,0:0:0:0:
64,192,3382,1,0,0:0:0:0:
64,192,3549,1,0,0:0:0:0:
448,192,3549,1,0,0:0:0:0:
448,192,3716,1,0,0:0:0:0:
448,192,3882,1,0,0:0:0:0:
192,192,4049,1,0,0:0:0:0:
448,192,4049,1,0,0:0:0:0:
448,192,4216,1,0,0:0:0:0:
448,192,4382,1,0,0:0:0:0:
320,192,4549,1,0,0:0:0:0:
448,192,4549,1,0,0:0:0:0:
448,192,4716,1,0,0:0:0:0:
448,192,4882,1,0,0:0:0:0:
448,192,5049,1,0,0:0:0:0:
448,192,5216,1,0,0:0:0:0:
448,192,5382,1,0,0:0:0:0:
448,192,5549,1,0,0:0:0:0:
448,192,5716,1,0,0:0:0:0:
448,192,5882,1,0,0:0:0:0:
448,192,6049,1,0,0:0:0:0:
448,192,6216,1,0,0:0:0:0:
64,192,6216,1,0,0:0:0:0:
64,192,6382,1,0,0:0:0:0:
64,192,6549,1,0,0:0:0:0:
320,192,6716,1,0,0:0:0:0:
64,192,6716,1,0,0:0:0:0:
64,192,6882,1,0,0:0:0:0:
64,192,7049,1,0,0:0:0:0:
64,192,7216,1,0,0:0:0:0:
192,192,7216,1,0,0:0:0:0:
64,192,7382,1,0,0:0:0:0:
64,192,7549,1,0,0:0:0:0:
64,192,7716,1,0,0:0:0:0:
64,192,7882,1,0,0:0:0:0:
64,192,8049,1,0,0:0:0:0:
64,192,8216,1,0,0:0:0:0:
64,192,8382,1,0,0:0:0:0:
64,192,8549,1,0,0:0:0:0:
64,192,8716,1,0,0:0:0:0:
64,192,8882,1,0,0:0:0:0:
448,192,8882,1,0,0:0:0:0:
448,192,9049,1,0,0:0:0:0:
448,192,9216,1,0,0:0:0:0:
192,192,9382,1,0,0:0:0:0:
448,192,9382,1,0,0:0:0:0:
448,192,9549,1,0,0:0:0:0:
448,192,9716,1,0,0:0:0:0:
448,192,9882,1,0,0:0:0:0:
320,192,9882,1,0,0:0:0:0:
448,192,10049,1,0,0:0:0:0:
448,192,10216,1,0,0:0:0:0:
448,192,10382,1,0,0:0:0:0:
64,192,10382,128,0,11382:0:0:0:0:
448,192,11382,1,0,0:0:0:0:
320,192,11382,1,0,0:0:0:0:
192,192,11466,1,0,0:0:0:0:
64,192,11466,1,0,0:0:0:0:
448,192,11549,1,0,0:0:0:0:
320,192,11549,1,0,0:0:0:0:
320,192,11716,1,0,0:0:0:0:
192,192,11716,1,0,0:0:0:0:
320,192,12049,1,0,0:0:0:0:
64,192,12049,128,0,12382:0:0:0:0:
192,192,12049,128,0,12382:0:0:0:0:
448,192,12382,1,0,0:0:0:0:
320,192,12466,1,0,0:0:0:0:
64,192,12549,1,0,0:0:0:0:
192,192,12549,1,0,0:0:0:0:
192,192,12716,1,0,0:0:0:0:
64,192,12716,1,0,0:0:0:0:
448,192,13049,128,0,13382:0:0:0:0:
320,192,13049,128,0,13382:0:0:0:0:
192,192,13049,1,0,0:0:0:0:
64,192,13382,1,0,0:0:0:0:
448,192,13549,1,0,0:0:0:0:
192,192,13549,1,0,0:0:0:0:
320,192,13632,1,0,0:0:0:0:
192,192,13716,1,0,0:0:0:0:
320,192,13799,1,0,0:0:0:0:
448,192,13882,128,0,14216:0:0:0:0:
64,192,13882,128,0,14216:0:0:0:0:
192,192,13882,1,0,0:0:0:0:
320,192,14216,1,0,0:0:0:0:
192,192,14216,1,0,0:0:0:0:
320,192,14382,1,0,0:0:0:0:
192,192,14382,1,0,0:0:0:0:
320,192,14716,128,0,15049:0:0:0:0:
64,192,14716,128,0,15049:0:0:0:0:
448,192,14716,1,0,0:0:0:0:
448,192,15049,1,0,0:0:0:0:
320,192,15132,1,0,0:0:0:0:
448,192,15216,1,0,0:0:0:0:
192,192,15216,1,0,0:0:0:0:
192,192,15382,1,0,0:0:0:0:
448,192,15382,1,0,0:0:0:0:
192,192,15716,128,0,16049:0:0:0:0:
448,192,15716,128,0,16049:0:0:0:0:
64,192,15716,1,0,0:0:0:0:
320,192,16049,1,0,0:0:0:0:
64,192,16216,1,0,0:0:0:0:
192,192,16216,1,0,0:0:0:0:
192,192,16382,1,0,0:0:0:0:
64,192,16382,1,0,0:0:0:0:
320,192,16466,1,0,0:0:0:0:
448,192,16549,1,0,0:0:0:0:
64,192,16549,1,0,0:0:0:0:
192,192,16632,1,0,0:0:0:0:
320,192,16716,1,0,0:0:0:0:
448,192,16716,1,0,0:0:0:0:
64,192,16799,1,0,0:0:0:0:
320,192,16882,1,0,0:0:0:0:
192,192,16882,1,0,0:0:0:0:
448,192,16882,128,0,17382:0:0:0:0:
64,192,17049,1,0,0:0:0:0:
64,192,17216,1,0,0:0:0:0:
192,192,17382,128,0,17882:0:0:0:0:
320,192,17382,1,0,0:0:0:0:
64,192,17382,1,0,0:0:0:0:
320,192,17549,1,0,0:0:0:0:
320,192,17716,1,0,0:0:0:0:
64,192,17882,128,0,18382:0:0:0:0:
320,192,17882,1,0,0:0:0:0:
448,192,17882,1,0,0:0:0:0:
448,192,18049,1,0,0:0:0:0:
448,192,18216,1,0,0:0:0:0:
320,192,18382,128,0,18882:0:0:0:0:
448,192,18382,1,0,0:0:0:0:
192,192,18382,1,0,0:0:0:0:
192,192,18549,1,0,0:0:0:0:
192,192,18716,1,0,0:0:0:0:
448,192,18882,128,0,19216:0:0:0:0:
192,192,18882,1,0,0:0:0:0:
64,192,18882,1,0,0:0:0:0:
64,192,19049,1,0,0:0:0:0:
192,192,19216,128,0,19549:0:0:0:0:
64,192,19216,1,0,0:0:0:0:
320,192,19216,1,0,0:0:0:0:
320,192,19382,1,0,0:0:0:0:
64,192,19466,1,0,0:0:0:0:
320,192,19549,128,0,20049:0:0:0:0:
448,192,19549,1,0,0:0:0:0:
448,192,19716,1,0,0:0:0:0:
448,192,19882,1,0,0:0:0:0:
64,192,20049,128,0,20549:0:0:0:0:
448,192,20049,1,0,0:0:0:0:
192,192,20049,1,0,0:0:0:0:
192,192,20216,1,0,0:0:0:0:
192,192,20382,1,0,0:0:0:0:
448,192,20549,128,0,21049:0:0:0:0:
192,192,20549,1,0,0:0:0:0:
320,192,20549,1,0,0:0:0:0:
320,192,20716,1,0,0:0:0:0:
320,192,20882,1,0,0:0:0:0:
192,192,21049,128,0,21549:0:0:0:0:
320,192,21049,1,0,0:0:0:0:
64,192,21049,1,0,0:0:0:0:
64,192,21216,1,0,0:0:0:0:
64,192,21382,1,0,0:0:0:0:
64,192,21549,128,0,21882:0:0:0:0:
320,192,21549,1,0,0:0:0:0:
448,192,21549,1,0,0:0:0:0:
448,192,21716,1,0,0:0:0:0:
448,192,21882,1,0,0:0:0:0:
320,192,21882,1,0,0:0:0:0:
192,192,21966,1,0,0:0:0:0:
64,192,22049,1,0,0:0:0:0:
320,192,22049,1,0,0:0:0:0:
448,192,22132,1,0,0:0:0:0:
192,192,22216,1,0,0:0:0:0:
320,192,22216,1,0,0:0:0:0:
64,192,22216,128,0,22716:0:0:0:0:
448,192,22382,1,0,0:0:0:0:
448,192,22549,1,0,0:0:0:0:
320,192,22716,128,0,23216:0:0:0:0:
192,192,22716,1,0,0:0:0:0:
448,192,22716,1,0,0:0:0:0:
192,192,22882,1,0,0:0:0:0:
192,192,23049,1,0,0:0:0:0:
448,192,23216,128,0,23716:0:0:0:0:
192,192,23216,1,0,0:0:0:0:
64,192,23216,1,0,0:0:0:0:
64,192,23382,1,0,0:0:0:0:
64,192,23549,1,0,0:0:0:0:
192,192,23716,128,0,24216:0:0:0:0:
64,192,23716,1,0,0:0:0:0:
320,192,23716,1,0,0:0:0:0:
320,192,23882,1,0,0:0:0:0:
320,192,24049,1,0,0:0:0:0:
64,192,24216,128,0,24549:0:0:0:0:
320,192,24216,1,0,0:0:0:0:
448,192,24216,1,0,0:0:0:0:
448,192,24382,1,0,0:0:0:0:
320,192,24549,128,0,24882:0:0:0:0:
448,192,24549,1,0,0:0:0:0:
192,192,24549,1,0,0:0:0:0:
192,192,24716,1,0,0:0:0:0:
192,192,24882,128,0,25382:0:0:0:0:
448,192,24882,1,0,0:0:0:0:
64,192,24882,1,0,0:0:0:0:
64,192,25049,1,0,0:0:0:0:
64,192,25216,1,0,0:0:0:0:
448,192,25382,128,0,25882:0:0:0:0:
64,192,25382,1,0,0:0:0:0:
320,192,25382,1,0,0:0:0:0:
320,192,25549,1,0,0:0:0:0:
320,192,25716,1,0,0:0:0:0:
64,192,25882,128,0,26382:0:0:0:0:
320,192,25882,1,0,0:0:0:0:
192,192,25882,1,0,0:0:0:0:
192,192,26049,1,0,0:0:0:0:
192,192,26216,1,0,0:0:0:0:
320,192,26382,128,0,26882:0:0:0:0:
192,192,26382,1,0,0:0:0:0:
448,192,26382,1,0,0:0:0:0:
448,192,26549,1,0,0:0:0:0:
448,192,26716,1,0,0:0:0:0:
64,192,26882,1,0,0:0:0:0:
192,192,26882,1,0,0:0:0:0:
448,192,26966,1,0,0:0:0:0:
320,192,26966,1,0,0:0:0:0:
192,192,27049,1,0,0:0:0:0:
64,192,27049,1,0,0:0:0:0:
320,192,27132,1,0,0:0:0:0:
448,192,27132,1,0,0:0:0:0:
192,192,27216,1,0,0:0:0:0:
64,192,27216,1,0,0:0:0:0:
448,192,27299,1,0,0:0:0:0:
320,192,27299,1,0,0:0:0:0:
192,192,27382,1,0,0:0:0:0:
64,192,27382,1,0,0:0:0:0:
448,192,27466,1,0,0:0:0:0:
320,192,27466,1,0,0:0:0:0:
192,192,27549,1,0,0:0:0:0:
64,192,27549,128,0,30216:0:0:0:0:
448,192,27549,1,0,0:0:0:0:
448,192,30216,1,0,0:0:0:0:
320,192,30716,1,0,0:0:0:0:
192,192,31216,1,0,0:0:0:0:
320,192,32882,1,0,0:0:0:0:
448,192,32882,1,0,0:0:0:0:
192,192,33382,1,0,0:0:0:0:
64,192,33882,1,0,0:0:0:0:
64,192,35549,1,0,0:0:0:0:
192,192,36049,1,0,0:0:0:0:
320,192,36549,1,0,0:0:0:0:
448,192,37049,1,0,0:0:0:0:
192,192,37549,1,0,0:0:0:0:
320,192,37882,1,0,0:0:0:0:
448,192,37882,1,0,0:0:0:0:
64,192,38216,1,0,0:0:0:0:
192,192,38216,1,0,0:0:0:0:
448,192,38216,1,0,0:0:0:0:
64,192,38382,1,0,0:0:0:0:
64,192,38549,1,0,0:0:0:0:
320,192,38549,1,0,0:0:0:0:
448,192,38549,1,0,0:0:0:0:
320,192,38716,1,0,0:0:0:0:
320,192,38882,1,0,0:0:0:0:
192,192,38882,1,0,0:0:0:0:
192,192,39049,1,0,0:0:0:0:
192,192,39216,1,0,0:0:0:0:
448,192,39216,1,0,0:0:0:0:
448,192,39382,1,0,0:0:0:0:
64,192,39382,1,0,0:0:0:0:
320,192,39382,1,0,0:0:0:0:
64,192,39549,1,0,0:0:0:0:
192,192,39549,1,0,0:0:0:0:
64,192,39716,1,0,0:0:0:0:
64,192,39882,1,0,0:0:0:0:
320,192,39882,1,0,0:0:0:0:
448,192,39882,1,0,0:0:0:0:
320,192,40049,1,0,0:0:0:0:
320,192,40216,1,0,0:0:0:0:
448,192,40216,1,0,0:0:0:0:
448,192,40382,1,0,0:0:0:0:
448,192,40549,1,0,0:0:0:0:
192,192,40549,1,0,0:0:0:0:
320,192,40549,1,0,0:0:0:0:
448,192,40716,1,0,0:0:0:0:
64,192,40716,1,0,0:0:0:0:
192,192,40799,1,0,0:0:0:0:
320,192,40799,1,0,0:0:0:0:
64,192,40882,1,0,0:0:0:0:
448,192,40882,1,0,0:0:0:0:
64,192,41049,1,0,0:0:0:0:
64,192,41216,1,0,0:0:0:0:
192,192,41216,1,0,0:0:0:0:
320,192,41216,1,0,0:0:0:0:
320,192,41382,1,0,0:0:0:0:
320,192,41549,1,0,0:0:0:0:
192,192,41549,1,0,0:0:0:0:
192,192,41716,1,0,0:0:0:0:
192,192,41882,1,0,0:0:0:0:
448,192,41882,1,0,0:0:0:0:
448,192,42049,1,0,0:0:0:0:
320,192,42049,1,0,0:0:0:0:
64,192,42049,1,0,0:0:0:0:
320,192,42216,1,0,0:0:0:0:
192,192,42216,1,0,0:0:0:0:
192,192,42382,1,0,0:0:0:0:
192,192,42549,1,0,0:0:0:0:
448,192,42549,1,0,0:0:0:0:
64,192,42549,1,0,0:0:0:0:
64,192,42716,1,0,0:0:0:0:
64,192,42882,1,0,0:0:0:0:
320,192,42882,1,0,0:0:0:0:
448,192,43049,1,0,0:0:0:0:
320,192,43049,1,0,0:0:0:0:
64,192,43132,1,0,0:0:0:0:
192,192,43132,1,0,0:0:0:0:
448,192,43216,1,0,0:0:0:0:
320,192,43216,1,0,0:0:0:0:
192,192,43299,1,0,0:0:0:0:
64,192,43299,1,0,0:0:0:0:
320,192,43382,1,0,0:0:0:0:
448,192,43382,1,0,0:0:0:0:
192,192,43466,1,0,0:0:0:0:
64,192,43466,1,0,0:0:0:0:
320,192,43549,1,0,0:0:0:0:
448,192,43549,1,0,0:0:0:0:
64,192,43549,1,0,0:0:0:0:
448,192,43716,1,0,0:0:0:0:
64,192,43882,1,0,0:0:0:0:
192,192,43882,1,0,0:0:0:0:
448,192,43882,1,0,0:0:0:0:
192,192,44049,1,0,0:0:0:0:
192,192,44216,1,0,0:0:0:0:
320,192,44216,1,0,0:0:0:0:
320,192,44382,1,0,0:0:0:0:
320,192,44549,1,0,0:0:0:0:
64,192,44549,1,0,0:0:0:0:
64,192,44716,1,0,0:0:0:0:
192,192,44716,1,0,0:0:0:0:
448,192,44716,1,0,0:0:0:0:
320,192,44882,1,0,0:0:0:0:
448,192,44882,1,0,0:0:0:0:
320,192,45049,1,0,0:0:0:0:
320,192,45216,1,0,0:0:0:0:
192,192,45216,1,0,0:0:0:0:
64,192,45216,1,0,0:0:0:0:
192,192,45382,1,0,0:0:0:0:
448,192,45549,1,0,0:0:0:0:
192,192,45549,1,0,0:0:0:0:
448,192,45716,1,0,0:0:0:0:
448,192,45882,1,0,0:0:0:0:
192,192,45882,1,0,0:0:0:0:
64,192,45882,1,0,0:0:0:0:
64,192,46049,1,0,0:0:0:0:
320,192,46216,1,0,0:0:0:0:
448,192,46216,1,0,0:0:0:0:
64,192,46216,1,0,0:0:0:0:
320,192,46382,1,0,0:0:0:0:
320,192,46549,1,0,0:0:0:0:
192,192,46549,1,0,0:0:0:0:
64,192,46549,1,0,0:0:0:0:
192,192,46716,1,0,0:0:0:0:
448,192,46882,1,0,0:0:0:0:
192,192,46882,1,0,0:0:0:0:
448,192,47049,1,0,0:0:0:0:
64,192,47049,1,0,0:0:0:0:
64,192,47216,1,0,0:0:0:0:
192,192,47382,1,0,0:0:0:0:
448,192,47382,1,0,0:0:0:0:
192,192,47549,1,0,0:0:0:0:
320,192,47716,1,0,0:0:0:0:
192,192,47716,1,0,0:0:0:0:
448,192,47882,1,0,0:0:0:0:
320,192,47882,1,0,0:0:0:0:
64,192,47882,1,0,0:0:0:0:
448,192,48049,1,0,0:0:0:0:
192,192,48216,1,0,0:0:0:0:
64,192,48216,1,0,0:0:0:0:
320,192,48299,1,0,0:0:0:0:
192,192,48382,1,0,0:0:0:0:
64,192,48382,1,0,0:0:0:0:
320,192,48466,1,0,0:0:0:0:
448,192,48466,1,0,0:0:0:0:
192,192,48549,1,0,0:0:0:0:
64,192,48549,1,0,0:0:0:0:
448,192,48632,1,0,0:0:0:0:
320,192,48632,1,0,0:0:0:0:
192,192,48716,1,0,0:0:0:0:
64,192,48716,1,0,0:0:0:0:
320,192,48799,1,0,0:0:0:0:
448,192,48799,1,0,0:0:0:0:
192,192,48882,1,0,0:0:0:0:
448,192,48882,1,0,0:0:0:0:
64,192,48882,128,0,49216:0:0:0:0:
448,192,49216,1,0,0:0:0:0:
320,192,49216,1,0,0:0:0:0:
192,192,49216,1,0,0:0:0:0:
192,192,49382,128,0,49716:0:0:0:0:
64,192,49549,1,0,0:0:0:0:
320,192,49549,1,0,0:0:0:0:
448,192,49716,1,0,0:0:0:0:
64,192,49716,1,0,0:0:0:0:
320,192,49882,128,0,50216:0:0:0:0:
192,192,50049,1,0,0:0:0:0:
64,192,50049,1,0,0:0:0:0:
448,192,50049,1,0,0:0:0:0:
64,192,50216,1,0,0:0:0:0:
448,192,50382,128,0,50716:0:0:0:0:
320,192,50382,1,0,0:0:0:0:
192,192,50549,1,0,0:0:0:0:
64,192,50549,1,0,0:0:0:0:
320,192,50549,1,0,0:0:0:0:
64,192,50882,1,0,0:0:0:0:
320,192,50882,1,0,0:0:0:0:
320,192,51049,1,0,0:0:0:0:
192,192,51049,1,0,0:0:0:0:
192,192,51216,1,0,0:0:0:0:
448,192,51216,1,0,0:0:0:0:
64,192,51216,1,0,0:0:0:0:
448,192,51382,1,0,0:0:0:0:
320,192,51382,1,0,0:0:0:0:
192,192,51466,1,0,0:0:0:0:
64,192,51466,1,0,0:0:0:0:
448,192,51549,128,0,51882:0:0:0:0:
320,192,51549,1,0,0:0:0:0:
64,192,51549,1,0,0:0:0:0:
192,192,51882,1,0,0:0:0:0:
64,192,51882,1,0,0:0:0:0:
320,192,51882,1,0,0:0:0:0:
320,192,52049,128,0,52382:0:0:0:0:
448,192,52216,1,0,0:0:0:0:
192,192,52216,1,0,0:0:0:0:
192,192,52382,1,0,0:0:0:0:
64,192,52382,1,0,0:0:0:0:
192,192,52549,128,0,52882:0:0:0:0:
320,192,52716,1,0,0:0:0:0:
448,192,52716,1,0,0:0:0:0:
64,192,52716,1,0,0:0:0:0:
320,192,52882,1,0,0:0:0:0:
448,192,53049,1,0,0:0:0:0:
64,192,53049,128,0,53382:0:0:0:0:
320,192,53216,1,0,0:0:0:0:
192,192,53216,1,0,0:0:0:0:
448,192,53216,1,0,0:0:0:0:
192,192,53382,1,0,0:0:0:0:
320,192,53549,1,0,0:0:0:0:
192,192,53549,1,0,0:0:0:0:
448,192,53716,1,0,0:0:0:0:
320,192,53716,1,0,0:0:0:0:
192,192,53799,1,0,0:0:0:0:
64,192,53799,1,0,0:0:0:0:
320,192,53882,1,0,0:0:0:0:
448,192,53882,1,0,0:0:0:0:
192,192,53966,1,0,0:0:0:0:
64,192,53966,1,0,0:0:0:0:
320,192,54049,1,0,0:0:0:0:
448,192,54049,1,0,0:0:0:0:
192,192,54132,1,0,0:0:0:0:
64,192,54132,1,0,0:0:0:0:
320,192,54216,1,0,0:0:0:0:
64,192,54216,1,0,0:0:0:0:
448,192,54216,128,0,56716:0:0:0:0:
192,192,54549,1,0,0:0:0:0:
64,192,54549,1,0,0:0:0:0:
320,192,54882,1,0,0:0:0:0:
192,192,54882,1,0,0:0:0:0:
320,192,55049,1,0,0:0:0:0:
192,192,55049,1,0,0:0:0:0:
64,192,55382,1,0,0:0:0:0:
320,192,55382,1,0,0:0:0:0:
192,192,55716,1,0,0:0:0:0:
320,192,55716,1,0,0:0:0:0:
64,192,55882,1,0,0:0:0:0:
192,192,55882,1,0,0:0:0:0:
192,192,56216,1,0,0:0:0:0:
320,192,56216,1,0,0:0:0:0:
192,192,56382,1,0,0:0:0:0:
320,192,56382,1,0,0:0:0:0:
320,192,56549,1,0,0:0:0:0:
64,192,56549,1,0,0:0:0:0:
64,192,56882,128,0,59216:0:0:0:0:
320,192,56882,1,0,0:0:0:0:
192,192,56882,1,0,0:0:0:0:
448,192,57216,1,0,0:0:0:0:
320,192,57216,1,0,0:0:0:0:
448,192,57549,1,0,0:0:0:0:
320,192,57549,1,0,0:0:0:0:
448,192,57716,1,0,0:0:0:0:
320,192,57716,1,0,0:0:0:0:
192,192,57882,1,0,0:0:0:0:
320,192,58049,1,0,0:0:0:0:
448,192,58049,1,0,0:0:0:0:
192,192,58382,1,0,0:0:0:0:
448,192,58382,1,0,0:0:0:0:
192,192,58549,1,0,0:0:0:0:
320,192,58549,1,0,0:0:0:0:
448,192,58716,1,0,0:0:0:0:
320,192,58716,1,0,0:0:0:0:
192,192,58799,1,0,0:0:0:0:
448,192,58882,1,0,0:0:0:0:
320,192,58882,1,0,0:0:0:0:
192,192,58966,1,0,0:0:0:0:
448,192,59049,1,0,0:0:0:0:
320,192,59049,1,0,0:0:0:0:
320,192,59216,1,0,0:0:0:0:
192,192,59216,1,0,0:0:0:0:
448,192,59216,1,0,0:0:0:0:
320,192,59549,1,0,0:0:0:0:
64,192,59549,1,0,0:0:0:0:
448,192,59549,128,0,59882:0:0:0:0:
64,192,59882,1,0,0:0:0:0:
192,192,59882,1,0,0:0:0:0:
320,192,59882,1,0,0:0:0:0:
320,192,60049,128,0,60382:0:0:0:0:
448,192,60216,1,0,0:0:0:0:
192,192,60216,1,0,0:0:0:0:
64,192,60382,1,0,0:0:0:0:
192,192,60549,128,0,60882:0:0:0:0:
320,192,60549,1,0,0:0:0:0:
448,192,60549,1,0,0:0:0:0:
448,192,60882,1,0,0:0:0:0:
64,192,60882,1,0,0:0:0:0:
64,192,61049,128,0,61382:0:0:0:0:
320,192,61216,1,0,0:0:0:0:
448,192,61216,1,0,0:0:0:0:
192,192,61216,1,0,0:0:0:0:
320,192,61382,1,0,0:0:0:0:
448,192,61549,1,0,0:0:0:0:
192,192,61549,1,0,0:0:0:0:
64,192,61716,1,0,0:0:0:0:
64,192,61882,1,0,0:0:0:0:
448,192,61882,1,0,0:0:0:0:
320,192,61882,1,0,0:0:0:0:
192,192,62049,1,0,0:0:0:0:
64,192,62216,128,0,62549:0:0:0:0:
448,192,62216,1,0,0:0:0:0:
320,192,62549,1,0,0:0:0:0:
448,192,62549,1,0,0:0:0:0:
192,192,62549,1,0,0:0:0:0:
192,192,62716,128,0,63049:0:0:0:0:
64,192,62882,1,0,0:0:0:0:
320,192,62882,1,0,0:0:0:0:
448,192,63049,1,0,0:0:0:0:
320,192,63216,128,0,63549:0:0:0:0:
64,192,63216,1,0,0:0:0:0:
192,192,63216,1,0,0:0:0:0:
192,192,63549,1,0,0:0:0:0:
448,192,63549,1,0,0:0:0:0:
64,192,63716,1,0,0:0:0:0:
448,192,63716,128,0,64049:0:0:0:0:
192,192,63882,1,0,0:0:0:0:
320,192,63882,1,0,0:0:0:0:
64,192,63882,1,0,0:0:0:0:
320,192,64049,1,0,0:0:0:0:
192,192,64049,1,0,0:0:0:0:
64,192,64216,1,0,0:0:0:0:
448,192,64216,1,0,0:0:0:0:
192,192,64299,1,0,0:0:0:0:
64,192,64382,1,0,0:0:0:0:
448,192,64382,1,0,0:0:0:0:
320,192,64466,1,0,0:0:0:0:
448,192,64549,1,0,0:0:0:0:
64,192,64549,1,0,0:0:0:0:
192,192,64632,1,0,0:0:0:0:
448,192,64716,1,0,0:0:0:0:
64,192,64716,1,0,0:0:0:0:
320,192,64799,1,0,0:0:0:0:
192,192,64882,1,0,0:0:0:0:
448,192,64882,1,0,0:0:0:0:
64,192,64882,128,0,67382:0:0:0:0:
320,192,65049,1,0,0:0:0:0:
320,192,65216,1,0,0:0:0:0:
320,192,65382,1,0,0:0:0:0:
448,192,65382,1,0,0:0:0:0:
192,192,65382,1,0,0:0:0:0:
448,192,65549,1,0,0:0:0:0:
448,192,65716,1,0,0:0:0:0:
448,192,65882,1,0,0:0:0:0:
192,192,65882,1,0,0:0:0:0:
320,192,65882,1,0,0:0:0:0:
192,192,66049,1,0,0:0:0:0:
192,192,66216,1,0,0:0:0:0:
192,192,66382,1,0,0:0:0:0:
448,192,66382,1,0,0:0:0:0:
320,192,66382,1,0,0:0:0:0:
448,192,66549,1,0,0:0:0:0:
448,192,66716,1,0,0:0:0:0:
320,192,66882,1,0,0:0:0:0:
448,192,66882,1,0,0:0:0:0:
192,192,66882,1,0,0:0:0:0:
320,192,67049,1,0,0:0:0:0:
192,192,67216,1,0,0:0:0:0:
320,192,67216,1,0,0:0:0:0:
448,192,67216,1,0,0:0:0:0:
192,192,67382,1,0,0:0:0:0:
448,192,67382,1,0,0:0:0:0:
320,192,67466,1,0,0:0:0:0:
448,192,67549,128,0,68882:0:0:0:0:
192,192,67549,1,0,0:0:0:0:
64,192,67549,1,0,0:0:0:0:
192,192,67882,1,0,0:0:0:0:
64,192,67882,1,0,0:0:0:0:
64,192,68049,1,0,0:0:0:0:
192,192,68049,1,0,0:0:0:0:
64,192,68216,1,0,0:0:0:0:
192,192,68216,1,0,0:0:0:0:
64,192,68382,1,0,0:0:0:0:
192,192,68382,1,0,0:0:0:0:
192,192,68549,1,0,0:0:0:0:
64,192,68549,1,0,0:0:0:0:
192,192,68716,1,0,0:0:0:0:
64,192,68716,1,0,0:0:0:0:
192,192,68882,1,0,0:0:0:0:
64,192,68882,128,0,68966:0:0:0:0:
64,192,69049,128,0,69132:0:0:0:0:
64,192,69216,128,0,69299:0:0:0:0:
64,192,69382,128,0,69466:0:0:0:0:
192,192,70216,1,0,0:0:0:0:
64,192,70216,1,0,0:0:0:0:
448,192,70216,1,0,0:0:0:0:
320,192,70216,1,0,0:0:0:0:
64,192,70382,1,0,0:0:0:0:
320,192,70382,1,0,0:0:0:0:
64,192,70549,1,0,0:0:0:0:
192,192,70549,1,0,0:0:0:0:
320,192,70716,1,0,0:0:0:0:
448,192,70716,1,0,0:0:0:0:
64,192,70716,1,0,0:0:0:0:
192,192,70716,1,0,0:0:0:0:
192,192,70882,1,0,0:0:0:0:
448,192,70882,1,0,0:0:0:0:
448,192,71049,1,0,0:0:0:0:
320,192,71049,1,0,0:0:0:0:
192,192,71216,1,0,0:0:0:0:
320,192,71216,1,0,0:0:0:0:
64,192,71216,1,0,0:0:0:0:
448,192,71216,1,0,0:0:0:0:
192,192,71382,1,0,0:0:0:0:
448,192,71382,1,0,0:0:0:0:
192,192,71549,1,0,0:0:0:0:
320,192,71549,1,0,0:0:0:0:
64,192,71716,1,0,0:0:0:0:
320,192,71716,1,0,0:0:0:0:
448,192,71716,1,0,0:0:0:0:
192,192,71716,1,0,0:0:0:0:
320,192,71882,1,0,0:0:0:0:
64,192,71882,1,0,0:0:0:0:
320,192,72049,1,0,0:0:0:0:
448,192,72049,1,0,0:0:0:0:
320,192,72216,1,0,0:0:0:0:
192,192,72216,1,0,0:0:0:0:
64,192,72216,1,0,0:0:0:0:
64,192,72382,1,0,0:0:0:0:
448,192,72382,1,0,0:0:0:0:
192,192,72549,1,0,0:0:0:0:
320,192,72549,1,0,0:0:0:0:
448,192,72549,1,0,0:0:0:0:
64,192,72716,1,0,0:0:0:0:
192,192,72716,1,0,0:0:0:0:
320,192,72799,1,0,0:0:0:0:
192,192,72882,1,0,0:0:0:0:
64,192,72882,1,0,0:0:0:0:
448,192,72882,1,0,0:0:0:0:
192,192,73049,1,0,0:0:0:0:
320,192,73049,1,0,0:0:0:0:
192,192,73216,1,0,0:0:0:0:
448,192,73216,1,0,0:0:0:0:
448,192,73382,1,0,0:0:0:0:
64,192,73382,1,0,0:0:0:0:
320,192,73382,1,0,0:0:0:0:
192,192,73382,1,0,0:0:0:0:
64,192,73549,1,0,0:0:0:0:
192,192,73549,1,0,0:0:0:0:
192,192,73716,1,0,0:0:0:0:
320,192,73716,1,0,0:0:0:0:
320,192,73882,1,0,0:0:0:0:
64,192,73882,1,0,0:0:0:0:
448,192,73882,1,0,0:0:0:0:
192,192,73882,1,0,0:0:0:0:
192,192,74049,1,0,0:0:0:0:
448,192,74049,1,0,0:0:0:0:
448,192,74216,1,0,0:0:0:0:
64,192,74216,1,0,0:0:0:0:
320,192,74382,1,0,0:0:0:0:
192,192,74382,1,0,0:0:0:0:
64,192,74382,1,0,0:0:0:0:
448,192,74382,1,0,0:0:0:0:
64,192,74549,1,0,0:0:0:0:
448,192,74549,1,0,0:0:0:0:
64,192,74716,1,0,0:0:0:0:
192,192,74716,1,0,0:0:0:0:
320,192,74882,1,0,0:0:0:0:
448,192,74882,1,0,0:0:0:0:
192,192,74882,1,0,0:0:0:0:
320,192,75049,1,0,0:0:0:0:
192,192,75049,1,0,0:0:0:0:
320,192,75216,1,0,0:0:0:0:
448,192,75216,1,0,0:0:0:0:
64,192,75216,1,0,0:0:0:0:
320,192,75382,1,0,0:0:0:0:
192,192,75382,1,0,0:0:0:0:
64,192,75466,1,0,0:0:0:0:
448,192,75549,1,0,0:0:0:0:
320,192,75549,1,0,0:0:0:0:
192,192,75549,1,0,0:0:0:0:
448,192,75716,1,0,0:0:0:0:
64,192,75716,1,0,0:0:0:0:
448,192,75882,1,0,0:0:0:0:
192,192,75882,1,0,0:0:0:0:
320,192,76049,1,0,0:0:0:0:
448,192,76049,1,0,0:0:0:0:
64,192,76049,1,0,0:0:0:0:
192,192,76049,1,0,0:0:0:0:
320,192,76216,1,0,0:0:0:0:
64,192,76216,1,0,0:0:0:0:
192,192,76382,1,0,0:0:0:0:
64,192,76382,1,0,0:0:0:0:
320,192,76549,1,0,0:0:0:0:
192,192,76549,1,0,0:0:0:0:
448,192,76549,1,0,0:0:0:0:
64,192,76549,1,0,0:0:0:0:
320,192,76716,1,0,0:0:0:0:
64,192,76716,1,0,0:0:0:0:
320,192,76882,1,0,0:0:0:0:
192,192,76882,1,0,0:0:0:0:
448,192,77049,1,0,0:0:0:0:
192,192,77049,1,0,0:0:0:0:
64,192,77049,1,0,0:0:0:0:
320,192,77049,1,0,0:0:0:0:
64,192,77216,1,0,0:0:0:0:
320,192,77216,1,0,0:0:0:0:
64,192,77382,1,0,0:0:0:0:
448,192,77382,1,0,0:0:0:0:
320,192,77549,1,0,0:0:0:0:
192,192,77549,1,0,0:0:0:0:
64,192,77549,1,0,0:0:0:0:
192,192,77716,1,0,0:0:0:0:
448,192,77716,1,0,0:0:0:0:
192,192,77882,1,0,0:0:0:0:
320,192,77882,1,0,0:0:0:0:
448,192,77882,1,0,0:0:0:0:
448,192,78049,1,0,0:0:0:0:
192,192,78049,1,0,0:0:0:0:
320,192,78132,1,0,0:0:0:0:
192,192,78216,1,0,0:0:0:0:
64,192,78216,1,0,0:0:0:0:
448,192,78216,1,0,0:0:0:0:
448,192,78382,1,0,0:0:0:0:
320,192,78382,1,0,0:0:0:0:
448,192,78549,1,0,0:0:0:0:
64,192,78549,1,0,0:0:0:0:
448,192,78716,1,0,0:0:0:0:
192,192,78716,1,0,0:0:0:0:
64,192,78716,1,0,0:0:0:0:
320,192,78716,1,0,0:0:0:0:
192,192,78882,1,0,0:0:0:0:
320,192,78882,1,0,0:0:0:0:
192,192,79049,1,0,0:0:0:0:
448,192,79049,1,0,0:0:0:0:
320,192,79216,1,0,0:0:0:0:
192,192,79216,1,0,0:0:0:0:
64,192,79216,1,0,0:0:0:0:
448,192,79216,1,0,0:0:0:0:
320,192,79382,1,0,0:0:0:0:
448,192,79382,1,0,0:0:0:0:
320,192,79549,1,0,0:0:0:0:
64,192,79549,1,0,0:0:0:0:
448,192,79549,1,0,0:0:0:0:
192,192,79549,1,0,0:0:0:0:
192,192,79716,1,0,0:0:0:0:
64,192,79716,1,0,0:0:0:0:
64,192,79882,1,0,0:0:0:0:
320,192,79882,1,0,0:0:0:0:
448,192,79882,1,0,0:0:0:0:
192,192,79882,1,0,0:0:0:0:
192,192,80049,1,0,0:0:0:0:
320,192,80049,1,0,0:0:0:0:
448,192,80216,1,0,0:0:0:0:
64,192,80216,1,0,0:0:0:0:
448,192,80382,1,0,0:0:0:0:
320,192,80382,1,0,0:0:0:0:
192,192,80466,1,0,0:0:0:0:
64,192,80466,1,0,0:0:0:0:
320,192,80549,1,0,0:0:0:0:
448,192,80549,1,0,0:0:0:0:
192,192,80632,1,0,0:0:0:0:
64,192,80632,1,0,0:0:0:0:
320,192,80716,1,0,0:0:0:0:
448,192,80716,1,0,0:0:0:0:
192,192,80799,1,0,0:0:0:0:
64,192,80799,1,0,0:0:0:0:
448,192,80882,1,0,0:0:0:0:
320,192,80882,1,0,0:0:0:0:
64,192,80882,1,0,0:0:0:0:
192,192,81049,1,0,0:0:0:0:
320,192,81216,1,0,0:0:0:0:
448,192,81216,1,0,0:0:0:0:
64,192,81216,1,0,0:0:0:0:
320,192,81382,1,0,0:0:0:0:
192,192,81549,1,0,0:0:0:0:
64,192,81549,1,0,0:0:0:0:
448,192,81716,1,0,0:0:0:0:
320,192,81882,1,0,0:0:0:0:
192,192,81882,1,0,0:0:0:0:
64,192,81882,1,0,0:0:0:0:
448,192,82049,1,0,0:0:0:0:
320,192,82216,1,0,0:0:0:0:
64,192,82216,1,0,0:0:0:0:
192,192,82382,1,0,0:0:0:0:
320,192,82549,1,0,0:0:0:0:
448,192,82549,1,0,0:0:0:0:
64,192,82549,1,0,0:0:0:0:
64,192,82716,1,0,0:0:0:0:
192,192,82882,1,0,0:0:0:0:
320,192,82882,1,0,0:0:0:0:
448,192,83049,1,0,0:0:0:0:
320,192,83216,1,0,0:0:0:0:
192,192,83216,1,0,0:0:0:0:
64,192,83216,1,0,0:0:0:0:
448,192,83382,1,0,0:0:0:0:
320,192,83382,1,0,0:0:0:0:
192,192,83466,1,0,0:0:0:0:
64,192,83466,1,0,0:0:0:0:
320,192,83549,1,0,0:0:0:0:
448,192,83549,1,0,0:0:0:0:
64,192,83549,1,0,0:0:0:0:
192,192,83549,1,0,0:0:0:0:
320,192,83716,1,0,0:0:0:0:
192,192,83882,1,0,0:0:0:0:
64,192,83882,1,0,0:0:0:0:
448,192,83882,1,0,0:0:0:0:
192,192,84049,1,0,0:0:0:0:
320,192,84216,1,0,0:0:0:0:
448,192,84216,1,0,0:0:0:0:
64,192,84382,1,0,0:0:0:0:
192,192,84549,1,0,0:0:0:0:
320,192,84549,1,0,0:0:0:0:
448,192,84549,1,0,0:0:0:0:
64,192,84716,1,0,0:0:0:0:
448,192,84882,1,0,0:0:0:0:
192,192,84882,1,0,0:0:0:0:
320,192,85049,1,0,0:0:0:0:
448,192,85216,1,0,0:0:0:0:
192,192,85216,1,0,0:0:0:0:
64,192,85216,1,0,0:0:0:0:
192,192,85382,1,0,0:0:0:0:
320,192,85549,1,0,0:0:0:0:
448,192,85549,1,0,0:0:0:0:
320,192,85716,1,0,0:0:0:0:
192,192,85716,1,0,0:0:0:0:
64,192,85716,1,0,0:0:0:0:
448,192,85716,1,0,0:0:0:0:
192,192,85882,1,0,0:0:0:0:
64,192,85882,1,0,0:0:0:0:
192,192,86049,1,0,0:0:0:0:
320,192,86049,1,0,0:0:0:0:
448,192,86049,1,0,0:0:0:0:
192,192,86216,1,0,0:0:0:0:
64,192,86216,1,0,0:0:0:0:
320,192,86216,1,0,0:0:0:0:
448,192,86216,1,0,0:0:0:0:
64,192,86382,1,0,0:0:0:0:
192,192,86549,1,0,0:0:0:0:
320,192,86549,1,0,0:0:0:0:
448,192,86549,1,0,0:0:0:0:
320,192,86716,1,0,0:0:0:0:
192,192,86882,128,0,87049:0:0:0:0:
448,192,86882,1,0,0:0:0:0:
64,192,87049,128,0,87216:0:0:0:0:
320,192,87216,128,0,87382:0:0:0:0:
192,192,87216,1,0,0:0:0:0:
448,192,87216,1,0,0:0:0:0:
448,192,87382,128,0,87716:0:0:0:0:
192,192,87549,1,0,0:0:0:0:
64,192,87549,1,0,0:0:0:0:
192,192,87716,128,0,87882:0:0:0:0:
64,192,87882,1,0,0:0:0:0:
448,192,87882,1,0,0:0:0:0:
320,192,87882,1,0,0:0:0:0:
320,192,88049,128,0,88216:0:0:0:0:
448,192,88216,128,0,88382:0:0:0:0:
192,192,88216,1,0,0:0:0:0:
64,192,88382,128,0,88716:0:0:0:0:
448,192,88549,1,0,0:0:0:0:
320,192,88549,1,0,0:0:0:0:
192,192,88549,1,0,0:0:0:0:
448,192,88716,1,0,0:0:0:0:
320,192,88716,1,0,0:0:0:0:
192,192,88799,1,0,0:0:0:0:
64,192,88799,1,0,0:0:0:0:
320,192,88882,1,0,0:0:0:0:
448,192,88882,128,0,89216:0:0:0:0:
192,192,89216,1,0,0:0:0:0:
64,192,89216,1,0,0:0:0:0:
320,192,89216,1,0,0:0:0:0:
64,192,89549,128,0,90216:0:0:0:0:
320,192,89549,1,0,0:0:0:0:
448,192,89882,1,0,0:0:0:0:
320,192,89882,1,0,0:0:0:0:
192,192,89882,1,0,0:0:0:0:
448,192,90216,128,0,90549:0:0:0:0:
320,192,90216,1,0,0:0:0:0:
192,192,90382,1,0,0:0:0:0:
320,192,90382,1,0,0:0:0:0:
64,192,90549,1,0,0:0:0:0:
192,192,90549,1,0,0:0:0:0:
320,192,90549,1,0,0:0:0:0:
320,192,90716,1,0,0:0:0:0:
192,192,90716,1,0,0:0:0:0:
192,192,90882,1,0,0:0:0:0:
64,192,90882,1,0,0:0:0:0:
320,192,90966,1,0,0:0:0:0:
192,192,91049,1,0,0:0:0:0:
448,192,91049,1,0,0:0:0:0:
64,192,91132,1,0,0:0:0:0:
320,192,91216,1,0,0:0:0:0:
448,192,91216,1,0,0:0:0:0:
192,192,91299,1,0,0:0:0:0:
448,192,91382,1,0,0:0:0:0:
320,192,91382,1,0,0:0:0:0:
64,192,91466,1,0,0:0:0:0:
192,192,91549,1,0,0:0:0:0:
320,192,91549,1,0,0:0:0:0:
448,192,91549,1,0,0:0:0:0:
320,192,91716,1,0,0:0:0:0:
448,192,91716,1,0,0:0:0:0:
448,192,91882,1,0,0:0:0:0:
320,192,91882,1,0,0:0:0:0:
320,192,92049,1,0,0:0:0:0:
448,192,92049,1,0,0:0:0:0:
192,192,92049,1,0,0:0:0:0:
64,192,92049,1,0,0:0:0:0:
64,192,92216,1,0,0:0:0:0:
192,192,92216,1,0,0:0:0:0:
192,192,92382,1,0,0:0:0:0:
64,192,92382,1,0,0:0:0:0:
64,192,92549,1,0,0:0:0:0:
192,192,92549,1,0,0:0:0:0:
320,192,92549,1,0,0:0:0:0:
448,192,92549,1,0,0:0:0:0:
448,192,92716,1,0,0:0:0:0:
320,192,92716,1,0,0:0:0:0:
320,192,92882,1,0,0:0:0:0:
448,192,92882,1,0,0:0:0:0:
448,192,93049,1,0,0:0:0:0:
320,192,93049,1,0,0:0:0:0:
192,192,93049,1,0,0:0:0:0:
64,192,93049,1,0,0:0:0:0:
192,192,93216,1,0,0:0:0:0:
64,192,93216,1,0,0:0:0:0:
64,192,93382,1,0,0:0:0:0:
192,192,93382,1,0,0:0:0:0:
192,192,93549,1,0,0:0:0:0:
64,192,93549,1,0,0:0:0:0:
320,192,93549,1,0,0:0:0:0:
448,192,93549,1,0,0:0:0:0:
448,192,93716,1,0,0:0:0:0:
320,192,93716,1,0,0:0:0:0:
320,192,93882,1,0,0:0:0:0:
448,192,93882,1,0,0:0:0:0:
192,192,93882,1,0,0:0:0:0:
64,192,93882,1,0,0:0:0:0:
192,192,94049,1,0,0:0:0:0:
64,192,94049,1,0,0:0:0:0:
64,192,94216,1,0,0:0:0:0:
192,192,94216,1,0,0:0:0:0:
448,192,94216,128,0,96382:0:0:0:0:
320,192,94216,128,0,95549:0:0:0:0:
192,192,96382,1,0,0:0:0:0:
64,192,96382,1,0,0:0:0:0:
448,192,96466,1,0,0:0:0:0:
320,192,96466,1,0,0:0:0:0:
192,192,96549,1,0,0:0:0:0:
64,192,96549,1,0,0:0:0:0:
448,192,96882,1,0,0:0:0:0:
320,192,96882,1,0,0:0:0:0:
64,192,96882,1,0,0:0:0:0:
192,192,96882,1,0,0:0:0:0:
320,192,97049,1,0,0:0:0:0:
448,192,97049,1,0,0:0:0:0:
320,192,97216,1,0,0:0:0:0:
192,192,97216,1,0,0:0:0:0:
192,192,97382,1,0,0:0:0:0:
64,192,97382,1,0,0:0:0:0:
320,192,97382,1,0,0:0:0:0:
448,192,97382,1,0,0:0:0:0:
64,192,97549,1,0,0:0:0:0:
448,192,97549,1,0,0:0:0:0:
192,192,97716,1,0,0:0:0:0:
448,192,97716,1,0,0:0:0:0:
320,192,97882,1,0,0:0:0:0:
192,192,97882,1,0,0:0:0:0:
64,192,97882,1,0,0:0:0:0:
448,192,97882,1,0,0:0:0:0:
320,192,98049,1,0,0:0:0:0:
192,192,98216,1,0,0:0:0:0:
64,192,98216,1,0,0:0:0:0:
448,192,98382,1,0,0:0:0:0:
320,192,98382,1,0,0:0:0:0:
192,192,98382,1,0,0:0:0:0:
64,192,98382,1,0,0:0:0:0:
448,192,98549,1,0,0:0:0:0:
320,192,98716,1,0,0:0:0:0:
192,192,98716,1,0,0:0:0:0:
64,192,98882,1,0,0:0:0:0:
320,192,98882,1,0,0:0:0:0:
448,192,98882,1,0,0:0:0:0:
192,192,99049,1,0,0:0:0:0:
64,192,99049,1,0,0:0:0:0:
320,192,99216,1,0,0:0:0:0:
448,192,99216,1,0,0:0:0:0:
192,192,99216,1,0,0:0:0:0:
64,192,99216,1,0,0:0:0:0:
320,192,99382,1,0,0:0:0:0:
192,192,99549,1,0,0:0:0:0:
320,192,99549,1,0,0:0:0:0:
448,192,99549,1,0,0:0:0:0:
64,192,99549,1,0,0:0:0:0:
192,192,99716,1,0,0:0:0:0:
64,192,99716,1,0,0:0:0:0:
192,192,99882,1,0,0:0:0:0:
320,192,99882,1,0,0:0:0:0:
448,192,100049,1,0,0:0:0:0:
320,192,100049,1,0,0:0:0:0:
64,192,100049,1,0,0:0:0:0:
192,192,100049,1,0,0:0:0:0:
448,192,100216,1,0,0:0:0:0:
192,192,100216,1,0,0:0:0:0:
320,192,100382,1,0,0:0:0:0:
192,192,100382,1,0,0:0:0:0:
192,192,100549,1,0,0:0:0:0:
64,192,100549,1,0,0:0:0:0:
448,192,100549,1,0,0:0:0:0:
320,192,100549,1,0,0:0:0:0:
448,192,100716,1,0,0:0:0:0:
64,192,100716,1,0,0:0:0:0:
192,192,100882,1,0,0:0:0:0:
448,192,100882,1,0,0:0:0:0:
64,192,101049,1,0,0:0:0:0:
192,192,101049,1,0,0:0:0:0:
320,192,101049,1,0,0:0:0:0:
448,192,101049,1,0,0:0:0:0:
320,192,101216,1,0,0:0:0:0:
64,192,101216,1,0,0:0:0:0:
192,192,101382,1,0,0:0:0:0:
448,192,101382,1,0,0:0:0:0:
320,192,101549,1,0,0:0:0:0:
448,192,101549,1,0,0:0:0:0:
192,192,101549,1,0,0:0:0:0:
64,192,101549,1,0,0:0:0:0:
64,192,101716,1,0,0:0:0:0:
192,192,101716,1,0,0:0:0:0:
320,192,101882,1,0,0:0:0:0:
448,192,101882,1,0,0:0:0:0:
192,192,101966,1,0,0:0:0:0:
64,192,101966,1,0,0:0:0:0:
320,192,102049,1,0,0:0:0:0:
448,192,102049,1,0,0:0:0:0:
192,192,102132,1,0,0:0:0:0:
64,192,102132,1,0,0:0:0:0:
320,192,102216,1,0,0:0:0:0:
448,192,102216,1,0,0:0:0:0:
64,192,102216,1,0,0:0:0:0:
192,192,102216,1,0,0:0:0:0:
320,192,102382,1,0,0:0:0:0:
448,192,102382,1,0,0:0:0:0:
320,192,102549,1,0,0:0:0:0:
64,192,102549,1,0,0:0:0:0:
192,192,102716,1,0,0:0:0:0:
64,192,102716,1,0,0:0:0:0:
320,192,102716,1,0,0:0:0:0:
448,192,102716,1,0,0:0:0:0:
192,192,102882,1,0,0:0:0:0:
448,192,102882,1,0,0:0:0:0:
320,192,103049,1,0,0:0:0:0:
64,192,103049,1,0,0:0:0:0:
192,192,103216,1,0,0:0:0:0:
64,192,103216,1,0,0:0:0:0:
448,192,103216,1,0,0:0:0:0:
320,192,103216,1,0,0:0:0:0:
448,192,103382,1,0,0:0:0:0:
192,192,103549,1,0,0:0:0:0:
64,192,103549,1,0,0:0:0:0:
192,192,103716,1,0,0:0:0:0:
320,192,103716,1,0,0:0:0:0:
448,192,103716,1,0,0:0:0:0:
320,192,103882,1,0,0:0:0:0:
64,192,103882,1,0,0:0:0:0:
192,192,104049,1,0,0:0:0:0:
320,192,104216,1,0,0:0:0:0:
448,192,104216,1,0,0:0:0:0:
192,192,104216,1,0,0:0:0:0:
64,192,104216,1,0,0:0:0:0:
448,192,104382,1,0,0:0:0:0:
320,192,104382,1,0,0:0:0:0:
448,192,104549,1,0,0:0:0:0:
64,192,104549,1,0,0:0:0:0:
192,192,104549,1,0,0:0:0:0:
320,192,104716,1,0,0:0:0:0:
192,192,104716,1,0,0:0:0:0:
448,192,104882,1,0,0:0:0:0:
320,192,104882,1,0,0:0:0:0:
64,192,104882,1,0,0:0:0:0:
192,192,104882,1,0,0:0:0:0:
64,192,105049,1,0,0:0:0:0:
320,192,105049,1,0,0:0:0:0:
192,192,105216,1,0,0:0:0:0:
448,192,105216,1,0,0:0:0:0:
320,192,105382,1,0,0:0:0:0:
448,192,105382,1,0,0:0:0:0:
192,192,105382,1,0,0:0:0:0:
64,192,105382,1,0,0:0:0:0:
320,192,105549,1,0,0:0:0:0:
192,192,105716,1,0,0:0:0:0:
64,192,105716,1,0,0:0:0:0:
448,192,105882,1,0,0:0:0:0:
64,192,105882,1,0,0:0:0:0:
192,192,105882,1,0,0:0:0:0:
320,192,105882,1,0,0:0:0:0:
320,192,106049,1,0,0:0:0:0:
192,192,106049,1,0,0:0:0:0:
448,192,106216,1,0,0:0:0:0:
64,192,106216,1,0,0:0:0:0:
192,192,106216,1,0,0:0:0:0:
320,192,106216,1,0,0:0:0:0:
448,192,106382,1,0,0:0:0:0:
320,192,106382,1,0,0:0:0:0:
192,192,106549,1,0,0:0:0:0:
64,192,106549,1,0,0:0:0:0:
320,192,106549,1,0,0:0:0:0:
448,192,106549,1,0,0:0:0:0:
448,192,106716,1,0,0:0:0:0:
64,192,106716,1,0,0:0:0:0:
64,192,106882,1,0,0:0:0:0:
192,192,106882,1,0,0:0:0:0:
320,192,106966,1,0,0:0:0:0:
192,192,107049,1,0,0:0:0:0:
64,192,107049,1,0,0:0:0:0:
448,192,107132,1,0,0:0:0:0:
192,192,107216,1,0,0:0:0:0:
64,192,107216,1,0,0:0:0:0:
320,192,107299,1,0,0:0:0:0:
192,192,107382,1,0,0:0:0:0:
64,192,107382,1,0,0:0:0:0:
448,192,107466,1,0,0:0:0:0:
192,192,107549,1,0,0:0:0:0:
320,192,107549,1,0,0:0:0:0:
64,192,107549,128,0,108049:0:0:0:0:
448,192,107716,1,0,0:0:0:0:
448,192,107882,1,0,0:0:0:0:
320,192,108049,128,0,108549:0:0:0:0:
192,192,108049,1,0,0:0:0:0:
448,192,108049,1,0,0:0:0:0:
192,192,108216,1,0,0:0:0:0:
192,192,108382,1,0,0:0:0:0:
448,192,108549,128,0,109049:0:0:0:0:
192,192,108549,1,0,0:0:0:0:
64,192,108549,1,0,0:0:0:0:
64,192,108716,1,0,0:0:0:0:
64,192,108882,1,0,0:0:0:0:
192,192,109049,128,0,109549:0:0:0:0:
64,192,109049,1,0,0:0:0:0:
320,192,109049,1,0,0:0:0:0:
320,192,109216,1,0,0:0:0:0:
320,192,109382,1,0,0:0:0:0:
64,192,109549,128,0,109882:0:0:0:0:
320,192,109549,1,0,0:0:0:0:
448,192,109549,1,0,0:0:0:0:
448,192,109716,1,0,0:0:0:0:
320,192,109882,128,0,110216:0:0:0:0:
448,192,109882,1,0,0:0:0:0:
192,192,109882,1,0,0:0:0:0:
448,192,110049,1,0,0:0:0:0:
192,192,110216,128,0,110716:0:0:0:0:
64,192,110216,1,0,0:0:0:0:
448,192,110216,1,0,0:0:0:0:
64,192,110382,1,0,0:0:0:0:
64,192,110549,1,0,0:0:0:0:
448,192,110716,128,0,111216:0:0:0:0:
64,192,110716,1,0,0:0:0:0:
320,192,110716,1,0,0:0:0:0:
320,192,110882,1,0,0:0:0:0:
320,192,111049,1,0,0:0:0:0:
64,192,111216,128,0,111716:0:0:0:0:
320,192,111216,1,0,0:0:0:0:
192,192,111216,1,0,0:0:0:0:
192,192,111382,1,0,0:0:0:0:
192,192,111549,1,0,0:0:0:0:
320,192,111716,128,0,112216:0:0:0:0:
192,192,111716,1,0,0:0:0:0:
448,192,111716,1,0,0:0:0:0:
448,192,111882,1,0,0:0:0:0:
448,192,112049,1,0,0:0:0:0:
448,192,112216,128,0,112549:0:0:0:0:
192,192,112216,1,0,0:0:0:0:
64,192,112216,1,0,0:0:0:0:
64,192,112382,1,0,0:0:0:0:
64,192,112549,1,0,0:0:0:0:
192,192,112549,1,0,0:0:0:0:
320,192,112632,1,0,0:0:0:0:
448,192,112716,1,0,0:0:0:0:
192,192,112716,1,0,0:0:0:0:
64,192,112799,1,0,0:0:0:0:
320,192,112882,1,0,0:0:0:0:
192,192,112882,1,0,0:0:0:0:
448,192,112882,128,0,113382:0:0:0:0:
64,192,113049,1,0,0:0:0:0:
64,192,113216,1,0,0:0:0:0:
192,192,113382,128,0,113882:0:0:0:0:
320,192,113382,1,0,0:0:0:0:
64,192,113382,1,0,0:0:0:0:
320,192,113549,1,0,0:0:0:0:
320,192,113716,1,0,0:0:0:0:
64,192,113882,128,0,114382:0:0:0:0:
320,192,113882,1,0,0:0:0:0:
448,192,113882,1,0,0:0:0:0:
448,192,114049,1,0,0:0:0:0:
448,192,114216,1,0,0:0:0:0:
320,192,114382,128,0,114882:0:0:0:0:
448,192,114382,1,0,0:0:0:0:
192,192,114382,1,0,0:0:0:0:
192,192,114549,1,0,0:0:0:0:
192,192,114716,1,0,0:0:0:0:
448,192,114882,128,0,115216:0:0:0:0:
192,192,114882,1,0,0:0:0:0:
64,192,114882,1,0,0:0:0:0:
64,192,115049,1,0,0:0:0:0:
192,192,115216,128,0,115549:0:0:0:0:
64,192,115216,1,0,0:0:0:0:
320,192,115216,1,0,0:0:0:0:
320,192,115382,1,0,0:0:0:0:
320,192,115549,128,0,116049:0:0:0:0:
64,192,115549,1,0,0:0:0:0:
448,192,115549,1,0,0:0:0:0:
448,192,115716,1,0,0:0:0:0:
448,192,115882,1,0,0:0:0:0:
64,192,116049,128,0,116549:0:0:0:0:
448,192,116049,1,0,0:0:0:0:
192,192,116049,1,0,0:0:0:0:
192,192,116216,1,0,0:0:0:0:
192,192,116382,1,0,0:0:0:0:
448,192,116549,128,0,117049:0:0:0:0:
192,192,116549,1,0,0:0:0:0:
320,192,116549,1,0,0:0:0:0:
320,192,116716,1,0,0:0:0:0:
320,192,116882,1,0,0:0:0:0:
192,192,117049,128,0,117549:0:0:0:0:
320,192,117049,1,0,0:0:0:0:
64,192,117049,1,0,0:0:0:0:
64,192,117216,1,0,0:0:0:0:
448,192,117382,1,0,0:0:0:0:
320,192,117382,1,0,0:0:0:0:
64,192,117466,1,0,0:0:0:0:
448,192,117549,1,0,0:0:0:0:
320,192,117549,1,0,0:0:0:0:
192,192,117632,1,0,0:0:0:0:
64,192,117632,1,0,0:0:0:0:
320,192,117716,1,0,0:0:0:0:
448,192,117716,1,0,0:0:0:0:
192,192,117799,1,0,0:0:0:0:
64,192,117799,1,0,0:0:0:0:
448,192,117882,1,0,0:0:0:0:
320,192,117882,1,0,0:0:0:0:
64,192,117966,1,0,0:0:0:0:
192,192,117966,1,0,0:0:0:0:
320,192,118049,1,0,0:0:0:0:
448,192,118049,1,0,0:0:0:0:
64,192,118132,1,0,0:0:0:0:
192,192,118132,1,0,0:0:0:0:
320,192,118216,1,0,0:0:0:0:
448,192,118216,128,0,120549:0:0:0:0:
64,192,118216,1,0,0:0:0:0:
64,192,118549,1,0,0:0:0:0:
320,192,118549,1,0,0:0:0:0:
320,192,118882,1,0,0:0:0:0:
192,192,118882,1,0,0:0:0:0:
320,192,119049,1,0,0:0:0:0:
192,192,119049,1,0,0:0:0:0:
64,192,119216,1,0,0:0:0:0:
320,192,119382,1,0,0:0:0:0:
64,192,119382,1,0,0:0:0:0:
192,192,119716,1,0,0:0:0:0:
64,192,119716,1,0,0:0:0:0:
320,192,119882,1,0,0:0:0:0:
64,192,119882,1,0,0:0:0:0:
192,192,120216,1,0,0:0:0:0:
320,192,120216,1,0,0:0:0:0:
320,192,120382,1,0,0:0:0:0:
192,192,120382,1,0,0:0:0:0:
192,192,120549,1,0,0:0:0:0:
64,192,120549,1,0,0:0:0:0:
320,192,120549,1,0,0:0:0:0:
64,192,120882,128,0,121382:0:0:0:0:
448,192,120882,1,0,0:0:0:0:
320,192,121216,1,0,0:0:0:0:
448,192,121216,1,0,0:0:0:0:
192,192,121382,128,0,121882:0:0:0:0:
320,192,121549,1,0,0:0:0:0:
64,192,121549,1,0,0:0:0:0:
320,192,121716,1,0,0:0:0:0:
64,192,121716,1,0,0:0:0:0:
320,192,121882,128,0,123216:0:0:0:0:
448,192,122049,1,0,0:0:0:0:
192,192,122049,1,0,0:0:0:0:
192,192,122382,1,0,0:0:0:0:
64,192,122382,1,0,0:0:0:0:
448,192,122549,1,0,0:0:0:0:
192,192,122549,1,0,0:0:0:0:
192,192,122882,1,0,0:0:0:0:
64,192,122882,1,0,0:0:0:0:
192,192,123049,1,0,0:0:0:0:
64,192,123049,1,0,0:0:0:0:
192,192,123216,1,0,0:0:0:0:
64,192,123216,1,0,0:0:0:0:
448,192,123216,1,0,0:0:0:0:
448,192,123549,128,0,124049:0:0:0:0:
192,192,123549,1,0,0:0:0:0:
320,192,123549,1,0,0:0:0:0:
192,192,123882,1,0,0:0:0:0:
64,192,123882,1,0,0:0:0:0:
320,192,124049,128,0,124549:0:0:0:0:
448,192,124216,1,0,0:0:0:0:
192,192,124216,1,0,0:0:0:0:
448,192,124382,1,0,0:0:0:0:
192,192,124382,1,0,0:0:0:0:
192,192,124549,128,0,125882:0:0:0:0:
320,192,124716,1,0,0:0:0:0:
64,192,124716,1,0,0:0:0:0:
320,192,125049,1,0,0:0:0:0:
448,192,125049,1,0,0:0:0:0:
448,192,125216,1,0,0:0:0:0:
64,192,125216,1,0,0:0:0:0:
320,192,125549,1,0,0:0:0:0:
448,192,125549,1,0,0:0:0:0:
448,192,125716,1,0,0:0:0:0:
320,192,125716,1,0,0:0:0:0:
320,192,125882,1,0,0:0:0:0:
448,192,125882,1,0,0:0:0:0:
64,192,125882,1,0,0:0:0:0:
64,192,126216,128,0,128216:0:0:0:0:
192,192,126216,1,0,0:0:0:0:
320,192,126549,1,0,0:0:0:0:
448,192,126549,1,0,0:0:0:0:
320,192,126882,1,0,0:0:0:0:
192,192,126882,1,0,0:0:0:0:
320,192,127049,1,0,0:0:0:0:
192,192,127049,1,0,0:0:0:0:
448,192,127216,1,0,0:0:0:0:
448,192,127382,1,0,0:0:0:0:
192,192,127382,1,0,0:0:0:0:
320,192,127716,1,0,0:0:0:0:
192,192,127716,1,0,0:0:0:0:
192,192,127882,1,0,0:0:0:0:
448,192,127882,1,0,0:0:0:0:
448,192,128216,1,0,0:0:0:0:
320,192,128216,1,0,0:0:0:0:
192,192,128382,1,0,0:0:0:0:
64,192,128382,1,0,0:0:0:0:
320,192,128466,1,0,0:0:0:0:
448,192,128549,1,0,0:0:0:0:
64,192,128549,1,0,0:0:0:0:
192,192,128632,1,0,0:0:0:0:
448,192,128716,1,0,0:0:0:0:
64,192,128716,1,0,0:0:0:0:
320,192,128799,1,0,0:0:0:0:
64,192,128882,1,0,0:0:0:0:
192,192,128882,1,0,0:0:0:0:
448,192,128882,1,0,0:0:0:0:
64,192,129049,1,0,0:0:0:0:
64,192,129216,1,0,0:0:0:0:
320,192,129216,1,0,0:0:0:0:
448,192,129216,1,0,0:0:0:0:
320,192,129382,1,0,0:0:0:0:
320,192,129549,1,0,0:0:0:0:
192,192,129549,1,0,0:0:0:0:
192,192,129716,1,0,0:0:0:0:
64,192,129716,1,0,0:0:0:0:
192,192,129882,1,0,0:0:0:0:
448,192,129882,1,0,0:0:0:0:
64,192,129882,1,0,0:0:0:0:
448,192,130049,1,0,0:0:0:0:
192,192,130049,1,0,0:0:0:0:
64,192,130216,1,0,0:0:0:0:
448,192,130216,1,0,0:0:0:0:
64,192,130382,1,0,0:0:0:0:
320,192,130382,1,0,0:0:0:0:
64,192,130549,1,0,0:0:0:0:
320,192,130549,1,0,0:0:0:0:
448,192,130549,1,0,0:0:0:0:
320,192,130716,1,0,0:0:0:0:
320,192,130882,1,0,0:0:0:0:
448,192,130882,1,0,0:0:0:0:
448,192,131049,1,0,0:0:0:0:
192,192,131049,1,0,0:0:0:0:
448,192,131216,1,0,0:0:0:0:
192,192,131216,1,0,0:0:0:0:
320,192,131216,1,0,0:0:0:0:
192,192,131382,1,0,0:0:0:0:
64,192,131549,1,0,0:0:0:0:
320,192,131549,1,0,0:0:0:0:
192,192,131549,1,0,0:0:0:0:
64,192,131716,1,0,0:0:0:0:
448,192,131716,1,0,0:0:0:0:
64,192,131882,1,0,0:0:0:0:
320,192,131882,1,0,0:0:0:0:
448,192,131882,1,0,0:0:0:0:
320,192,132049,1,0,0:0:0:0:
320,192,132216,1,0,0:0:0:0:
192,192,132216,1,0,0:0:0:0:
192,192,132382,1,0,0:0:0:0:
448,192,132382,1,0,0:0:0:0:
192,192,132549,1,0,0:0:0:0:
448,192,132549,1,0,0:0:0:0:
64,192,132549,1,0,0:0:0:0:
448,192,132716,1,0,0:0:0:0:
64,192,132716,1,0,0:0:0:0:
320,192,132882,1,0,0:0:0:0:
192,192,132882,1,0,0:0:0:0:
192,192,133049,1,0,0:0:0:0:
448,192,133049,1,0,0:0:0:0:
192,192,133216,1,0,0:0:0:0:
448,192,133216,1,0,0:0:0:0:
64,192,133216,1,0,0:0:0:0:
64,192,133382,1,0,0:0:0:0:
320,192,133382,1,0,0:0:0:0:
64,192,133549,1,0,0:0:0:0:
192,192,133549,1,0,0:0:0:0:
448,192,133716,1,0,0:0:0:0:
192,192,133716,1,0,0:0:0:0:
448,192,133882,1,0,0:0:0:0:
320,192,133882,1,0,0:0:0:0:
64,192,133882,1,0,0:0:0:0:
320,192,134049,1,0,0:0:0:0:
448,192,134216,1,0,0:0:0:0:
64,192,134216,1,0,0:0:0:0:
192,192,134216,1,0,0:0:0:0:
448,192,134382,1,0,0:0:0:0:
192,192,134382,1,0,0:0:0:0:
64,192,134549,1,0,0:0:0:0:
448,192,134549,1,0,0:0:0:0:
320,192,134549,1,0,0:0:0:0:
64,192,134716,1,0,0:0:0:0:
64,192,134882,1,0,0:0:0:0:
320,192,134882,1,0,0:0:0:0:
320,192,135049,1,0,0:0:0:0:
448,192,135049,1,0,0:0:0:0:
320,192,135216,1,0,0:0:0:0:
64,192,135216,1,0,0:0:0:0:
192,192,135216,1,0,0:0:0:0:
192,192,135382,1,0,0:0:0:0:
448,192,135382,1,0,0:0:0:0:
320,192,135549,1,0,0:0:0:0:
448,192,135549,1,0,0:0:0:0:
320,192,135716,1,0,0:0:0:0:
64,192,135716,1,0,0:0:0:0:
320,192,135882,1,0,0:0:0:0:
192,192,135882,1,0,0:0:0:0:
64,192,135882,1,0,0:0:0:0:
192,192,136049,1,0,0:0:0:0:
448,192,136049,1,0,0:0:0:0:
448,192,136216,1,0,0:0:0:0:
192,192,136216,1,0,0:0:0:0:
320,192,136382,1,0,0:0:0:0:
192,192,136382,1,0,0:0:0:0:
448,192,136549,1,0,0:0:0:0:
192,192,136549,1,0,0:0:0:0:
64,192,136549,1,0,0:0:0:0:
64,192,136716,1,0,0:0:0:0:
320,192,136882,1,0,0:0:0:0:
448,192,136882,1,0,0:0:0:0:
64,192,136882,1,0,0:0:0:0:
320,192,137049,1,0,0:0:0:0:
192,192,137049,1,0,0:0:0:0:
320,192,137216,1,0,0:0:0:0:
192,192,137216,1,0,0:0:0:0:
64,192,137216,1,0,0:0:0:0:
64,192,137382,1,0,0:0:0:0:
448,192,137549,1,0,0:0:0:0:
192,192,137549,1,0,0:0:0:0:
448,192,137716,1,0,0:0:0:0:
64,192,137716,1,0,0:0:0:0:
64,192,137882,1,0,0:0:0:0:
320,192,137882,1,0,0:0:0:0:
448,192,137882,1,0,0:0:0:0:
192,192,138049,1,0,0:0:0:0:
320,192,138049,1,0,0:0:0:0:
448,192,138216,1,0,0:0:0:0:
192,192,138216,1,0,0:0:0:0:
64,192,138216,1,0,0:0:0:0:
320,192,138382,1,0,0:0:0:0:
192,192,138382,1,0,0:0:0:0:
448,192,138549,1,0,0:0:0:0:
320,192,138549,1,0,0:0:0:0:
64,192,138549,1,0,0:0:0:0:
448,192,138716,1,0,0:0:0:0:
192,192,138716,1,0,0:0:0:0:
448,192,138882,1,0,0:0:0:0:
64,192,138882,1,0,0:0:0:0:
320,192,138966,1,0,0:0:0:0:
192,192,139049,1,0,0:0:0:0:
64,192,139049,1,0,0:0:0:0:
320,192,139132,1,0,0:0:0:0:
448,192,139216,1,0,0:0:0:0:
64,192,139216,1,0,0:0:0:0:
192,192,139299,1,0,0:0:0:0:
448,192,139382,1,0,0:0:0:0:
64,192,139382,1,0,0:0:0:0:
320,192,139466,1,0,0:0:0:0:
192,192,139549,1,0,0:0:0:0:
448,192,139549,1,0,0:0:0:0:
64,192,139549,128,0,139882:0:0:0:0:
320,192,139716,1,0,0:0:0:0:
448,192,139716,1,0,0:0:0:0:
448,192,139882,1,0,0:0:0:0:
320,192,139882,1,0,0:0:0:0:
192,192,139882,1,0,0:0:0:0:
192,192,140049,128,0,140382:0:0:0:0:
320,192,140049,1,0,0:0:0:0:
64,192,140216,1,0,0:0:0:0:
448,192,140382,1,0,0:0:0:0:
320,192,140382,1,0,0:0:0:0:
64,192,140466,1,0,0:0:0:0:
448,192,140549,1,0,0:0:0:0:
320,192,140549,128,0,140882:0:0:0:0:
192,192,140549,1,0,0:0:0:0:
64,192,140882,1,0,0:0:0:0:
192,192,140882,1,0,0:0:0:0:
448,192,141049,128,0,141382:0:0:0:0:
320,192,141049,1,0,0:0:0:0:
192,192,141382,1,0,0:0:0:0:
64,192,141382,1,0,0:0:0:0:
320,192,141466,1,0,0:0:0:0:
64,192,141549,1,0,0:0:0:0:
448,192,141549,1,0,0:0:0:0:
192,192,141549,1,0,0:0:0:0:
192,192,141716,1,0,0:0:0:0:
64,192,141716,1,0,0:0:0:0:
448,192,141716,1,0,0:0:0:0:
192,192,141882,1,0,0:0:0:0:
320,192,141882,1,0,0:0:0:0:
448,192,142049,1,0,0:0:0:0:
320,192,142049,1,0,0:0:0:0:
192,192,142132,1,0,0:0:0:0:
64,192,142132,1,0,0:0:0:0:
448,192,142216,128,0,142549:0:0:0:0:
320,192,142216,1,0,0:0:0:0:
64,192,142216,1,0,0:0:0:0:
192,192,142549,1,0,0:0:0:0:
64,192,142549,1,0,0:0:0:0:
320,192,142716,128,0,143049:0:0:0:0:
448,192,142716,1,0,0:0:0:0:
192,192,142716,1,0,0:0:0:0:
64,192,142882,1,0,0:0:0:0:
192,192,143049,1,0,0:0:0:0:
448,192,143049,1,0,0:0:0:0:
64,192,143132,1,0,0:0:0:0:
192,192,143216,128,0,143549:0:0:0:0:
320,192,143216,1,0,0:0:0:0:
448,192,143216,1,0,0:0:0:0:
320,192,143549,1,0,0:0:0:0:
64,192,143549,1,0,0:0:0:0:
448,192,143716,1,0,0:0:0:0:
64,192,143716,128,0,144049:0:0:0:0:
320,192,143716,1,0,0:0:0:0:
192,192,143882,1,0,0:0:0:0:
320,192,143882,1,0,0:0:0:0:
448,192,144049,1,0,0:0:0:0:
320,192,144132,1,0,0:0:0:0:
192,192,144216,1,0,0:0:0:0:
64,192,144216,1,0,0:0:0:0:
320,192,144382,1,0,0:0:0:0:
448,192,144382,1,0,0:0:0:0:
448,192,144549,1,0,0:0:0:0:
192,192,144549,1,0,0:0:0:0:
448,192,144716,1,0,0:0:0:0:
64,192,144716,1,0,0:0:0:0:
320,192,144882,1,0,0:0:0:0:
448,192,144882,128,0,147382:0:0:0:0:
192,192,144882,1,0,0:0:0:0:
64,192,145216,1,0,0:0:0:0:
192,192,145382,1,0,0:0:0:0:
320,192,145549,1,0,0:0:0:0:
64,192,145549,1,0,0:0:0:0:
192,192,145716,1,0,0:0:0:0:
64,192,145882,1,0,0:0:0:0:
320,192,146049,1,0,0:0:0:0:
192,192,146132,1,0,0:0:0:0:
64,192,146216,1,0,0:0:0:0:
320,192,146382,1,0,0:0:0:0:
192,192,146549,1,0,0:0:0:0:
64,192,146716,1,0,0:0:0:0:
192,192,146882,1,0,0:0:0:0:
320,192,146882,1,0,0:0:0:0:
64,192,147216,1,0,0:0:0:0:
320,192,147382,1,0,0:0:0:0:
192,192,147466,1,0,0:0:0:0:
64,192,147549,128,0,149882:0:0:0:0:
320,192,147549,1,0,0:0:0:0:
448,192,147549,1,0,0:0:0:0:
320,192,147882,1,0,0:0:0:0:
192,192,148049,1,0,0:0:0:0:
448,192,148216,1,0,0:0:0:0:
320,192,148216,1,0,0:0:0:0:
448,192,148382,1,0,0:0:0:0:
192,192,148549,1,0,0:0:0:0:
448,192,148716,1,0,0:0:0:0:
320,192,148799,1,0,0:0:0:0:
192,192,148882,1,0,0:0:0:0:
448,192,149049,1,0,0:0:0:0:
192,192,149216,1,0,0:0:0:0:
448,192,149382,1,0,0:0:0:0:
320,192,149549,1,0,0:0:0:0:
192,192,149549,1,0,0:0:0:0:
448,192,149716,1,0,0:0:0:0:
320,192,149716,1,0,0:0:0:0:
320,192,149882,1,0,0:0:0:0:
192,192,149882,1,0,0:0:0:0:
448,192,149882,1,0,0:0:0:0:
320,192,150216,1,0,0:0:0:0:
64,192,150216,1,0,0:0:0:0:
448,192,150216,128,0,150549:0:0:0:0:
192,192,150382,1,0,0:0:0:0:
320,192,150382,1,0,0:0:0:0:
64,192,150549,1,0,0:0:0:0:
320,192,150716,128,0,151049:0:0:0:0:
192,192,150716,1,0,0:0:0:0:
448,192,150882,1,0,0:0:0:0:
64,192,151049,1,0,0:0:0:0:
192,192,151049,1,0,0:0:0:0:
320,192,151132,1,0,0:0:0:0:
192,192,151216,128,0,151549:0:0:0:0:
64,192,151216,1,0,0:0:0:0:
448,192,151216,1,0,0:0:0:0:
448,192,151549,1,0,0:0:0:0:
64,192,151549,1,0,0:0:0:0:
64,192,151716,128,0,152049:0:0:0:0:
320,192,151716,1,0,0:0:0:0:
192,192,151716,1,0,0:0:0:0:
448,192,151882,1,0,0:0:0:0:
320,192,152049,1,0,0:0:0:0:
192,192,152049,1,0,0:0:0:0:
448,192,152132,1,0,0:0:0:0:
192,192,152216,1,0,0:0:0:0:
64,192,152216,1,0,0:0:0:0:
320,192,152382,1,0,0:0:0:0:
64,192,152549,1,0,0:0:0:0:
448,192,152549,1,0,0:0:0:0:
192,192,152716,1,0,0:0:0:0:
64,192,152882,128,0,153216:0:0:0:0:
448,192,152882,1,0,0:0:0:0:
320,192,153216,1,0,0:0:0:0:
448,192,153216,1,0,0:0:0:0:
192,192,153382,128,0,153716:0:0:0:0:
64,192,153382,1,0,0:0:0:0:
320,192,153549,1,0,0:0:0:0:
448,192,153716,1,0,0:0:0:0:
64,192,153716,1,0,0:0:0:0:
192,192,153799,1,0,0:0:0:0:
320,192,153882,128,0,154216:0:0:0:0:
64,192,153882,1,0,0:0:0:0:
448,192,153882,1,0,0:0:0:0:
192,192,154216,1,0,0:0:0:0:
448,192,154216,1,0,0:0:0:0:
64,192,154382,1,0,0:0:0:0:
448,192,154382,128,0,154716:0:0:0:0:
320,192,154382,1,0,0:0:0:0:
320,192,154716,1,0,0:0:0:0:
192,192,154716,1,0,0:0:0:0:
64,192,154882,1,0,0:0:0:0:
192,192,154882,1,0,0:0:0:0:
320,192,154966,1,0,0:0:0:0:
448,192,154966,1,0,0:0:0:0:
64,192,155049,1,0,0:0:0:0:
192,192,155049,1,0,0:0:0:0:
320,192,155132,1,0,0:0:0:0:
192,192,155216,1,0,0:0:0:0:
448,192,155216,1,0,0:0:0:0:
64,192,155216,1,0,0:0:0:0:
192,192,155382,1,0,0:0:0:0:
320,192,155382,1,0,0:0:0:0:
192,192,155549,1,0,0:0:0:0:
448,192,155549,1,0,0:0:0:0:
64,192,155549,128,0,158049:0:0:0:0:
320,192,155716,1,0,0:0:0:0:
320,192,155882,1,0,0:0:0:0:
320,192,156049,1,0,0:0:0:0:
448,192,156049,1,0,0:0:0:0:
192,192,156049,1,0,0:0:0:0:
448,192,156216,1,0,0:0:0:0:
448,192,156382,1,0,0:0:0:0:
448,192,156549,1,0,0:0:0:0:
192,192,156549,1,0,0:0:0:0:
320,192,156549,1,0,0:0:0:0:
320,192,156716,1,0,0:0:0:0:
320,192,156882,1,0,0:0:0:0:
192,192,157049,1,0,0:0:0:0:
448,192,157049,1,0,0:0:0:0:
320,192,157049,1,0,0:0:0:0:
192,192,157216,1,0,0:0:0:0:
192,192,157382,1,0,0:0:0:0:
448,192,157549,1,0,0:0:0:0:
320,192,157549,1,0,0:0:0:0:
192,192,157632,1,0,0:0:0:0:
448,192,157716,1,0,0:0:0:0:
320,192,157716,1,0,0:0:0:0:
192,192,157799,1,0,0:0:0:0:
320,192,157882,1,0,0:0:0:0:
448,192,157882,1,0,0:0:0:0:
192,192,157966,1,0,0:0:0:0:
448,192,158049,1,0,0:0:0:0:
320,192,158049,1,0,0:0:0:0:
192,192,158132,1,0,0:0:0:0:
448,192,158216,128,0,159549:0:0:0:0:
64,192,158216,1,0,0:0:0:0:
320,192,158216,1,0,0:0:0:0:
192,192,158549,1,0,0:0:0:0:
64,192,158549,1,0,0:0:0:0:
64,192,158716,1,0,0:0:0:0:
192,192,158716,1,0,0:0:0:0:
64,192,158882,1,0,0:0:0:0:
192,192,158882,1,0,0:0:0:0:
64,192,159049,1,0,0:0:0:0:
192,192,159049,1,0,0:0:0:0:
192,192,159216,1,0,0:0:0:0:
64,192,159216,1,0,0:0:0:0:
64,192,159382,1,0,0:0:0:0:
320,192,159549,1,0,0:0:0:0:
192,192,159549,1,0,0:0:0:0:
64,192,159549,1,0,0:0:0:0:
448,192,159716,1,0,0:0:0:0:
320,192,159716,1,0,0:0:0:0:
192,192,159799,1,0,0:0:0:0:
320,192,159882,1,0,0:0:0:0:
448,192,159882,1,0,0:0:0:0:
64,192,159966,1,0,0:0:0:0:
192,192,160049,1,0,0:0:0:0:
320,192,160049,1,0,0:0:0:0:
448,192,160132,1,0,0:0:0:0:
192,192,160216,1,0,0:0:0:0:
64,192,160216,1,0,0:0:0:0:
320,192,160299,1,0,0:0:0:0:
192,192,160382,1,0,0:0:0:0:
64,192,160382,1,0,0:0:0:0:
448,192,160466,1,0,0:0:0:0:
320,192,160549,1,0,0:0:0:0:
64,192,160549,128,0,160799:0:0:0:0:
192,192,160549,128,0,160716:0:0:0:0:
320,192,160882,1,0,0:0:0:0:
448,192,160882,1,0,0:0:0:0:
64,192,160882,1,0,0:0:0:0:
192,192,160882,1,0,0:0:0:0:
448,192,161049,1,0,0:0:0:0:
192,192,161049,1,0,0:0:0:0:
448,192,161216,1,0,0:0:0:0:
320,192,161216,1,0,0:0:0:0:
192,192,161382,1,0,0:0:0:0:
64,192,161382,1,0,0:0:0:0:
448,192,161382,1,0,0:0:0:0:
320,192,161382,1,0,0:0:0:0:
320,192,161549,1,0,0:0:0:0:
64,192,161549,1,0,0:0:0:0:
64,192,161716,1,0,0:0:0:0:
192,192,161716,1,0,0:0:0:0:
320,192,161882,1,0,0:0:0:0:
192,192,161882,1,0,0:0:0:0:
448,192,161882,1,0,0:0:0:0:
64,192,161882,1,0,0:0:0:0:
320,192,162049,1,0,0:0:0:0:
64,192,162049,1,0,0:0:0:0:
320,192,162216,1,0,0:0:0:0:
192,192,162216,1,0,0:0:0:0:
448,192,162382,1,0,0:0:0:0:
192,192,162382,1,0,0:0:0:0:
64,192,162382,1,0,0:0:0:0:
320,192,162382,1,0,0:0:0:0:
192,192,162549,1,0,0:0:0:0:
448,192,162549,1,0,0:0:0:0:
192,192,162716,1,0,0:0:0:0:
64,192,162716,1,0,0:0:0:0:
192,192,162882,1,0,0:0:0:0:
320,192,162882,1,0,0:0:0:0:
448,192,162882,1,0,0:0:0:0:
448,192,163049,1,0,0:0:0:0:
64,192,163049,1,0,0:0:0:0:
320,192,163216,1,0,0:0:0:0:
192,192,163216,1,0,0:0:0:0:
64,192,163216,1,0,0:0:0:0:
448,192,163382,1,0,0:0:0:0:
320,192,163382,1,0,0:0:0:0:
320,192,163549,1,0,0:0:0:0:
448,192,163549,1,0,0:0:0:0:
64,192,163549,1,0,0:0:0:0:
320,192,163716,1,0,0:0:0:0:
192,192,163716,1,0,0:0:0:0:
320,192,163882,1,0,0:0:0:0:
64,192,163882,1,0,0:0:0:0:
64,192,164049,1,0,0:0:0:0:
448,192,164049,1,0,0:0:0:0:
192,192,164049,1,0,0:0:0:0:
320,192,164049,1,0,0:0:0:0:
448,192,164216,1,0,0:0:0:0:
320,192,164216,1,0,0:0:0:0:
320,192,164382,1,0,0:0:0:0:
192,192,164382,1,0,0:0:0:0:
192,192,164549,1,0,0:0:0:0:
448,192,164549,1,0,0:0:0:0:
64,192,164549,1,0,0:0:0:0:
320,192,164549,1,0,0:0:0:0:
320,192,164716,1,0,0:0:0:0:
64,192,164716,1,0,0:0:0:0:
64,192,164882,1,0,0:0:0:0:
448,192,164882,1,0,0:0:0:0:
192,192,165049,1,0,0:0:0:0:
320,192,165049,1,0,0:0:0:0:
448,192,165049,1,0,0:0:0:0:
64,192,165049,1,0,0:0:0:0:
448,192,165216,1,0,0:0:0:0:
64,192,165216,1,0,0:0:0:0:
448,192,165382,1,0,0:0:0:0:
320,192,165382,1,0,0:0:0:0:
192,192,165549,1,0,0:0:0:0:
64,192,165549,1,0,0:0:0:0:
320,192,165549,1,0,0:0:0:0:
448,192,165549,1,0,0:0:0:0:
192,192,165716,1,0,0:0:0:0:
320,192,165716,1,0,0:0:0:0:
192,192,165882,1,0,0:0:0:0:
64,192,165882,1,0,0:0:0:0:
448,192,165882,1,0,0:0:0:0:
320,192,165966,1,0,0:0:0:0:
192,192,166049,1,0,0:0:0:0:
64,192,166049,1,0,0:0:0:0:
448,192,166132,1,0,0:0:0:0:
64,192,166216,1,0,0:0:0:0:
192,192,166216,1,0,0:0:0:0:
320,192,166216,1,0,0:0:0:0:
64,192,166382,1,0,0:0:0:0:
448,192,166382,1,0,0:0:0:0:
64,192,166549,1,0,0:0:0:0:
320,192,166549,1,0,0:0:0:0:
192,192,166716,1,0,0:0:0:0:
64,192,166716,1,0,0:0:0:0:
448,192,166716,1,0,0:0:0:0:
320,192,166716,1,0,0:0:0:0:
192,192,166882,1,0,0:0:0:0:
448,192,166882,1,0,0:0:0:0:
320,192,167049,1,0,0:0:0:0:
448,192,167049,1,0,0:0:0:0:
192,192,167216,1,0,0:0:0:0:
320,192,167216,1,0,0:0:0:0:
64,192,167216,1,0,0:0:0:0:
448,192,167216,1,0,0:0:0:0:
192,192,167382,1,0,0:0:0:0:
448,192,167382,1,0,0:0:0:0:
192,192,167549,1,0,0:0:0:0:
320,192,167549,1,0,0:0:0:0:
64,192,167716,1,0,0:0:0:0:
320,192,167716,1,0,0:0:0:0:
448,192,167716,1,0,0:0:0:0:
192,192,167716,1,0,0:0:0:0:
448,192,167882,1,0,0:0:0:0:
192,192,167882,1,0,0:0:0:0:
448,192,168049,1,0,0:0:0:0:
64,192,168049,1,0,0:0:0:0:
192,192,168216,1,0,0:0:0:0:
320,192,168216,1,0,0:0:0:0:
448,192,168216,1,0,0:0:0:0:
320,192,168382,1,0,0:0:0:0:
64,192,168382,1,0,0:0:0:0:
320,192,168549,1,0,0:0:0:0:
192,192,168549,1,0,0:0:0:0:
64,192,168549,1,0,0:0:0:0:
448,192,168716,1,0,0:0:0:0:
192,192,168716,1,0,0:0:0:0:
320,192,168882,1,0,0:0:0:0:
448,192,168882,1,0,0:0:0:0:
64,192,168882,1,0,0:0:0:0:
192,192,168882,1,0,0:0:0:0:
64,192,169049,1,0,0:0:0:0:
192,192,169049,1,0,0:0:0:0:
64,192,169216,1,0,0:0:0:0:
320,192,169216,1,0,0:0:0:0:
64,192,169382,1,0,0:0:0:0:
320,192,169382,1,0,0:0:0:0:
448,192,169382,1,0,0:0:0:0:
192,192,169382,1,0,0:0:0:0:
320,192,169549,1,0,0:0:0:0:
192,192,169549,1,0,0:0:0:0:
320,192,169716,1,0,0:0:0:0:
64,192,169716,1,0,0:0:0:0:
192,192,169882,1,0,0:0:0:0:
320,192,169882,1,0,0:0:0:0:
448,192,169882,1,0,0:0:0:0:
64,192,169882,1,0,0:0:0:0:
192,192,170049,1,0,0:0:0:0:
64,192,170049,1,0,0:0:0:0:
192,192,170216,1,0,0:0:0:0:
448,192,170216,1,0,0:0:0:0:
64,192,170216,1,0,0:0:0:0:
320,192,170216,1,0,0:0:0:0:
320,192,170382,1,0,0:0:0:0:
448,192,170382,1,0,0:0:0:0:
448,192,170549,1,0,0:0:0:0:
192,192,170549,1,0,0:0:0:0:
64,192,170549,1,0,0:0:0:0:
320,192,170549,1,0,0:0:0:0:
320,192,170716,1,0,0:0:0:0:
192,192,170716,1,0,0:0:0:0:
64,192,170882,1,0,0:0:0:0:
448,192,170882,1,0,0:0:0:0:
64,192,171049,1,0,0:0:0:0:
192,192,171049,1,0,0:0:0:0:
320,192,171132,1,0,0:0:0:0:
448,192,171132,1,0,0:0:0:0:
192,192,171216,1,0,0:0:0:0:
64,192,171216,1,0,0:0:0:0:
320,192,171299,1,0,0:0:0:0:
448,192,171299,1,0,0:0:0:0:
192,192,171382,1,0,0:0:0:0:
64,192,171382,1,0,0:0:0:0:
320,192,171466,1,0,0:0:0:0:
448,192,171466,1,0,0:0:0:0:
64,192,171549,1,0,0:0:0:0:
192,192,171549,1,0,0:0:0:0:
448,192,171549,1,0,0:0:0:0:
320,192,171716,1,0,0:0:0:0:
192,192,171882,1,0,0:0:0:0:
64,192,171882,1,0,0:0:0:0:
448,192,171882,1,0,0:0:0:0:
192,192,172049,1,0,0:0:0:0:
320,192,172216,1,0,0:0:0:0:
448,192,172216,1,0,0:0:0:0:
64,192,172382,1,0,0:0:0:0:
192,192,172549,1,0,0:0:0:0:
320,192,172549,1,0,0:0:0:0:
448,192,172549,1,0,0:0:0:0:
64,192,172716,1,0,0:0:0:0:
192,192,172882,1,0,0:0:0:0:
448,192,172882,1,0,0:0:0:0:
320,192,173049,1,0,0:0:0:0:
192,192,173216,1,0,0:0:0:0:
64,192,173216,1,0,0:0:0:0:
448,192,173216,1,0,0:0:0:0:
448,192,173382,1,0,0:0:0:0:
320,192,173549,1,0,0:0:0:0:
192,192,173549,1,0,0:0:0:0:
64,192,173716,1,0,0:0:0:0:
192,192,173882,1,0,0:0:0:0:
320,192,173882,1,0,0:0:0:0:
448,192,173882,1,0,0:0:0:0:
64,192,174049,1,0,0:0:0:0:
192,192,174049,1,0,0:0:0:0:
320,192,174132,1,0,0:0:0:0:
448,192,174132,1,0,0:0:0:0:
192,192,174216,1,0,0:0:0:0:
64,192,174216,1,0,0:0:0:0:
448,192,174216,1,0,0:0:0:0:
320,192,174216,1,0,0:0:0:0:
192,192,174382,1,0,0:0:0:0:
320,192,174549,1,0,0:0:0:0:
448,192,174549,1,0,0:0:0:0:
64,192,174549,1,0,0:0:0:0:
320,192,174716,1,0,0:0:0:0:
192,192,174882,1,0,0:0:0:0:
64,192,174882,1,0,0:0:0:0:
448,192,175049,1,0,0:0:0:0:
320,192,175216,1,0,0:0:0:0:
192,192,175216,1,0,0:0:0:0:
64,192,175216,1,0,0:0:0:0:
448,192,175382,1,0,0:0:0:0:
64,192,175549,1,0,0:0:0:0:
320,192,175549,1,0,0:0:0:0:
192,192,175716,1,0,0:0:0:0:
64,192,175882,1,0,0:0:0:0:
320,192,175882,1,0,0:0:0:0:
448,192,175882,1,0,0:0:0:0:
320,192,176049,1,0,0:0:0:0:
192,192,176216,1,0,0:0:0:0:
64,192,176216,1,0,0:0:0:0:
320,192,176382,1,0,0:0:0:0:
64,192,176549,1,0,0:0:0:0:
448,192,176549,1,0,0:0:0:0:
192,192,176549,1,0,0:0:0:0:
448,192,176716,1,0,0:0:0:0:
192,192,176716,1,0,0:0:0:0:
320,192,176799,1,0,0:0:0:0:
64,192,176799,1,0,0:0:0:0:
320,192,176882,1,0,0:0:0:0:
448,192,176882,1,0,0:0:0:0:
192,192,176882,1,0,0:0:0:0:
64,192,176882,1,0,0:0:0:0:
448,192,177049,1,0,0:0:0:0:
320,192,177216,1,0,0:0:0:0:
192,192,177216,1,0,0:0:0:0:
64,192,177216,1,0,0:0:0:0:
192,192,177382,1,0,0:0:0:0:
320,192,177549,128,0,177716:0:0:0:0:
64,192,177549,1,0,0:0:0:0:
448,192,177716,128,0,177882:0:0:0:0:
192,192,177882,128,0,178049:0:0:0:0:
320,192,177882,1,0,0:0:0:0:
64,192,177882,1,0,0:0:0:0:
64,192,178049,128,0,178382:0:0:0:0:
320,192,178216,1,0,0:0:0:0:
448,192,178216,1,0,0:0:0:0:
320,192,178382,128,0,178549:0:0:0:0:
448,192,178549,1,0,0:0:0:0:
64,192,178549,1,0,0:0:0:0:
192,192,178549,1,0,0:0:0:0:
192,192,178716,128,0,178882:0:0:0:0:
64,192,178882,128,0,179049:0:0:0:0:
320,192,178882,1,0,0:0:0:0:
448,192,179049,128,0,179382:0:0:0:0:
64,192,179216,1,0,0:0:0:0:
192,192,179216,1,0,0:0:0:0:
320,192,179216,1,0,0:0:0:0:
64,192,179382,1,0,0:0:0:0:
320,192,179549,1,0,0:0:0:0:
192,192,179549,1,0,0:0:0:0:
64,192,179549,128,0,179882:0:0:0:0:
320,192,179882,1,0,0:0:0:0:
448,192,179882,1,0,0:0:0:0:
192,192,179882,1,0,0:0:0:0:
448,192,180216,128,0,180882:0:0:0:0:
320,192,180216,1,0,0:0:0:0:
192,192,180382,1,0,0:0:0:0:
64,192,180382,1,0,0:0:0:0:
64,192,180549,1,0,0:0:0:0:
192,192,180549,1,0,0:0:0:0:
320,192,180549,1,0,0:0:0:0:
64,192,180882,128,0,181216:0:0:0:0:
320,192,180882,1,0,0:0:0:0:
192,192,180966,1,0,0:0:0:0:
320,192,181049,1,0,0:0:0:0:
448,192,181049,1,0,0:0:0:0:
192,192,181132,1,0,0:0:0:0:
448,192,181216,1,0,0:0:0:0:
320,192,181216,1,0,0:0:0:0:
192,192,181299,1,0,0:0:0:0:
64,192,181382,1,0,0:0:0:0:
448,192,181382,1,0,0:0:0:0:
320,192,181466,1,0,0:0:0:0:
448,192,181549,1,0,0:0:0:0:
192,192,181549,1,0,0:0:0:0:
64,192,181632,1,0,0:0:0:0:
320,192,181716,1,0,0:0:0:0:
192,192,181716,1,0,0:0:0:0:
448,192,181799,1,0,0:0:0:0:
192,192,181882,1,0,0:0:0:0:
64,192,181882,1,0,0:0:0:0:
320,192,181966,1,0,0:0:0:0:
64,192,182049,1,0,0:0:0:0:
192,192,182049,1,0,0:0:0:0:
448,192,182132,1,0,0:0:0:0:
320,192,182216,1,0,0:0:0:0:
192,192,182216,1,0,0:0:0:0:
64,192,182216,1,0,0:0:0:0:
192,192,182382,1,0,0:0:0:0:
64,192,182382,1,0,0:0:0:0:
64,192,182549,1,0,0:0:0:0:
192,192,182549,1,0,0:0:0:0:
192,192,182716,1,0,0:0:0:0:
64,192,182716,1,0,0:0:0:0:
320,192,182716,1,0,0:0:0:0:
448,192,182716,1,0,0:0:0:0:
448,192,182882,1,0,0:0:0:0:
320,192,182882,1,0,0:0:0:0:
320,192,183049,1,0,0:0:0:0:
448,192,183049,1,0,0:0:0:0:
448,192,183216,1,0,0:0:0:0:
320,192,183216,1,0,0:0:0:0:
192,192,183216,1,0,0:0:0:0:
64,192,183216,1,0,0:0:0:0:
64,192,183382,1,0,0:0:0:0:
192,192,183382,1,0,0:0:0:0:
192,192,183549,1,0,0:0:0:0:
64,192,183549,1,0,0:0:0:0:
64,192,183716,1,0,0:0:0:0:
192,192,183716,1,0,0:0:0:0:
320,192,183716,1,0,0:0:0:0:
448,192,183716,1,0,0:0:0:0:
320,192,183882,1,0,0:0:0:0:
448,192,183882,1,0,0:0:0:0:
448,192,184049,1,0,0:0:0:0:
320,192,184049,1,0,0:0:0:0:
320,192,184216,1,0,0:0:0:0:
448,192,184216,1,0,0:0:0:0:
192,192,184216,1,0,0:0:0:0:
64,192,184216,1,0,0:0:0:0:
64,192,184327,1,0,0:0:0:0:
192,192,184327,1,0,0:0:0:0:
192,192,184438,1,0,0:0:0:0:
320,192,184438,1,0,0:0:0:0:
320,192,184549,1,0,0:0:0:0:
448,192,184549,1,0,0:0:0:0:
64,192,184660,1,0,0:0:0:0:
192,192,184660,1,0,0:0:0:0:
320,192,184771,1,0,0:0:0:0:
192,192,184771,1,0,0:0:0:0:
448,192,184882,1,0,0:0:0:0:
320,192,184882,1,0,0:0:0:0:
64,192,184882,128,0,186216:0:0:0:0:
192,192,184882,128,0,186216:0:0:0:0:
320,192,187049,1,0,0:0:0:0:
448,192,187049,1,0,0:0:0:0:
64,192,187132,1,0,0:0:0:0:
192,192,187132,1,0,0:0:0:0:
448,192,187216,1,0,0:0:0:0:
320,192,187216,128,0,187549:0:0:0:0:
192,192,187549,1,0,0:0:0:0:
448,192,187549,1,0,0:0:0:0:
64,192,187549,128,0,189882:0:0:0:0:
192,192,187882,1,0,0:0:0:0:
448,192,187882,1,0,0:0:0:0:
192,192,188049,128,0,189882:0:0:0:0:
320,192,188049,1,0,0:0:0:0:
320,192,188549,128,0,189882:0:0:0:0:
448,192,188549,1,0,0:0:0:0:
448,192,189882,1,0,0:0:0:0:
448,192,190216,128,0,191549:0:0:0:0:
192,192,190216,1,0,0:0:0:0:
64,192,190216,1,0,0:0:0:0:
320,192,190716,128,0,191549:0:0:0:0:
192,192,191216,128,0,191466:0:0:0:0:
64,192,191549,1,0,0:0:0:0:
192,192,191549,1,0,0:0:0:0:
320,192,191605,1,0,0:0:0:0:
448,192,191716,1,0,0:0:0:0:
64,192,191716,1,0,0:0:0:0:
320,192,191882,128,0,192216:0:0:0:0:
448,192,192049,1,0,0:0:0:0:
192,192,192049,1,0,0:0:0:0:
64,192,192216,128,0,192549:0:0:0:0:
448,192,192382,1,0,0:0:0:0:
320,192,192382,1,0,0:0:0:0:
320,192,192549,1,0,0:0:0:0:
448,192,192549,128,0,192882:0:0:0:0:
64,192,192882,128,0,195216:0:0:0:0:
192,192,192882,1,0,0:0:0:0:
320,192,192882,1,0,0:0:0:0:
192,192,193216,1,0,0:0:0:0:
448,192,193216,1,0,0:0:0:0:
192,192,193382,128,0,195216:0:0:0:0:
320,192,193382,1,0,0:0:0:0:
320,192,193882,128,0,195216:0:0:0:0:
448,192,193882,1,0,0:0:0:0:
448,192,195216,1,0,0:0:0:0:
448,192,195549,128,0,196216:0:0:0:0:
192,192,195549,1,0,0:0:0:0:
64,192,195549,1,0,0:0:0:0:
320,192,195882,1,0,0:0:0:0:
192,192,195882,1,0,0:0:0:0:
192,192,196049,1,0,0:0:0:0:
320,192,196049,1,0,0:0:0:0:
64,192,196216,128,0,196549:0:0:0:0:
192,192,196216,1,0,0:0:0:0:
320,192,196382,1,0,0:0:0:0:
448,192,196382,1,0,0:0:0:0:
448,192,196549,128,0,198216:0:0:0:0:
192,192,196549,1,0,0:0:0:0:
320,192,196549,1,0,0:0:0:0:
192,192,196882,1,0,0:0:0:0:
64,192,196882,1,0,0:0:0:0:
192,192,197049,1,0,0:0:0:0:
320,192,197049,1,0,0:0:0:0:
192,192,197216,1,0,0:0:0:0:
64,192,197216,1,0,0:0:0:0:
320,192,197549,1,0,0:0:0:0:
192,192,197549,1,0,0:0:0:0:
320,192,197716,1,0,0:0:0:0:
64,192,197716,1,0,0:0:0:0:
64,192,197882,1,0,0:0:0:0:
192,192,197882,1,0,0:0:0:0:
320,192,197966,1,0,0:0:0:0:
192,192,198049,1,0,0:0:0:0:
64,192,198049,1,0,0:0:0:0:
320,192,198132,1,0,0:0:0:0:
192,192,198216,1,0,0:0:0:0:
64,192,198216,1,0,0:0:0:0:
320,192,198382,1,0,0:0:0:0:
192,192,198382,1,0,0:0:0:0:
448,192,198549,1,0,0:0:0:0:
320,192,198549,1,0,0:0:0:0:
192,192,198716,1,0,0:0:0:0:
64,192,198716,1,0,0:0:0:0:
448,192,198716,1,0,0:0:0:0:
320,192,198882,1,0,0:0:0:0:
192,192,198882,1,0,0:0:0:0:
320,192,199049,1,0,0:0:0:0:
448,192,199049,1,0,0:0:0:0:
448,192,199216,1,0,0:0:0:0:
192,192,199216,1,0,0:0:0:0:
64,192,199216,1,0,0:0:0:0:
320,192,199382,1,0,0:0:0:0:
64,192,199382,1,0,0:0:0:0:
192,192,199549,1,0,0:0:0:0:
320,192,199549,1,0,0:0:0:0:
448,192,199716,1,0,0:0:0:0:
192,192,199716,1,0,0:0:0:0:
64,192,199716,1,0,0:0:0:0:
320,192,199882,1,0,0:0:0:0:
448,192,199882,1,0,0:0:0:0:
320,192,200049,1,0,0:0:0:0:
64,192,200049,1,0,0:0:0:0:
192,192,200216,1,0,0:0:0:0:
64,192,200216,1,0,0:0:0:0:
448,192,200216,1,0,0:0:0:0:
320,192,200382,1,0,0:0:0:0:
192,192,200382,1,0,0:0:0:0:
320,192,200549,1,0,0:0:0:0:
448,192,200549,1,0,0:0:0:0:
64,192,200549,1,0,0:0:0:0:
192,192,200716,1,0,0:0:0:0:
64,192,200716,1,0,0:0:0:0:
320,192,200799,1,0,0:0:0:0:
448,192,200799,1,0,0:0:0:0:
192,192,200882,1,0,0:0:0:0:
64,192,200882,1,0,0:0:0:0:
448,192,201049,1,0,0:0:0:0:
192,192,201049,1,0,0:0:0:0:
320,192,201216,1,0,0:0:0:0:
448,192,201216,1,0,0:0:0:0:
320,192,201382,1,0,0:0:0:0:
192,192,201382,1,0,0:0:0:0:
64,192,201382,1,0,0:0:0:0:
448,192,201549,1,0,0:0:0:0:
192,192,201549,1,0,0:0:0:0:
320,192,201716,1,0,0:0:0:0:
448,192,201716,1,0,0:0:0:0:
320,192,201882,1,0,0:0:0:0:
64,192,201882,1,0,0:0:0:0:
192,192,201882,1,0,0:0:0:0:
64,192,202049,1,0,0:0:0:0:
448,192,202049,1,0,0:0:0:0:
192,192,202216,1,0,0:0:0:0:
448,192,202216,1,0,0:0:0:0:
320,192,202382,1,0,0:0:0:0:
192,192,202382,1,0,0:0:0:0:
448,192,202382,1,0,0:0:0:0:
320,192,202549,1,0,0:0:0:0:
64,192,202549,1,0,0:0:0:0:
192,192,202716,1,0,0:0:0:0:
64,192,202716,1,0,0:0:0:0:
448,192,202882,1,0,0:0:0:0:
192,192,202882,1,0,0:0:0:0:
320,192,202882,1,0,0:0:0:0:
320,192,203049,1,0,0:0:0:0:
192,192,203049,1,0,0:0:0:0:
64,192,203216,1,0,0:0:0:0:
448,192,203216,1,0,0:0:0:0:
192,192,203299,1,0,0:0:0:0:
320,192,203299,1,0,0:0:0:0:
448,192,203382,1,0,0:0:0:0:
64,192,203382,1,0,0:0:0:0:
192,192,203466,1,0,0:0:0:0:
320,192,203466,1,0,0:0:0:0:
448,192,203549,1,0,0:0:0:0:
64,192,203549,1,0,0:0:0:0:
192,192,203549,1,0,0:0:0:0:
320,192,203716,1,0,0:0:0:0:
64,192,203716,1,0,0:0:0:0:
64,192,203882,1,0,0:0:0:0:
448,192,203882,1,0,0:0:0:0:
448,192,204049,1,0,0:0:0:0:
320,192,204049,1,0,0:0:0:0:
192,192,204049,1,0,0:0:0:0:
320,192,204216,1,0,0:0:0:0:
64,192,204216,1,0,0:0:0:0:
192,192,204382,1,0,0:0:0:0:
320,192,204382,1,0,0:0:0:0:
448,192,204549,1,0,0:0:0:0:
192,192,204549,1,0,0:0:0:0:
64,192,204549,1,0,0:0:0:0:
320,192,204716,1,0,0:0:0:0:
64,192,204716,1,0,0:0:0:0:
64,192,204882,1,0,0:0:0:0:
448,192,204882,1,0,0:0:0:0:
192,192,205049,1,0,0:0:0:0:
320,192,205049,1,0,0:0:0:0:
448,192,205049,1,0,0:0:0:0:
64,192,205216,1,0,0:0:0:0:
448,192,205216,1,0,0:0:0:0:
320,192,205382,1,0,0:0:0:0:
64,192,205382,1,0,0:0:0:0:
192,192,205549,1,0,0:0:0:0:
320,192,205549,1,0,0:0:0:0:
448,192,205549,1,0,0:0:0:0:
192,192,205716,1,0,0:0:0:0:
64,192,205716,1,0,0:0:0:0:
448,192,205882,1,0,0:0:0:0:
320,192,205882,1,0,0:0:0:0:
192,192,205966,1,0,0:0:0:0:
64,192,206049,1,0,0:0:0:0:
448,192,206049,1,0,0:0:0:0:
320,192,206132,1,0,0:0:0:0:
192,192,206216,1,0,0:0:0:0:
64,192,206216,1,0,0:0:0:0:
448,192,206382,1,0,0:0:0:0:
320,192,206549,1,0,0:0:0:0:
192,192,206549,1,0,0:0:0:0:
448,192,206716,1,0,0:0:0:0:
64,192,206716,1,0,0:0:0:0:
320,192,206882,1,0,0:0:0:0:
192,192,206882,1,0,0:0:0:0:
64,192,207049,1,0,0:0:0:0:
448,192,207049,1,0,0:0:0:0:
320,192,207216,1,0,0:0:0:0:
192,192,207216,1,0,0:0:0:0:
64,192,207382,1,0,0:0:0:0:
448,192,207382,1,0,0:0:0:0:
320,192,207549,1,0,0:0:0:0:
192,192,207549,1,0,0:0:0:0:
64,192,207716,1,0,0:0:0:0:
448,192,207716,1,0,0:0:0:0:
320,192,207882,1,0,0:0:0:0:
192,192,207882,1,0,0:0:0:0:
64,192,208049,1,0,0:0:0:0:
448,192,208049,1,0,0:0:0:0:
192,192,208216,1,0,0:0:0:0:
64,192,208216,1,0,0:0:0:0:
320,192,208299,1,0,0:0:0:0:
448,192,208382,1,0,0:0:0:0:
64,192,208382,1,0,0:0:0:0:
192,192,208466,1,0,0:0:0:0:
320,192,208466,1,0,0:0:0:0:
448,192,208549,1,0,0:0:0:0:
64,192,208549,1,0,0:0:0:0:
320,192,208632,1,0,0:0:0:0:
192,192,208632,1,0,0:0:0:0:
448,192,208716,1,0,0:0:0:0:
64,192,208716,1,0,0:0:0:0:
320,192,208799,1,0,0:0:0:0:
192,192,208799,1,0,0:0:0:0:
448,192,208882,128,0,209382:0:0:0:0:
192,192,208882,1,0,0:0:0:0:
64,192,208882,128,0,209049:0:0:0:0:
192,192,209049,128,0,209216:0:0:0:0:
320,192,209216,128,0,209382:0:0:0:0:
64,192,209216,1,0,0:0:0:0:
192,192,209382,128,0,209882:0:0:0:0:
64,192,209382,128,0,209549:0:0:0:0:
320,192,209549,128,0,209716:0:0:0:0:
448,192,209549,1,0,0:0:0:0:
448,192,209716,1,0,0:0:0:0:
64,192,209882,128,0,210382:0:0:0:0:
448,192,209882,128,0,210049:0:0:0:0:
320,192,209882,1,0,0:0:0:0:
192,192,210049,128,0,210216:0:0:0:0:
320,192,210216,1,0,0:0:0:0:
448,192,210216,1,0,0:0:0:0:
320,192,210382,128,0,210882:0:0:0:0:
448,192,210382,128,0,210549:0:0:0:0:
192,192,210549,128,0,210716:0:0:0:0:
64,192,210549,1,0,0:0:0:0:
448,192,210716,1,0,0:0:0:0:
448,192,210882,128,0,211216:0:0:0:0:
64,192,210882,128,0,211049:0:0:0:0:
320,192,211049,128,0,211216:0:0:0:0:
192,192,211216,128,0,211549:0:0:0:0:
64,192,211216,128,0,211382:0:0:0:0:
448,192,211382,128,0,211549:0:0:0:0:
320,192,211382,1,0,0:0:0:0:
320,192,211549,128,0,212049:0:0:0:0:
64,192,211549,128,0,211716:0:0:0:0:
192,192,211716,128,0,211882:0:0:0:0:
448,192,211882,128,0,212049:0:0:0:0:
64,192,211882,1,0,0:0:0:0:
64,192,212049,128,0,212549:0:0:0:0:
192,192,212049,128,0,212216:0:0:0:0:
448,192,212216,128,0,212382:0:0:0:0:
320,192,212216,1,0,0:0:0:0:
192,192,212382,1,0,0:0:0:0:
448,192,212549,128,0,213049:0:0:0:0:
320,192,212549,128,0,212716:0:0:0:0:
192,192,212549,1,0,0:0:0:0:
64,192,212716,128,0,212882:0:0:0:0:
192,192,212882,1,0,0:0:0:0:
320,192,212882,1,0,0:0:0:0:
320,192,213049,128,0,213216:0:0:0:0:
192,192,213049,128,0,213549:0:0:0:0:
64,192,213216,128,0,213382:0:0:0:0:
448,192,213216,1,0,0:0:0:0:
320,192,213382,1,0,0:0:0:0:
64,192,213549,128,0,213882:0:0:0:0:
448,192,213549,128,0,213716:0:0:0:0:
320,192,213549,1,0,0:0:0:0:
320,192,213716,128,0,213882:0:0:0:0:
192,192,213882,128,0,214049:0:0:0:0:
448,192,213882,1,0,0:0:0:0:
64,192,214049,1,0,0:0:0:0:
448,192,214049,1,0,0:0:0:0:
320,192,214132,1,0,0:0:0:0:
64,192,214216,128,0,214716:0:0:0:0:
448,192,214216,128,0,214382:0:0:0:0:
192,192,214216,1,0,0:0:0:0:
320,192,214382,128,0,214549:0:0:0:0:
192,192,214549,128,0,214716:0:0:0:0:
448,192,214549,1,0,0:0:0:0:
320,192,214716,128,0,215216:0:0:0:0:
448,192,214716,128,0,214882:0:0:0:0:
192,192,214882,128,0,215049:0:0:0:0:
64,192,214882,1,0,0:0:0:0:
64,192,215049,128,0,215216:0:0:0:0:
448,192,215216,128,0,215716:0:0:0:0:
192,192,215216,128,0,215382:0:0:0:0:
320,192,215382,128,0,215549:0:0:0:0:
64,192,215549,128,0,215716:0:0:0:0:
192,192,215549,1,0,0:0:0:0:
192,192,215716,128,0,216216:0:0:0:0:
320,192,215716,128,0,215882:0:0:0:0:
448,192,215882,128,0,216049:0:0:0:0:
64,192,215882,1,0,0:0:0:0:
320,192,216049,128,0,216216:0:0:0:0:
64,192,216049,1,0,0:0:0:0:
64,192,216216,128,0,216549:0:0:0:0:
448,192,216216,1,0,0:0:0:0:
192,192,216299,1,0,0:0:0:0:
448,192,216382,1,0,0:0:0:0:
320,192,216382,1,0,0:0:0:0:
192,192,216466,1,0,0:0:0:0:
320,192,216549,128,0,216882:0:0:0:0:
448,192,216549,1,0,0:0:0:0:
64,192,216632,1,0,0:0:0:0:
448,192,216716,1,0,0:0:0:0:
192,192,216716,1,0,0:0:0:0:
192,192,216882,128,0,217382:0:0:0:0:
64,192,216882,128,0,217049:0:0:0:0:
448,192,216882,1,0,0:0:0:0:
448,192,217049,128,0,217216:0:0:0:0:
320,192,217049,1,0,0:0:0:0:
320,192,217216,128,0,217382:0:0:0:0:
64,192,217216,1,0,0:0:0:0:
448,192,217382,128,0,217882:0:0:0:0:
64,192,217382,128,0,217549:0:0:0:0:
192,192,217549,128,0,217716:0:0:0:0:
320,192,217549,1,0,0:0:0:0:
320,192,217716,128,0,217882:0:0:0:0:
64,192,217716,1,0,0:0:0:0:
64,192,217882,128,0,218382:0:0:0:0:
192,192,217882,128,0,218049:0:0:0:0:
320,192,218049,128,0,218216:0:0:0:0:
448,192,218049,1,0,0:0:0:0:
448,192,218216,128,0,218382:0:0:0:0:
192,192,218216,1,0,0:0:0:0:
320,192,218382,128,0,218882:0:0:0:0:
192,192,218382,128,0,218549:0:0:0:0:
64,192,218549,128,0,218716:0:0:0:0:
448,192,218549,1,0,0:0:0:0:
448,192,218716,128,0,218882:0:0:0:0:
192,192,218716,1,0,0:0:0:0:
64,192,218882,128,0,219216:0:0:0:0:
192,192,218882,128,0,219049:0:0:0:0:
320,192,219049,128,0,219216:0:0:0:0:
448,192,219049,1,0,0:0:0:0:
448,192,219216,128,0,219549:0:0:0:0:
192,192,219216,128,0,219382:0:0:0:0:
320,192,219382,128,0,219549:0:0:0:0:
64,192,219382,1,0,0:0:0:0:
64,192,219549,128,0,220049:0:0:0:0:
192,192,219549,128,0,219716:0:0:0:0:
320,192,219716,128,0,219882:0:0:0:0:
448,192,219716,1,0,0:0:0:0:
448,192,219882,128,0,220049:0:0:0:0:
192,192,219882,1,0,0:0:0:0:
192,192,220049,128,0,220549:0:0:0:0:
320,192,220049,128,0,220216:0:0:0:0:
64,192,220216,128,0,220382:0:0:0:0:
448,192,220216,1,0,0:0:0:0:
448,192,220382,128,0,220549:0:0:0:0:
320,192,220382,1,0,0:0:0:0:
320,192,220549,128,0,221049:0:0:0:0:
64,192,220549,128,0,220716:0:0:0:0:
448,192,220716,128,0,220882:0:0:0:0:
192,192,220716,1,0,0:0:0:0:
192,192,220882,128,0,221049:0:0:0:0:
64,192,220882,1,0,0:0:0:0:
448,192,221049,128,0,221549:0:0:0:0:
64,192,221049,128,0,221216:0:0:0:0:
320,192,221216,128,0,221382:0:0:0:0:
192,192,221216,1,0,0:0:0:0:
192,192,221382,128,0,221549:0:0:0:0:
64,192,221549,128,0,222216:0:0:0:0:
320,192,221549,1,0,0:0:0:0:
192,192,221632,1,0,0:0:0:0:
448,192,221716,1,0,0:0:0:0:
320,192,221716,1,0,0:0:0:0:
192,192,221799,1,0,0:0:0:0:
448,192,221882,1,0,0:0:0:0:
320,192,221882,1,0,0:0:0:0:
192,192,221966,1,0,0:0:0:0:
448,192,222049,1,0,0:0:0:0:
320,192,222049,1,0,0:0:0:0:
192,192,222132,1,0,0:0:0:0:
320,192,222216,1,0,0:0:0:0:
448,192,222216,1,0,0:0:0:0:
64,192,222716,1,0,0:0:0:0:
320,192,223216,1,0,0:0:0:0:
192,192,224216,1,0,0:0:0:0:
64,192,224549,1,0,0:0:0:0:
192,192,224882,1,0,0:0:0:0:
320,192,225382,1,0,0:0:0:0:
448,192,225882,1,0,0:0:0:0:
192,192,226882,1,0,0:0:0:0:
64,192,227216,1,0,0:0:0:0:
320,192,227549,1,0,0:0:0:0:
192,192,228049,1,0,0:0:0:0:
448,192,228382,1,0,0:0:0:0:
320,192,228549,1,0,0:0:0:0:
192,192,228716,1,0,0:0:0:0:
64,192,229049,1,0,0:0:0:0:
320,192,229382,1,0,0:0:0:0:
192,192,229549,1,0,0:0:0:0:
448,192,229882,1,0,0:0:0:0:
64,192,230216,1,0,0:0:0:0:
320,192,230549,1,0,0:0:0:0:
192,192,230716,1,0,0:0:0:0:
448,192,231049,1,0,0:0:0:0:
320,192,231216,1,0,0:0:0:0:
192,192,231549,1,0,0:0:0:0:
64,192,231716,1,0,0:0:0:0:
320,192,232049,1,0,0:0:0:0:
448,192,232216,1,0,0:0:0:0:
64,192,232549,128,0,232882:0:0:0:0:
192,192,232882,1,0,0:0:0:0:
448,192,232882,1,0,0:0:0:0:
448,192,233049,1,0,0:0:0:0:
448,192,233216,1,0,0:0:0:0:
192,192,233216,1,0,0:0:0:0:
448,192,233382,1,0,0:0:0:0:
192,192,233549,1,0,0:0:0:0:
448,192,233549,1,0,0:0:0:0:
448,192,233716,1,0,0:0:0:0:
192,192,233882,1,0,0:0:0:0:
448,192,233882,1,0,0:0:0:0:
448,192,234049,1,0,0:0:0:0:
448,192,234216,1,0,0:0:0:0:
192,192,234216,1,0,0:0:0:0:
448,192,234382,1,0,0:0:0:0:
448,192,234549,1,0,0:0:0:0:
192,192,234549,1,0,0:0:0:0:
448,192,234716,1,0,0:0:0:0:
448,192,234882,1,0,0:0:0:0:
192,192,234882,1,0,0:0:0:0:
448,192,235049,128,0,235216:0:0:0:0:
192,192,235216,1,0,0:0:0:0:
448,192,235382,128,0,235549:0:0:0:0:
64,192,235549,1,0,0:0:0:0:
320,192,235549,1,0,0:0:0:0:
64,192,235716,1,0,0:0:0:0:
64,192,235882,1,0,0:0:0:0:
320,192,235882,1,0,0:0:0:0:
64,192,236049,1,0,0:0:0:0:
64,192,236216,1,0,0:0:0:0:
320,192,236216,1,0,0:0:0:0:
64,192,236382,1,0,0:0:0:0:
64,192,236549,1,0,0:0:0:0:
320,192,236549,1,0,0:0:0:0:
64,192,236716,1,0,0:0:0:0:
64,192,236882,1,0,0:0:0:0:
320,192,236882,1,0,0:0:0:0:
64,192,237049,1,0,0:0:0:0:
64,192,237216,1,0,0:0:0:0:
320,192,237216,1,0,0:0:0:0:
64,192,237382,1,0,0:0:0:0:
64,192,237549,1,0,0:0:0:0:
320,192,237549,1,0,0:0:0:0:
64,192,237716,1,0,0:0:0:0:
64,192,237882,1,0,0:0:0:0:
320,192,237882,1,0,0:0:0:0:
64,192,238049,128,0,238216:0:0:0:0:
320,192,238216,1,0,0:0:0:0:
192,192,238216,1,0,0:0:0:0:
320,192,238382,1,0,0:0:0:0:
192,192,238549,1,0,0:0:0:0:
320,192,238549,1,0,0:0:0:0:
320,192,238716,1,0,0:0:0:0:
192,192,238882,1,0,0:0:0:0:
320,192,238882,1,0,0:0:0:0:
320,192,239049,1,0,0:0:0:0:
192,192,239216,1,0,0:0:0:0:
320,192,239216,1,0,0:0:0:0:
320,192,239382,1,0,0:0:0:0:
192,192,239549,1,0,0:0:0:0:
320,192,239549,1,0,0:0:0:0:
192,192,239716,1,0,0:0:0:0:
320,192,239882,1,0,0:0:0:0:
192,192,239882,1,0,0:0:0:0:
192,192,240049,1,0,0:0:0:0:
192,192,240216,1,0,0:0:0:0:
320,192,240216,1,0,0:0:0:0:
192,192,240382,1,0,0:0:0:0:
192,192,240549,1,0,0:0:0:0:
320,192,240549,1,0,0:0:0:0:
192,192,240716,1,0,0:0:0:0:
192,192,240882,1,0,0:0:0:0:
320,192,240882,1,0,0:0:0:0:
448,192,240882,1,0,0:0:0:0:
64,192,241049,1,0,0:0:0:0:
192,192,241216,1,0,0:0:0:0:
64,192,241216,1,0,0:0:0:0:
320,192,241216,1,0,0:0:0:0:
448,192,241382,1,0,0:0:0:0:
192,192,241382,1,0,0:0:0:0:
320,192,241466,1,0,0:0:0:0:
192,192,241549,1,0,0:0:0:0:
64,192,241549,1,0,0:0:0:0:
448,192,241632,1,0,0:0:0:0:
320,192,241632,1,0,0:0:0:0:
192,192,241716,1,0,0:0:0:0:
64,192,241716,1,0,0:0:0:0:
320,192,241799,1,0,0:0:0:0:
448,192,241799,1,0,0:0:0:0:
192,192,241882,1,0,0:0:0:0:
64,192,241882,1,0,0:0:0:0:
320,192,241966,1,0,0:0:0:0:
448,192,241966,1,0,0:0:0:0:
192,192,242049,1,0,0:0:0:0:
64,192,242049,1,0,0:0:0:0:
448,192,242132,1,0,0:0:0:0:
320,192,242132,1,0,0:0:0:0:
64,192,242216,128,0,244716:0:0:0:0:
192,192,242216,128,0,243549:0:0:0:0:
448,192,244882,1,0,0:0:0:0:
320,192,244882,1,0,0:0:0:0:
192,192,244882,1,0,0:0:0:0:
64,192,244882,1,0,0:0:0:0:
448,192,245049,1,0,0:0:0:0:
320,192,245049,1,0,0:0:0:0:
320,192,245216,1,0,0:0:0:0:
448,192,245216,1,0,0:0:0:0:
448,192,245382,1,0,0:0:0:0:
320,192,245382,1,0,0:0:0:0:
192,192,245382,1,0,0:0:0:0:
64,192,245382,1,0,0:0:0:0:
192,192,245549,1,0,0:0:0:0:
64,192,245549,1,0,0:0:0:0:
64,192,245716,1,0,0:0:0:0:
192,192,245716,1,0,0:0:0:0:
192,192,245882,1,0,0:0:0:0:
64,192,245882,1,0,0:0:0:0:
320,192,245882,1,0,0:0:0:0:
448,192,245882,1,0,0:0:0:0:
448,192,246049,1,0,0:0:0:0:
192,192,246049,1,0,0:0:0:0:
448,192,246216,1,0,0:0:0:0:
192,192,246216,1,0,0:0:0:0:
448,192,246382,1,0,0:0:0:0:
320,192,246382,1,0,0:0:0:0:
192,192,246382,1,0,0:0:0:0:
64,192,246382,1,0,0:0:0:0:
320,192,246549,1,0,0:0:0:0:
192,192,246549,1,0,0:0:0:0:
320,192,246716,1,0,0:0:0:0:
192,192,246716,1,0,0:0:0:0:
192,192,246882,1,0,0:0:0:0:
320,192,246882,1,0,0:0:0:0:
64,192,246882,1,0,0:0:0:0:
448,192,246882,1,0,0:0:0:0:
448,192,247049,1,0,0:0:0:0:
64,192,247049,1,0,0:0:0:0:
64,192,247216,1,0,0:0:0:0:
448,192,247216,1,0,0:0:0:0:
320,192,247216,1,0,0:0:0:0:
192,192,247216,1,0,0:0:0:0:
320,192,247382,1,0,0:0:0:0:
64,192,247382,1,0,0:0:0:0:
448,192,247466,1,0,0:0:0:0:
192,192,247466,1,0,0:0:0:0:
64,192,247549,1,0,0:0:0:0:
320,192,247549,1,0,0:0:0:0:
192,192,247549,1,0,0:0:0:0:
448,192,247549,1,0,0:0:0:0:
192,192,247716,1,0,0:0:0:0:
64,192,247716,1,0,0:0:0:0:
64,192,247882,1,0,0:0:0:0:
192,192,247882,1,0,0:0:0:0:
64,192,248049,1,0,0:0:0:0:
192,192,248049,1,0,0:0:0:0:
320,192,248049,1,0,0:0:0:0:
448,192,248049,1,0,0:0:0:0:
320,192,248216,1,0,0:0:0:0:
64,192,248216,1,0,0:0:0:0:
320,192,248382,1,0,0:0:0:0:
64,192,248382,1,0,0:0:0:0:
320,192,248549,1,0,0:0:0:0:
192,192,248549,1,0,0:0:0:0:
64,192,248549,1,0,0:0:0:0:
448,192,248549,1,0,0:0:0:0:
320,192,248716,1,0,0:0:0:0:
192,192,248716,1,0,0:0:0:0:
192,192,248882,1,0,0:0:0:0:
320,192,248882,1,0,0:0:0:0:
320,192,249049,1,0,0:0:0:0:
192,192,249049,1,0,0:0:0:0:
64,192,249049,1,0,0:0:0:0:
448,192,249049,1,0,0:0:0:0:
448,192,249216,1,0,0:0:0:0:
64,192,249216,1,0,0:0:0:0:
64,192,249382,1,0,0:0:0:0:
448,192,249382,1,0,0:0:0:0:
448,192,249549,1,0,0:0:0:0:
320,192,249549,1,0,0:0:0:0:
192,192,249549,1,0,0:0:0:0:
64,192,249549,1,0,0:0:0:0:
448,192,249716,1,0,0:0:0:0:
192,192,249716,1,0,0:0:0:0:
192,192,249882,1,0,0:0:0:0:
320,192,249882,1,0,0:0:0:0:
448,192,249882,1,0,0:0:0:0:
64,192,249882,1,0,0:0:0:0:
448,192,250049,1,0,0:0:0:0:
320,192,250049,1,0,0:0:0:0:
64,192,250132,1,0,0:0:0:0:
192,192,250132,1,0,0:0:0:0:
448,192,250216,1,0,0:0:0:0:
320,192,250216,1,0,0:0:0:0:
192,192,250216,1,0,0:0:0:0:
64,192,250216,1,0,0:0:0:0:
448,192,250382,1,0,0:0:0:0:
320,192,250382,1,0,0:0:0:0:
320,192,250549,1,0,0:0:0:0:
448,192,250549,1,0,0:0:0:0:
448,192,250716,1,0,0:0:0:0:
320,192,250716,1,0,0:0:0:0:
192,192,250716,1,0,0:0:0:0:
64,192,250716,1,0,0:0:0:0:
320,192,250882,1,0,0:0:0:0:
192,192,250882,1,0,0:0:0:0:
192,192,251049,1,0,0:0:0:0:
320,192,251049,1,0,0:0:0:0:
320,192,251216,1,0,0:0:0:0:
192,192,251216,1,0,0:0:0:0:
64,192,251216,1,0,0:0:0:0:
448,192,251216,1,0,0:0:0:0:
320,192,251382,1,0,0:0:0:0:
64,192,251382,1,0,0:0:0:0:
64,192,251549,1,0,0:0:0:0:
320,192,251549,1,0,0:0:0:0:
64,192,251716,1,0,0:0:0:0:
192,192,251716,1,0,0:0:0:0:
320,192,251716,1,0,0:0:0:0:
448,192,251716,1,0,0:0:0:0:
64,192,251882,1,0,0:0:0:0:
192,192,251882,1,0,0:0:0:0:
192,192,252049,1,0,0:0:0:0:
64,192,252049,1,0,0:0:0:0:
64,192,252216,1,0,0:0:0:0:
192,192,252216,1,0,0:0:0:0:
320,192,252216,1,0,0:0:0:0:
448,192,252216,1,0,0:0:0:0:
448,192,252382,1,0,0:0:0:0:
320,192,252382,1,0,0:0:0:0:
320,192,252549,1,0,0:0:0:0:
448,192,252549,1,0,0:0:0:0:
192,192,252549,1,0,0:0:0:0:
64,192,252549,1,0,0:0:0:0:
192,192,252716,1,0,0:0:0:0:
64,192,252716,1,0,0:0:0:0:
448,192,252799,1,0,0:0:0:0:
320,192,252799,1,0,0:0:0:0:
192,192,252882,1,0,0:0:0:0:
64,192,252882,1,0,0:0:0:0:
320,192,252882,1,0,0:0:0:0:
448,192,252882,1,0,0:0:0:0:
192,192,253049,1,0,0:0:0:0:
64,192,253049,1,0,0:0:0:0:
64,192,253216,1,0,0:0:0:0:
192,192,253216,1,0,0:0:0:0:
320,192,253382,1,0,0:0:0:0:
448,192,253382,1,0,0:0:0:0:
192,192,253382,1,0,0:0:0:0:
64,192,253382,1,0,0:0:0:0:
448,192,253549,1,0,0:0:0:0:
64,192,253549,1,0,0:0:0:0:
64,192,253716,1,0,0:0:0:0:
448,192,253716,1,0,0:0:0:0:
64,192,253882,1,0,0:0:0:0:
448,192,253882,1,0,0:0:0:0:
320,192,253882,1,0,0:0:0:0:
192,192,253882,1,0,0:0:0:0:
192,192,254049,1,0,0:0:0:0:
448,192,254049,1,0,0:0:0:0:
448,192,254216,1,0,0:0:0:0:
192,192,254216,1,0,0:0:0:0:
64,192,254299,1,0,0:0:0:0:
320,192,254299,1,0,0:0:0:0:
192,192,254382,1,0,0:0:0:0:
448,192,254382,1,0,0:0:0:0:
320,192,254466,1,0,0:0:0:0:
64,192,254466,1,0,0:0:0:0:
192,192,254549,1,0,0:0:0:0:
448,192,254549,1,0,0:0:0:0:
320,192,254632,1,0,0:0:0:0:
192,192,254716,1,0,0:0:0:0:
64,192,254716,1,0,0:0:0:0:
448,192,254799,1,0,0:0:0:0:
320,192,254799,1,0,0:0:0:0:
192,192,254882,1,0,0:0:0:0:
64,192,254882,1,0,0:0:0:0:
320,192,254966,1,0,0:0:0:0:
448,192,254966,1,0,0:0:0:0:
192,192,255049,1,0,0:0:0:0:
64,192,255049,1,0,0:0:0:0:
320,192,255132,1,0,0:0:0:0:
448,192,255216,1,0,0:0:0:0:
64,192,255216,1,0,0:0:0:0:
320,192,255299,1,0,0:0:0:0:
192,192,255299,1,0,0:0:0:0:
64,192,255382,1,0,0:0:0:0:
448,192,255382,1,0,0:0:0:0:
320,192,255466,1,0,0:0:0:0:
192,192,255466,1,0,0:0:0:0:
64,192,255549,1,0,0:0:0:0:
448,192,255549,1,0,0:0:0:0:
320,192,255549,1,0,0:0:0:0:
192,192,255632,1,0,0:0:0:0:
320,192,255716,1,0,0:0:0:0:
448,192,255716,1,0,0:0:0:0:
64,192,255799,1,0,0:0:0:0:
192,192,255882,1,0,0:0:0:0:
320,192,255882,1,0,0:0:0:0:
448,192,255882,1,0,0:0:0:0:
64,192,255966,1,0,0:0:0:0:
448,192,256049,1,0,0:0:0:0:
192,192,256049,1,0,0:0:0:0:
320,192,256132,1,0,0:0:0:0:
192,192,256216,1,0,0:0:0:0:
64,192,256216,1,0,0:0:0:0:
448,192,256216,1,0,0:0:0:0:
320,192,256299,1,0,0:0:0:0:
192,192,256382,1,0,0:0:0:0:
64,192,256382,1,0,0:0:0:0:
448,192,256466,1,0,0:0:0:0:
320,192,256549,1,0,0:0:0:0:
192,192,256549,1,0,0:0:0:0:
64,192,256549,1,0,0:0:0:0:
448,192,256632,1,0,0:0:0:0:
320,192,256716,1,0,0:0:0:0:
64,192,256716,1,0,0:0:0:0:
192,192,256799,1,0,0:0:0:0:
64,192,256882,1,0,0:0:0:0:
320,192,256882,1,0,0:0:0:0:
448,192,256882,1,0,0:0:0:0:
192,192,256966,1,0,0:0:0:0:
64,192,257049,1,0,0:0:0:0:
448,192,257049,1,0,0:0:0:0:
320,192,257132,1,0,0:0:0:0:
192,192,257216,1,0,0:0:0:0:
64,192,257216,1,0,0:0:0:0:
448,192,257216,1,0,0:0:0:0:
320,192,257299,1,0,0:0:0:0:
192,192,257382,1,0,0:0:0:0:
448,192,257382,1,0,0:0:0:0:
64,192,257466,1,0,0:0:0:0:
192,192,257549,1,0,0:0:0:0:
320,192,257549,1,0,0:0:0:0:
448,192,257549,1,0,0:0:0:0:
64,192,257632,1,0,0:0:0:0:
192,192,257716,1,0,0:0:0:0:
320,192,257716,1,0,0:0:0:0:
448,192,257799,1,0,0:0:0:0:
320,192,257882,1,0,0:0:0:0:
192,192,257882,1,0,0:0:0:0:
64,192,257882,1,0,0:0:0:0:
448,192,257966,1,0,0:0:0:0:
64,192,258049,1,0,0:0:0:0:
192,192,258049,1,0,0:0:0:0:
448,192,258132,1,0,0:0:0:0:
320,192,258132,1,0,0:0:0:0:
64,192,258216,1,0,0:0:0:0:
192,192,258216,1,0,0:0:0:0:
320,192,258299,1,0,0:0:0:0:
448,192,258382,1,0,0:0:0:0:
64,192,258382,1,0,0:0:0:0:
192,192,258466,1,0,0:0:0:0:
320,192,258549,1,0,0:0:0:0:
448,192,258549,1,0,0:0:0:0:
64,192,258549,1,0,0:0:0:0:
192,192,258632,1,0,0:0:0:0:
64,192,258716,1,0,0:0:0:0:
448,192,258716,1,0,0:0:0:0:
320,192,258799,1,0,0:0:0:0:
192,192,258882,1,0,0:0:0:0:
64,192,258882,1,0,0:0:0:0:
448,192,258966,1,0,0:0:0:0:
320,192,259049,1,0,0:0:0:0:
192,192,259049,1,0,0:0:0:0:
64,192,259132,1,0,0:0:0:0:
448,192,259216,1,0,0:0:0:0:
320,192,259216,1,0,0:0:0:0:
192,192,259216,1,0,0:0:0:0:
64,192,259299,1,0,0:0:0:0:
448,192,259382,1,0,0:0:0:0:
192,192,259382,1,0,0:0:0:0:
320,192,259466,1,0,0:0:0:0:
448,192,259549,1,0,0:0:0:0:
192,192,259549,1,0,0:0:0:0:
64,192,259549,1,0,0:0:0:0:
320,192,259632,1,0,0:0:0:0:
192,192,259716,1,0,0:0:0:0:
64,192,259716,1,0,0:0:0:0:
448,192,259799,1,0,0:0:0:0:
320,192,259882,1,0,0:0:0:0:
192,192,259882,1,0,0:0:0:0:
64,192,259882,1,0,0:0:0:0:
448,192,259966,1,0,0:0:0:0:
64,192,260049,1,0,0:0:0:0:
320,192,260049,1,0,0:0:0:0:
192,192,260132,1,0,0:0:0:0:
320,192,260216,1,0,0:0:0:0:
448,192,260216,1,0,0:0:0:0:
64,192,260216,1,0,0:0:0:0:
192,192,260299,1,0,0:0:0:0:
64,192,260382,1,0,0:0:0:0:
448,192,260382,1,0,0:0:0:0:
320,192,260382,1,0,0:0:0:0:
192,192,260466,1,0,0:0:0:0:
64,192,260549,1,0,0:0:0:0:
448,192,260549,1,0,0:0:0:0:
320,192,260632,1,0,0:0:0:0:
192,192,260716,1,0,0:0:0:0:
64,192,260716,1,0,0:0:0:0:
448,192,260716,1,0,0:0:0:0:
320,192,260799,1,0,0:0:0:0:
192,192,260882,1,0,0:0:0:0:
64,192,260882,1,0,0:0:0:0:
448,192,260882,1,0,0:0:0:0:
320,192,260966,1,0,0:0:0:0:
192,192,261049,1,0,0:0:0:0:
64,192,261049,1,0,0:0:0:0:
448,192,261132,1,0,0:0:0:0:
320,192,261216,1,0,0:0:0:0:
192,192,261216,1,0,0:0:0:0:
64,192,261216,1,0,0:0:0:0:
448,192,261299,1,0,0:0:0:0:
192,192,261382,1,0,0:0:0:0:
64,192,261382,1,0,0:0:0:0:
320,192,261466,1,0,0:0:0:0:
448,192,261549,1,0,0:0:0:0:
192,192,261549,128,0,261716:0:0:0:0:
320,192,261632,1,0,0:0:0:0:
64,192,261716,128,0,261882:0:0:0:0:
448,192,261799,1,0,0:0:0:0:
320,192,261882,128,0,262049:0:0:0:0:
192,192,261882,1,0,0:0:0:0:
64,192,261966,1,0,0:0:0:0:
448,192,262049,128,0,262382:0:0:0:0:
320,192,262132,1,0,0:0:0:0:
192,192,262216,1,0,0:0:0:0:
64,192,262216,1,0,0:0:0:0:
320,192,262299,1,0,0:0:0:0:
192,192,262382,128,0,262549:0:0:0:0:
64,192,262466,1,0,0:0:0:0:
320,192,262549,1,0,0:0:0:0:
448,192,262549,1,0,0:0:0:0:
64,192,262632,1,0,0:0:0:0:
320,192,262716,128,0,262882:0:0:0:0:
192,192,262799,1,0,0:0:0:0:
448,192,262882,128,0,263049:0:0:0:0:
64,192,262882,1,0,0:0:0:0:
192,192,262966,1,0,0:0:0:0:
64,192,263049,128,0,263382:0:0:0:0:
448,192,263132,1,0,0:0:0:0:
320,192,263216,1,0,0:0:0:0:
192,192,263216,1,0,0:0:0:0:
448,192,263299,1,0,0:0:0:0:
192,192,263382,1,0,0:0:0:0:
320,192,263466,1,0,0:0:0:0:
448,192,263549,128,0,263882:0:0:0:0:
192,192,263549,1,0,0:0:0:0:
64,192,263549,1,0,0:0:0:0:
320,192,263632,1,0,0:0:0:0:
192,192,263716,1,0,0:0:0:0:
64,192,263799,1,0,0:0:0:0:
192,192,263882,1,0,0:0:0:0:
320,192,263882,1,0,0:0:0:0:
64,192,263966,1,0,0:0:0:0:
448,192,264049,1,0,0:0:0:0:
320,192,264049,1,0,0:0:0:0:
192,192,264132,1,0,0:0:0:0:
64,192,264216,128,0,264882:0:0:0:0:
320,192,264216,1,0,0:0:0:0:
448,192,264216,1,0,0:0:0:0:
192,192,264299,1,0,0:0:0:0:
320,192,264382,1,0,0:0:0:0:
448,192,264466,1,0,0:0:0:0:
192,192,264549,1,0,0:0:0:0:
320,192,264549,1,0,0:0:0:0:
448,192,264632,1,0,0:0:0:0:
320,192,264716,1,0,0:0:0:0:
192,192,264799,1,0,0:0:0:0:
448,192,264882,128,0,265216:0:0:0:0:
320,192,264882,1,0,0:0:0:0:
192,192,264966,1,0,0:0:0:0:
64,192,264966,1,0,0:0:0:0:
320,192,265049,1,0,0:0:0:0:
192,192,265132,1,0,0:0:0:0:
64,192,265132,1,0,0:0:0:0:
320,192,265216,1,0,0:0:0:0:
192,192,265299,1,0,0:0:0:0:
64,192,265299,1,0,0:0:0:0:
448,192,265382,1,0,0:0:0:0:
320,192,265382,1,0,0:0:0:0:
64,192,265466,1,0,0:0:0:0:
192,192,265466,1,0,0:0:0:0:
448,192,265549,1,0,0:0:0:0:
320,192,265549,1,0,0:0:0:0:
192,192,265632,1,0,0:0:0:0:
64,192,265632,1,0,0:0:0:0:
320,192,265716,1,0,0:0:0:0:
448,192,265716,1,0,0:0:0:0:
192,192,265799,1,0,0:0:0:0:
64,192,265799,1,0,0:0:0:0:
320,192,265882,1,0,0:0:0:0:
448,192,265882,1,0,0:0:0:0:
192,192,265966,1,0,0:0:0:0:
64,192,265966,1,0,0:0:0:0:
320,192,266049,1,0,0:0:0:0:
448,192,266049,1,0,0:0:0:0:
192,192,266132,1,0,0:0:0:0:
64,192,266132,1,0,0:0:0:0:
320,192,266216,1,0,0:0:0:0:
448,192,266216,1,0,0:0:0:0:
64,192,266216,1,0,0:0:0:0:
192,192,266299,1,0,0:0:0:0:
320,192,266382,1,0,0:0:0:0:
448,192,266382,1,0,0:0:0:0:
64,192,266466,1,0,0:0:0:0:
192,192,266549,1,0,0:0:0:0:
320,192,266549,1,0,0:0:0:0:
448,192,266632,1,0,0:0:0:0:
64,192,266716,1,0,0:0:0:0:
192,192,266716,1,0,0:0:0:0:
320,192,266716,1,0,0:0:0:0:
448,192,266716,1,0,0:0:0:0:
64,192,266799,1,0,0:0:0:0:
320,192,266882,1,0,0:0:0:0:
448,192,266882,1,0,0:0:0:0:
64,192,266966,1,0,0:0:0:0:
192,192,267049,1,0,0:0:0:0:
320,192,267049,1,0,0:0:0:0:
448,192,267132,1,0,0:0:0:0:
320,192,267216,1,0,0:0:0:0:
192,192,267216,1,0,0:0:0:0:
64,192,267216,1,0,0:0:0:0:
448,192,267216,1,0,0:0:0:0:
192,192,267299,1,0,0:0:0:0:
64,192,267382,1,0,0:0:0:0:
448,192,267466,1,0,0:0:0:0:
320,192,267549,1,0,0:0:0:0:
192,192,267549,1,0,0:0:0:0:
64,192,267632,1,0,0:0:0:0:
448,192,267716,1,0,0:0:0:0:
320,192,267716,1,0,0:0:0:0:
192,192,267716,1,0,0:0:0:0:
64,192,267716,1,0,0:0:0:0:
320,192,267799,1,0,0:0:0:0:
448,192,267882,1,0,0:0:0:0:
64,192,267882,1,0,0:0:0:0:
192,192,267966,1,0,0:0:0:0:
320,192,268049,1,0,0:0:0:0:
448,192,268049,1,0,0:0:0:0:
64,192,268132,1,0,0:0:0:0:
192,192,268216,1,0,0:0:0:0:
448,192,268216,1,0,0:0:0:0:
320,192,268216,1,0,0:0:0:0:
64,192,268216,1,0,0:0:0:0:
320,192,268299,1,0,0:0:0:0:
448,192,268382,1,0,0:0:0:0:
192,192,268382,1,0,0:0:0:0:
64,192,268466,1,0,0:0:0:0:
448,192,268549,1,0,0:0:0:0:
320,192,268549,1,0,0:0:0:0:
192,192,268549,1,0,0:0:0:0:
64,192,268549,1,0,0:0:0:0:
448,192,268632,1,0,0:0:0:0:
192,192,268716,1,0,0:0:0:0:
64,192,268716,1,0,0:0:0:0:
448,192,268799,1,0,0:0:0:0:
320,192,268799,1,0,0:0:0:0:
192,192,268882,1,0,0:0:0:0:
64,192,268882,1,0,0:0:0:0:
448,192,268882,1,0,0:0:0:0:
320,192,268882,1,0,0:0:0:0:
192,192,268966,1,0,0:0:0:0:
320,192,269049,1,0,0:0:0:0:
448,192,269049,1,0,0:0:0:0:
64,192,269132,1,0,0:0:0:0:
192,192,269216,1,0,0:0:0:0:
320,192,269216,1,0,0:0:0:0:
448,192,269299,1,0,0:0:0:0:
64,192,269382,1,0,0:0:0:0:
192,192,269382,1,0,0:0:0:0:
320,192,269382,1,0,0:0:0:0:
448,192,269382,1,0,0:0:0:0:
192,192,269466,1,0,0:0:0:0:
64,192,269549,1,0,0:0:0:0:
448,192,269549,1,0,0:0:0:0:
320,192,269632,1,0,0:0:0:0:
192,192,269716,1,0,0:0:0:0:
64,192,269716,1,0,0:0:0:0:
320,192,269799,1,0,0:0:0:0:
448,192,269882,1,0,0:0:0:0:
192,192,269882,1,0,0:0:0:0:
64,192,269882,1,0,0:0:0:0:
320,192,269882,1,0,0:0:0:0:
192,192,269966,1,0,0:0:0:0:
320,192,270049,1,0,0:0:0:0:
448,192,270049,1,0,0:0:0:0:
64,192,270132,1,0,0:0:0:0:
192,192,270216,1,0,0:0:0:0:
320,192,270216,1,0,0:0:0:0:
448,192,270299,1,0,0:0:0:0:
64,192,270382,1,0,0:0:0:0:
192,192,270382,1,0,0:0:0:0:
448,192,270382,1,0,0:0:0:0:
320,192,270382,1,0,0:0:0:0:
64,192,270466,1,0,0:0:0:0:
192,192,270549,1,0,0:0:0:0:
448,192,270549,1,0,0:0:0:0:
320,192,270632,1,0,0:0:0:0:
192,192,270716,1,0,0:0:0:0:
64,192,270716,1,0,0:0:0:0:
448,192,270799,1,0,0:0:0:0:
192,192,270882,1,0,0:0:0:0:
64,192,270882,1,0,0:0:0:0:
448,192,270966,1,0,0:0:0:0:
320,192,270966,1,0,0:0:0:0:
192,192,271049,1,0,0:0:0:0:
64,192,271049,1,0,0:0:0:0:
320,192,271132,1,0,0:0:0:0:
448,192,271132,1,0,0:0:0:0:
192,192,271216,1,0,0:0:0:0:
64,192,271216,1,0,0:0:0:0:
320,192,271299,1,0,0:0:0:0:
448,192,271299,1,0,0:0:0:0:
192,192,271382,1,0,0:0:0:0:
64,192,271382,1,0,0:0:0:0:
320,192,271466,1,0,0:0:0:0:
448,192,271466,1,0,0:0:0:0:
192,192,271549,1,0,0:0:0:0:
64,192,271549,1,0,0:0:0:0:
448,192,271549,1,0,0:0:0:0:
320,192,271549,1,0,0:0:0:0:
64,192,271632,1,0,0:0:0:0:
192,192,271716,1,0,0:0:0:0:
320,192,271716,1,0,0:0:0:0:
448,192,271799,1,0,0:0:0:0:
64,192,271882,1,0,0:0:0:0:
192,192,271882,1,0,0:0:0:0:
320,192,271966,1,0,0:0:0:0:
448,192,272049,1,0,0:0:0:0:
192,192,272049,1,0,0:0:0:0:
320,192,272049,1,0,0:0:0:0:
64,192,272049,1,0,0:0:0:0:
192,192,272132,1,0,0:0:0:0:
64,192,272216,1,0,0:0:0:0:
448,192,272216,1,0,0:0:0:0:
320,192,272299,1,0,0:0:0:0:
192,192,272382,1,0,0:0:0:0:
64,192,272382,1,0,0:0:0:0:
448,192,272466,1,0,0:0:0:0:
320,192,272549,1,0,0:0:0:0:
192,192,272549,1,0,0:0:0:0:
64,192,272549,1,0,0:0:0:0:
448,192,272549,1,0,0:0:0:0:
192,192,272632,1,0,0:0:0:0:
448,192,272716,1,0,0:0:0:0:
64,192,272716,1,0,0:0:0:0:
320,192,272799,1,0,0:0:0:0:
192,192,272882,1,0,0:0:0:0:
64,192,272882,1,0,0:0:0:0:
320,192,272966,1,0,0:0:0:0:
448,192,273049,1,0,0:0:0:0:
64,192,273049,1,0,0:0:0:0:
320,192,273049,1,0,0:0:0:0:
192,192,273049,1,0,0:0:0:0:
64,192,273132,1,0,0:0:0:0:
192,192,273216,1,0,0:0:0:0:
320,192,273216,1,0,0:0:0:0:
448,192,273299,1,0,0:0:0:0:
192,192,273382,1,0,0:0:0:0:
64,192,273382,1,0,0:0:0:0:
320,192,273466,1,0,0:0:0:0:
192,192,273549,1,0,0:0:0:0:
64,192,273549,1,0,0:0:0:0:
320,192,273660,1,0,0:0:0:0:
64,192,273660,1,0,0:0:0:0:
448,192,273771,1,0,0:0:0:0:
64,192,273771,1,0,0:0:0:0:
448,192,273882,1,0,0:0:0:0:
192,192,273882,1,0,0:0:0:0:
320,192,273994,1,0,0:0:0:0:
448,192,273994,1,0,0:0:0:0:
64,192,274105,1,0,0:0:0:0:
192,192,274105,1,0,0:0:0:0:
448,192,274216,128,0,276382:0:0:0:0:
320,192,274216,128,0,276382:0:0:0:0:
192,192,274216,1,0,0:0:0:0:
64,192,274216,1,0,0:0:0:0:
192,192,276382,1,0,0:0:0:0:
64,192,276382,1,0,0:0:0:0:
64,192,276466,1,0,0:0:0:0:
192,192,276466,1,0,0:0:0:0:
192,192,276549,1,0,0:0:0:0:
64,192,276549,1,0,0:0:0:0:
320,192,276549,1,0,0:0:0:0:
448,192,276549,1,0,0:0:0:0:
320,192,276716,1,0,0:0:0:0:
192,192,276716,1,0,0:0:0:0:
64,192,276882,1,0,0:0:0:0:
192,192,276882,1,0,0:0:0:0:
320,192,276882,1,0,0:0:0:0:
448,192,276882,1,0,0:0:0:0:
448,192,277049,1,0,0:0:0:0:
320,192,277049,1,0,0:0:0:0:
320,192,277216,1,0,0:0:0:0:
448,192,277216,1,0,0:0:0:0:
64,192,277382,1,0,0:0:0:0:
192,192,277382,1,0,0:0:0:0:
320,192,277382,1,0,0:0:0:0:
448,192,277382,1,0,0:0:0:0:
192,192,277549,1,0,0:0:0:0:
64,192,277549,1,0,0:0:0:0:
64,192,277716,1,0,0:0:0:0:
192,192,277716,1,0,0:0:0:0:
64,192,277882,1,0,0:0:0:0:
192,192,277882,1,0,0:0:0:0:
320,192,277882,1,0,0:0:0:0:
448,192,277882,1,0,0:0:0:0:
448,192,278049,1,0,0:0:0:0:
192,192,278049,1,0,0:0:0:0:
192,192,278216,1,0,0:0:0:0:
448,192,278216,1,0,0:0:0:0:
448,192,278382,1,0,0:0:0:0:
320,192,278382,1,0,0:0:0:0:
64,192,278382,1,0,0:0:0:0:
192,192,278382,1,0,0:0:0:0:
320,192,278549,1,0,0:0:0:0:
192,192,278549,1,0,0:0:0:0:
192,192,278716,1,0,0:0:0:0:
320,192,278716,1,0,0:0:0:0:
64,192,278882,1,0,0:0:0:0:
192,192,278882,1,0,0:0:0:0:
320,192,278882,1,0,0:0:0:0:
448,192,278882,1,0,0:0:0:0:
320,192,279049,1,0,0:0:0:0:
64,192,279049,1,0,0:0:0:0:
448,192,279216,1,0,0:0:0:0:
192,192,279216,1,0,0:0:0:0:
64,192,279216,1,0,0:0:0:0:
320,192,279216,1,0,0:0:0:0:
448,192,279382,1,0,0:0:0:0:
192,192,279382,1,0,0:0:0:0:
320,192,279549,1,0,0:0:0:0:
448,192,279549,1,0,0:0:0:0:
192,192,279549,1,0,0:0:0:0:
64,192,279549,1,0,0:0:0:0:
448,192,279716,1,0,0:0:0:0:
64,192,279716,1,0,0:0:0:0:
64,192,279882,1,0,0:0:0:0:
448,192,279882,1,0,0:0:0:0:
64,192,280049,1,0,0:0:0:0:
192,192,280049,1,0,0:0:0:0:
320,192,280049,1,0,0:0:0:0:
448,192,280049,1,0,0:0:0:0:
448,192,280216,1,0,0:0:0:0:
320,192,280216,1,0,0:0:0:0:
320,192,280382,1,0,0:0:0:0:
448,192,280382,1,0,0:0:0:0:
448,192,280549,1,0,0:0:0:0:
320,192,280549,1,0,0:0:0:0:
192,192,280549,1,0,0:0:0:0:
64,192,280549,1,0,0:0:0:0:
192,192,280716,1,0,0:0:0:0:
64,192,280716,1,0,0:0:0:0:
64,192,280882,1,0,0:0:0:0:
192,192,280882,1,0,0:0:0:0:
448,192,281049,1,0,0:0:0:0:
320,192,281049,1,0,0:0:0:0:
192,192,281049,1,0,0:0:0:0:
64,192,281049,1,0,0:0:0:0:
448,192,281216,1,0,0:0:0:0:
192,192,281216,1,0,0:0:0:0:
192,192,281382,1,0,0:0:0:0:
448,192,281382,1,0,0:0:0:0:
320,192,281549,1,0,0:0:0:0:
448,192,281549,1,0,0:0:0:0:
192,192,281549,1,0,0:0:0:0:
64,192,281549,1,0,0:0:0:0:
320,192,281716,1,0,0:0:0:0:
192,192,281716,1,0,0:0:0:0:
320,192,281882,1,0,0:0:0:0:
192,192,281882,1,0,0:0:0:0:
64,192,281882,1,0,0:0:0:0:
448,192,281882,1,0,0:0:0:0:
192,192,282049,1,0,0:0:0:0:
64,192,282049,1,0,0:0:0:0:
448,192,282132,1,0,0:0:0:0:
320,192,282132,1,0,0:0:0:0:
64,192,282216,1,0,0:0:0:0:
192,192,282216,1,0,0:0:0:0:
320,192,282216,1,0,0:0:0:0:
448,192,282216,1,0,0:0:0:0:
192,192,282382,1,0,0:0:0:0:
64,192,282382,1,0,0:0:0:0:
64,192,282549,1,0,0:0:0:0:
192,192,282549,1,0,0:0:0:0:
448,192,282716,1,0,0:0:0:0:
320,192,282716,1,0,0:0:0:0:
64,192,282716,1,0,0:0:0:0:
192,192,282716,1,0,0:0:0:0:
320,192,282882,1,0,0:0:0:0:
192,192,282882,1,0,0:0:0:0:
192,192,283049,1,0,0:0:0:0:
320,192,283049,1,0,0:0:0:0:
448,192,283216,1,0,0:0:0:0:
320,192,283216,1,0,0:0:0:0:
192,192,283216,1,0,0:0:0:0:
64,192,283216,1,0,0:0:0:0:
448,192,283382,1,0,0:0:0:0:
192,192,283382,1,0,0:0:0:0:
192,192,283549,1,0,0:0:0:0:
448,192,283549,1,0,0:0:0:0:
320,192,283716,1,0,0:0:0:0:
448,192,283716,1,0,0:0:0:0:
192,192,283716,1,0,0:0:0:0:
64,192,283716,1,0,0:0:0:0:
448,192,283882,1,0,0:0:0:0:
320,192,283882,1,0,0:0:0:0:
320,192,284049,1,0,0:0:0:0:
448,192,284049,1,0,0:0:0:0:
320,192,284216,1,0,0:0:0:0:
448,192,284216,1,0,0:0:0:0:
192,192,284216,1,0,0:0:0:0:
64,192,284216,1,0,0:0:0:0:
192,192,284382,1,0,0:0:0:0:
64,192,284382,1,0,0:0:0:0:
320,192,284466,1,0,0:0:0:0:
448,192,284466,1,0,0:0:0:0:
448,192,284549,1,0,0:0:0:0:
320,192,284549,1,0,0:0:0:0:
192,192,284549,1,0,0:0:0:0:
64,192,284549,1,0,0:0:0:0:
192,192,284716,1,0,0:0:0:0:
64,192,284716,1,0,0:0:0:0:
320,192,284882,1,0,0:0:0:0:
448,192,284882,1,0,0:0:0:0:
192,192,284882,1,0,0:0:0:0:
64,192,284882,1,0,0:0:0:0:
320,192,285049,1,0,0:0:0:0:
192,192,285049,1,0,0:0:0:0:
192,192,285216,1,0,0:0:0:0:
320,192,285216,1,0,0:0:0:0:
320,192,285382,1,0,0:0:0:0:
448,192,285382,1,0,0:0:0:0:
192,192,285382,1,0,0:0:0:0:
64,192,285382,1,0,0:0:0:0:
64,192,285549,1,0,0:0:0:0:
320,192,285549,1,0,0:0:0:0:
320,192,285716,1,0,0:0:0:0:
64,192,285716,1,0,0:0:0:0:
320,192,285882,1,0,0:0:0:0:
448,192,285882,1,0,0:0:0:0:
192,192,285882,1,0,0:0:0:0:
64,192,285882,1,0,0:0:0:0:
448,192,286049,1,0,0:0:0:0:
192,192,286049,1,0,0:0:0:0:
320,192,286216,1,0,0:0:0:0:
448,192,286216,1,0,0:0:0:0:
64,192,286299,1,0,0:0:0:0:
192,192,286299,1,0,0:0:0:0:
320,192,286382,1,0,0:0:0:0:
448,192,286382,1,0,0:0:0:0:
192,192,286466,1,0,0:0:0:0:
64,192,286466,1,0,0:0:0:0:
320,192,286549,1,0,0:0:0:0:
448,192,286549,1,0,0:0:0:0:
192,192,286632,1,0,0:0:0:0:
64,192,286632,1,0,0:0:0:0:
320,192,286716,1,0,0:0:0:0:
448,192,286716,1,0,0:0:0:0:
192,192,286799,1,0,0:0:0:0:
64,192,286799,1,0,0:0:0:0:
320,192,286882,1,0,0:0:0:0:
448,192,286882,1,0,0:0:0:0:
192,192,286966,1,0,0:0:0:0:
64,192,286966,1,0,0:0:0:0:
320,192,287049,1,0,0:0:0:0:
448,192,287049,1,0,0:0:0:0:
192,192,287132,1,0,0:0:0:0:
64,192,287132,1,0,0:0:0:0:
320,192,287216,1,0,0:0:0:0:
448,192,287216,1,0,0:0:0:0:
192,192,287299,1,0,0:0:0:0:
64,192,287299,1,0,0:0:0:0:
320,192,287382,1,0,0:0:0:0:
448,192,287382,1,0,0:0:0:0:
192,192,287466,1,0,0:0:0:0:
64,192,287466,1,0,0:0:0:0:
448,192,287549,128,0,288049:0:0:0:0:
320,192,287549,1,0,0:0:0:0:
192,192,287549,1,0,0:0:0:0:
64,192,287549,1,0,0:0:0:0:
320,192,287716,1,0,0:0:0:0:
64,192,287716,1,0,0:0:0:0:
64,192,287882,1,0,0:0:0:0:
320,192,287882,1,0,0:0:0:0:
192,192,288049,128,0,288549:0:0:0:0:
64,192,288049,1,0,0:0:0:0:
320,192,288049,1,0,0:0:0:0:
448,192,288216,1,0,0:0:0:0:
320,192,288216,1,0,0:0:0:0:
320,192,288382,1,0,0:0:0:0:
448,192,288382,1,0,0:0:0:0:
64,192,288549,128,0,289049:0:0:0:0:
448,192,288549,1,0,0:0:0:0:
320,192,288549,1,0,0:0:0:0:
448,192,288716,1,0,0:0:0:0:
192,192,288716,1,0,0:0:0:0:
192,192,288882,1,0,0:0:0:0:
448,192,288882,1,0,0:0:0:0:
320,192,289049,128,0,289549:0:0:0:0:
448,192,289049,1,0,0:0:0:0:
192,192,289049,1,0,0:0:0:0:
192,192,289216,1,0,0:0:0:0:
64,192,289216,1,0,0:0:0:0:
192,192,289382,1,0,0:0:0:0:
64,192,289382,1,0,0:0:0:0:
448,192,289549,128,0,289882:0:0:0:0:
64,192,289549,1,0,0:0:0:0:
192,192,289549,1,0,0:0:0:0:
64,192,289716,1,0,0:0:0:0:
320,192,289716,1,0,0:0:0:0:
192,192,289882,128,0,290216:0:0:0:0:
320,192,289882,1,0,0:0:0:0:
64,192,289882,1,0,0:0:0:0:
448,192,290049,1,0,0:0:0:0:
320,192,290049,1,0,0:0:0:0:
320,192,290216,128,0,290716:0:0:0:0:
448,192,290216,1,0,0:0:0:0:
64,192,290216,1,0,0:0:0:0:
192,192,290382,1,0,0:0:0:0:
64,192,290382,1,0,0:0:0:0:
64,192,290549,1,0,0:0:0:0:
192,192,290549,1,0,0:0:0:0:
64,192,290716,128,0,291216:0:0:0:0:
448,192,290716,1,0,0:0:0:0:
192,192,290716,1,0,0:0:0:0:
320,192,290882,1,0,0:0:0:0:
448,192,290882,1,0,0:0:0:0:
448,192,291049,1,0,0:0:0:0:
320,192,291049,1,0,0:0:0:0:
448,192,291216,128,0,291716:0:0:0:0:
320,192,291216,1,0,0:0:0:0:
192,192,291216,1,0,0:0:0:0:
192,192,291382,1,0,0:0:0:0:
64,192,291382,1,0,0:0:0:0:
64,192,291549,1,0,0:0:0:0:
192,192,291549,1,0,0:0:0:0:
192,192,291716,128,0,292216:0:0:0:0:
320,192,291716,1,0,0:0:0:0:
64,192,291716,1,0,0:0:0:0:
320,192,291882,1,0,0:0:0:0:
448,192,291882,1,0,0:0:0:0:
448,192,292049,1,0,0:0:0:0:
320,192,292049,1,0,0:0:0:0:
64,192,292216,128,0,292549:0:0:0:0:
320,192,292216,1,0,0:0:0:0:
448,192,292216,1,0,0:0:0:0:
448,192,292382,1,0,0:0:0:0:
192,192,292382,1,0,0:0:0:0:
320,192,292549,128,0,292882:0:0:0:0:
448,192,292549,1,0,0:0:0:0:
192,192,292549,1,0,0:0:0:0:
448,192,292716,1,0,0:0:0:0:
192,192,292716,1,0,0:0:0:0:
64,192,292882,128,0,293382:0:0:0:0:
192,192,292882,1,0,0:0:0:0:
448,192,292882,1,0,0:0:0:0:
320,192,293049,1,0,0:0:0:0:
448,192,293049,1,0,0:0:0:0:
448,192,293216,1,0,0:0:0:0:
320,192,293216,1,0,0:0:0:0:
320,192,293382,128,0,293882:0:0:0:0:
448,192,293382,1,0,0:0:0:0:
192,192,293382,1,0,0:0:0:0:
64,192,293549,1,0,0:0:0:0:
192,192,293549,1,0,0:0:0:0:
192,192,293716,1,0,0:0:0:0:
64,192,293716,1,0,0:0:0:0:
448,192,293882,128,0,294382:0:0:0:0:
192,192,293882,1,0,0:0:0:0:
64,192,293882,1,0,0:0:0:0:
320,192,294049,1,0,0:0:0:0:
64,192,294049,1,0,0:0:0:0:
64,192,294216,1,0,0:0:0:0:
320,192,294216,1,0,0:0:0:0:
192,192,294382,128,0,294882:0:0:0:0:
64,192,294382,1,0,0:0:0:0:
320,192,294382,1,0,0:0:0:0:
448,192,294549,1,0,0:0:0:0:
320,192,294549,1,0,0:0:0:0:
320,192,294716,1,0,0:0:0:0:
448,192,294716,1,0,0:0:0:0:
64,192,294882,128,0,295216:0:0:0:0:
448,192,294882,1,0,0:0:0:0:
320,192,294882,1,0,0:0:0:0:
448,192,295049,1,0,0:0:0:0:
192,192,295049,1,0,0:0:0:0:
320,192,295216,128,0,295549:0:0:0:0:
192,192,295216,1,0,0:0:0:0:
448,192,295216,1,0,0:0:0:0:
448,192,295382,1,0,0:0:0:0:
64,192,295382,1,0,0:0:0:0:
192,192,295549,128,0,296049:0:0:0:0:
64,192,295549,1,0,0:0:0:0:
448,192,295549,1,0,0:0:0:0:
448,192,295716,1,0,0:0:0:0:
320,192,295716,1,0,0:0:0:0:
64,192,295799,1,0,0:0:0:0:
320,192,295882,1,0,0:0:0:0:
448,192,295882,1,0,0:0:0:0:
448,192,296049,128,0,296549:0:0:0:0:
320,192,296049,1,0,0:0:0:0:
64,192,296049,1,0,0:0:0:0:
192,192,296216,1,0,0:0:0:0:
64,192,296216,1,0,0:0:0:0:
320,192,296299,1,0,0:0:0:0:
64,192,296382,1,0,0:0:0:0:
192,192,296382,1,0,0:0:0:0:
64,192,296549,128,0,297049:0:0:0:0:
192,192,296549,1,0,0:0:0:0:
320,192,296549,1,0,0:0:0:0:
448,192,296632,1,0,0:0:0:0:
320,192,296716,1,0,0:0:0:0:
192,192,296716,1,0,0:0:0:0:
448,192,296799,1,0,0:0:0:0:
320,192,296882,1,0,0:0:0:0:
192,192,296882,1,0,0:0:0:0:
320,192,297049,128,0,297549:0:0:0:0:
448,192,297049,1,0,0:0:0:0:
192,192,297049,1,0,0:0:0:0:
192,192,297216,1,0,0:0:0:0:
64,192,297216,1,0,0:0:0:0:
448,192,297299,1,0,0:0:0:0:
192,192,297382,1,0,0:0:0:0:
64,192,297382,1,0,0:0:0:0:
448,192,297466,1,0,0:0:0:0:
192,192,297549,1,0,0:0:0:0:
64,192,297549,1,0,0:0:0:0:
320,192,297632,1,0,0:0:0:0:
448,192,297632,1,0,0:0:0:0:
192,192,297716,1,0,0:0:0:0:
64,192,297716,1,0,0:0:0:0:
320,192,297799,1,0,0:0:0:0:
448,192,297799,1,0,0:0:0:0:
192,192,297882,1,0,0:0:0:0:
64,192,297882,1,0,0:0:0:0:
320,192,297966,1,0,0:0:0:0:
448,192,297966,1,0,0:0:0:0:
192,192,298049,1,0,0:0:0:0:
64,192,298049,1,0,0:0:0:0:
320,192,298132,1,0,0:0:0:0:
448,192,298132,1,0,0:0:0:0:
192,192,298216,1,0,0:0:0:0:
320,192,298216,1,0,0:0:0:0:
448,192,298216,1,0,0:0:0:0:
64,192,298216,128,0,303549:0:0:0:0:
192,192,298549,128,0,298716:0:0:0:0:
448,192,299049,128,0,299216:0:0:0:0:
448,192,299549,128,0,299716:0:0:0:0:
320,192,300049,128,0,300216:0:0:0:0:
320,192,300549,128,0,300716:0:0:0:0:
448,192,301216,128,0,301382:0:0:0:0:
192,192,301716,128,0,301882:0:0:0:0:
192,192,302216,128,0,302382:0:0:0:0:
320,192,302716,128,0,302882:0:0:0:0:
320,192,303216,128,0,303549:0:0:0:0:
