osu file format v14

[General]
AudioFilename: audio.mp3
AudioLeadIn: 0
PreviewTime: 244216
Countdown: 0
SampleSet: None
StackLeniency: 0.7
Mode: 3
LetterboxInBreaks: 0
SpecialStyle: 0
WidescreenStoryboard: 0

[Editor]
DistanceSpacing: 1.4
BeatDivisor: 4
GridSize: 16
TimelineZoom: 2.5

[Metadata]
Title:Neo-Aspect
TitleUnicode:Neo-Aspect
Artist:Roselia
ArtistUnicode:Roselia
Creator:Damaree
Version:Beautiful Braver // 7K
Source:バンドリ! ガールズバンドパーティ!
Tags:BanG Dream! Garupa Bandori Girls Band Party!Minato Yukina Hikawa Sayo Imai Lisa Udagawa Ako Shirokane Rinko Asuka Oda bandori game version
BeatmapID:2114303
BeatmapSetID:1006727

[Difficulty]
HPDrainRate:8
CircleSize:7
OverallDifficulty:8
ApproachRate:5
SliderMultiplier:1.4
SliderTickRate:1

[Events]
//Background and Video events
0,0,"gearclock.png",0,0
//Break Periods
//Storyboard Layer 0 (Background)
//Storyboard Layer 1 (Fail)
//Storyboard Layer 2 (Pass)
//Storyboard Layer 3 (Foreground)
//Storyboard Sound Samples

[TimingPoints]
883,333.333333333333,4,1,0,0,1,0
70216,-100,4,1,0,0,0,1
80799,-100,4,1,0,0,0,0
80882,-100,4,1,0,0,0,1
94216,-100,4,1,0,0,0,0
96882,-100,4,1,0,0,0,1
107549,-100,4,1,0,0,0,0
160882,-100,4,1,0,0,0,1
171466,-100,4,1,0,0,0,0
171549,-100,4,1,0,0,0,1
184882,-100,4,1,0,0,0,0
244882,-100,4,1,0,0,0,1
255466,-100,4,1,0,0,0,0
255549,-100,4,1,0,0,0,1
266132,-100,4,1,0,0,0,0
266216,-100,4,1,0,0,0,1
271466,-100,4,1,0,0,0,0
271549,-100,4,1,0,0,0,1
274216,-100,4,1,0,0,0,0
276882,-100,4,1,0,0,0,1
298216,-100,4,1,0,0,0,0

[HitObjects]
36,192,882,128,0,3549:0:0:0:0:
109,192,882,128,0,1382:0:0:0:0:
475,192,882,1,0,0:0:0:0:
402,192,882,1,0,0:0:0:0:
402,192,1049,1,0,0:0:0:0:
475,192,1049,1,0,0:0:0:0:
475,192,1216,1,0,0:0:0:0:
402,192,1216,1,0,0:0:0:0:
182,192,1382,128,0,1882:0:0:0:0:
402,192,1382,1,0,0:0:0:0:
475,192,1382,1,0,0:0:0:0:
475,192,1549,1,0,0:0:0:0:
402,192,1549,1,0,0:0:0:0:
402,192,1716,1,0,0:0:0:0:
475,192,1716,1,0,0:0:0:0:
475,192,1882,1,0,0:0:0:0:
402,192,1882,1,0,0:0:0:0:
256,192,1882,128,0,2382:0:0:0:0:
402,192,2049,1,0,0:0:0:0:
475,192,2049,1,0,0:0:0:0:
475,192,2216,1,0,0:0:0:0:
402,192,2216,1,0,0:0:0:0:
402,192,2382,1,0,0:0:0:0:
475,192,2382,1,0,0:0:0:0:
475,192,2549,1,0,0:0:0:0:
402,192,2549,1,0,0:0:0:0:
402,192,2716,1,0,0:0:0:0:
475,192,2716,1,0,0:0:0:0:
475,192,2882,1,0,0:0:0:0:
402,192,2882,1,0,0:0:0:0:
402,192,3049,1,0,0:0:0:0:
475,192,3049,1,0,0:0:0:0:
475,192,3216,1,0,0:0:0:0:
402,192,3216,1,0,0:0:0:0:
402,192,3382,1,0,0:0:0:0:
475,192,3382,1,0,0:0:0:0:
182,192,3549,128,0,6216:0:0:0:0:
402,192,3549,1,0,0:0:0:0:
475,192,3549,1,0,0:0:0:0:
109,192,3549,128,0,4049:0:0:0:0:
475,192,3716,1,0,0:0:0:0:
402,192,3716,1,0,0:0:0:0:
402,192,3882,1,0,0:0:0:0:
475,192,3882,1,0,0:0:0:0:
475,192,4049,1,0,0:0:0:0:
402,192,4049,1,0,0:0:0:0:
256,192,4049,128,0,4549:0:0:0:0:
402,192,4216,1,0,0:0:0:0:
475,192,4216,1,0,0:0:0:0:
475,192,4382,1,0,0:0:0:0:
402,192,4382,1,0,0:0:0:0:
402,192,4549,1,0,0:0:0:0:
475,192,4549,1,0,0:0:0:0:
329,192,4549,128,0,5049:0:0:0:0:
475,192,4716,1,0,0:0:0:0:
402,192,4716,1,0,0:0:0:0:
402,192,4882,1,0,0:0:0:0:
475,192,4882,1,0,0:0:0:0:
475,192,5049,1,0,0:0:0:0:
402,192,5049,1,0,0:0:0:0:
402,192,5216,1,0,0:0:0:0:
475,192,5216,1,0,0:0:0:0:
475,192,5382,1,0,0:0:0:0:
402,192,5382,1,0,0:0:0:0:
402,192,5549,1,0,0:0:0:0:
475,192,5549,1,0,0:0:0:0:
475,192,5716,1,0,0:0:0:0:
402,192,5716,1,0,0:0:0:0:
402,192,5882,1,0,0:0:0:0:
475,192,5882,1,0,0:0:0:0:
475,192,6049,1,0,0:0:0:0:
402,192,6049,1,0,0:0:0:0:
329,192,6216,128,0,8882:0:0:0:0:
109,192,6216,1,0,0:0:0:0:
36,192,6216,1,0,0:0:0:0:
475,192,6216,128,0,6716:0:0:0:0:
109,192,6382,1,0,0:0:0:0:
36,192,6382,1,0,0:0:0:0:
36,192,6549,1,0,0:0:0:0:
109,192,6549,1,0,0:0:0:0:
109,192,6716,1,0,0:0:0:0:
36,192,6716,1,0,0:0:0:0:
402,192,6716,128,0,7216:0:0:0:0:
109,192,6882,1,0,0:0:0:0:
36,192,6882,1,0,0:0:0:0:
36,192,7049,1,0,0:0:0:0:
109,192,7049,1,0,0:0:0:0:
109,192,7216,1,0,0:0:0:0:
36,192,7216,1,0,0:0:0:0:
256,192,7216,128,0,7716:0:0:0:0:
36,192,7382,1,0,0:0:0:0:
109,192,7382,1,0,0:0:0:0:
109,192,7549,1,0,0:0:0:0:
36,192,7549,1,0,0:0:0:0:
109,192,7716,1,0,0:0:0:0:
36,192,7716,1,0,0:0:0:0:
109,192,7882,1,0,0:0:0:0:
36,192,7882,1,0,0:0:0:0:
36,192,8049,1,0,0:0:0:0:
109,192,8049,1,0,0:0:0:0:
109,192,8216,1,0,0:0:0:0:
36,192,8216,1,0,0:0:0:0:
109,192,8382,1,0,0:0:0:0:
36,192,8382,1,0,0:0:0:0:
36,192,8549,1,0,0:0:0:0:
109,192,8549,1,0,0:0:0:0:
109,192,8716,1,0,0:0:0:0:
36,192,8716,1,0,0:0:0:0:
475,192,8882,128,0,11382:0:0:0:0:
36,192,8882,1,0,0:0:0:0:
109,192,8882,1,0,0:0:0:0:
402,192,8882,128,0,9382:0:0:0:0:
109,192,9049,1,0,0:0:0:0:
36,192,9049,1,0,0:0:0:0:
36,192,9216,1,0,0:0:0:0:
109,192,9216,1,0,0:0:0:0:
36,192,9382,1,0,0:0:0:0:
109,192,9382,1,0,0:0:0:0:
329,192,9382,128,0,9882:0:0:0:0:
109,192,9549,1,0,0:0:0:0:
36,192,9549,1,0,0:0:0:0:
36,192,9716,1,0,0:0:0:0:
109,192,9716,1,0,0:0:0:0:
36,192,9882,1,0,0:0:0:0:
109,192,9882,1,0,0:0:0:0:
182,192,9882,128,0,10382:0:0:0:0:
109,192,10049,1,0,0:0:0:0:
36,192,10049,1,0,0:0:0:0:
36,192,10216,1,0,0:0:0:0:
109,192,10216,1,0,0:0:0:0:
256,192,10382,128,0,11382:0:0:0:0:
109,192,10382,1,0,0:0:0:0:
36,192,10382,1,0,0:0:0:0:
109,192,11382,1,0,0:0:0:0:
36,192,11382,1,0,0:0:0:0:
182,192,11382,1,0,0:0:0:0:
329,192,11466,1,0,0:0:0:0:
402,192,11466,1,0,0:0:0:0:
256,192,11549,1,0,0:0:0:0:
109,192,11549,1,0,0:0:0:0:
36,192,11549,1,0,0:0:0:0:
475,192,11549,1,0,0:0:0:0:
36,192,11716,1,0,0:0:0:0:
109,192,11716,1,0,0:0:0:0:
256,192,11716,1,0,0:0:0:0:
475,192,11716,1,0,0:0:0:0:
36,192,12049,128,0,12382:0:0:0:0:
109,192,12049,128,0,12382:0:0:0:0:
182,192,12049,128,0,12382:0:0:0:0:
329,192,12049,1,0,0:0:0:0:
402,192,12049,1,0,0:0:0:0:
475,192,12382,1,0,0:0:0:0:
256,192,12382,1,0,0:0:0:0:
402,192,12382,1,0,0:0:0:0:
329,192,12466,1,0,0:0:0:0:
109,192,12466,1,0,0:0:0:0:
182,192,12549,1,0,0:0:0:0:
256,192,12549,1,0,0:0:0:0:
402,192,12549,1,0,0:0:0:0:
36,192,12549,1,0,0:0:0:0:
402,192,12716,1,0,0:0:0:0:
182,192,12716,1,0,0:0:0:0:
256,192,12716,1,0,0:0:0:0:
36,192,12716,1,0,0:0:0:0:
475,192,13049,128,0,13382:0:0:0:0:
402,192,13049,128,0,13382:0:0:0:0:
329,192,13049,128,0,13382:0:0:0:0:
36,192,13049,1,0,0:0:0:0:
109,192,13049,1,0,0:0:0:0:
256,192,13382,1,0,0:0:0:0:
36,192,13382,1,0,0:0:0:0:
109,192,13382,1,0,0:0:0:0:
402,192,13549,1,0,0:0:0:0:
329,192,13549,1,0,0:0:0:0:
182,192,13632,1,0,0:0:0:0:
109,192,13632,1,0,0:0:0:0:
329,192,13716,1,0,0:0:0:0:
402,192,13716,1,0,0:0:0:0:
182,192,13799,1,0,0:0:0:0:
109,192,13799,1,0,0:0:0:0:
256,192,13882,128,0,14216:0:0:0:0:
475,192,13882,128,0,14216:0:0:0:0:
36,192,13882,128,0,14216:0:0:0:0:
402,192,13882,1,0,0:0:0:0:
329,192,13882,1,0,0:0:0:0:
182,192,14216,1,0,0:0:0:0:
109,192,14216,1,0,0:0:0:0:
329,192,14216,1,0,0:0:0:0:
402,192,14216,1,0,0:0:0:0:
329,192,14382,1,0,0:0:0:0:
182,192,14382,1,0,0:0:0:0:
109,192,14382,1,0,0:0:0:0:
402,192,14382,1,0,0:0:0:0:
182,192,14716,128,0,15049:0:0:0:0:
256,192,14716,128,0,15049:0:0:0:0:
329,192,14716,128,0,15049:0:0:0:0:
36,192,14716,1,0,0:0:0:0:
475,192,14716,1,0,0:0:0:0:
109,192,15049,1,0,0:0:0:0:
402,192,15049,1,0,0:0:0:0:
36,192,15049,1,0,0:0:0:0:
475,192,15132,1,0,0:0:0:0:
182,192,15132,1,0,0:0:0:0:
402,192,15216,1,0,0:0:0:0:
36,192,15216,1,0,0:0:0:0:
109,192,15216,1,0,0:0:0:0:
329,192,15216,1,0,0:0:0:0:
402,192,15382,1,0,0:0:0:0:
109,192,15382,1,0,0:0:0:0:
36,192,15382,1,0,0:0:0:0:
329,192,15382,1,0,0:0:0:0:
109,192,15716,128,0,16049:0:0:0:0:
182,192,15716,128,0,16049:0:0:0:0:
475,192,15716,128,0,16049:0:0:0:0:
402,192,15716,1,0,0:0:0:0:
329,192,15716,1,0,0:0:0:0:
36,192,15716,1,0,0:0:0:0:
256,192,16049,1,0,0:0:0:0:
36,192,16049,1,0,0:0:0:0:
402,192,16049,1,0,0:0:0:0:
329,192,16216,1,0,0:0:0:0:
402,192,16216,1,0,0:0:0:0:
109,192,16216,1,0,0:0:0:0:
256,192,16382,1,0,0:0:0:0:
36,192,16382,1,0,0:0:0:0:
475,192,16382,1,0,0:0:0:0:
109,192,16466,1,0,0:0:0:0:
182,192,16466,1,0,0:0:0:0:
329,192,16549,1,0,0:0:0:0:
402,192,16549,1,0,0:0:0:0:
256,192,16549,1,0,0:0:0:0:
36,192,16632,1,0,0:0:0:0:
182,192,16632,1,0,0:0:0:0:
475,192,16716,1,0,0:0:0:0:
402,192,16716,1,0,0:0:0:0:
256,192,16716,1,0,0:0:0:0:
182,192,16799,1,0,0:0:0:0:
329,192,16799,1,0,0:0:0:0:
109,192,16882,1,0,0:0:0:0:
36,192,16882,1,0,0:0:0:0:
475,192,16882,128,0,17382:0:0:0:0:
402,192,16882,128,0,17049:0:0:0:0:
256,192,16882,1,0,0:0:0:0:
329,192,17049,128,0,17216:0:0:0:0:
182,192,17049,1,0,0:0:0:0:
256,192,17216,128,0,17382:0:0:0:0:
109,192,17216,1,0,0:0:0:0:
329,192,17382,128,0,17882:0:0:0:0:
182,192,17382,128,0,17549:0:0:0:0:
36,192,17382,1,0,0:0:0:0:
402,192,17382,1,0,0:0:0:0:
109,192,17549,128,0,17716:0:0:0:0:
256,192,17549,1,0,0:0:0:0:
36,192,17716,128,0,17882:0:0:0:0:
182,192,17716,1,0,0:0:0:0:
182,192,17882,128,0,18382:0:0:0:0:
475,192,17882,128,0,18049:0:0:0:0:
109,192,17882,1,0,0:0:0:0:
402,192,17882,1,0,0:0:0:0:
402,192,18049,128,0,18216:0:0:0:0:
256,192,18049,1,0,0:0:0:0:
329,192,18216,128,0,18382:0:0:0:0:
109,192,18216,1,0,0:0:0:0:
36,192,18382,128,0,18882:0:0:0:0:
256,192,18382,128,0,18549:0:0:0:0:
475,192,18382,1,0,0:0:0:0:
402,192,18382,1,0,0:0:0:0:
109,192,18382,1,0,0:0:0:0:
182,192,18549,128,0,18716:0:0:0:0:
402,192,18549,1,0,0:0:0:0:
109,192,18716,128,0,18882:0:0:0:0:
329,192,18716,1,0,0:0:0:0:
475,192,18882,128,0,19216:0:0:0:0:
402,192,18882,128,0,19049:0:0:0:0:
256,192,18882,1,0,0:0:0:0:
182,192,18882,1,0,0:0:0:0:
329,192,19049,128,0,19216:0:0:0:0:
182,192,19049,1,0,0:0:0:0:
36,192,19216,128,0,19549:0:0:0:0:
256,192,19216,128,0,19382:0:0:0:0:
109,192,19216,1,0,0:0:0:0:
402,192,19216,1,0,0:0:0:0:
182,192,19382,128,0,19549:0:0:0:0:
402,192,19382,1,0,0:0:0:0:
475,192,19549,128,0,20049:0:0:0:0:
109,192,19549,128,0,19716:0:0:0:0:
402,192,19549,1,0,0:0:0:0:
329,192,19549,1,0,0:0:0:0:
36,192,19716,128,0,19882:0:0:0:0:
256,192,19716,1,0,0:0:0:0:
402,192,19882,128,0,20049:0:0:0:0:
182,192,19882,1,0,0:0:0:0:
329,192,20049,128,0,20549:0:0:0:0:
256,192,20049,128,0,20216:0:0:0:0:
109,192,20049,1,0,0:0:0:0:
36,192,20049,1,0,0:0:0:0:
182,192,20216,128,0,20382:0:0:0:0:
36,192,20216,1,0,0:0:0:0:
109,192,20382,128,0,20549:0:0:0:0:
402,192,20382,1,0,0:0:0:0:
182,192,20549,128,0,21049:0:0:0:0:
36,192,20549,128,0,20716:0:0:0:0:
256,192,20549,1,0,0:0:0:0:
475,192,20549,1,0,0:0:0:0:
475,192,20716,128,0,20882:0:0:0:0:
329,192,20716,1,0,0:0:0:0:
402,192,20882,128,0,21049:0:0:0:0:
256,192,20882,1,0,0:0:0:0:
36,192,21049,128,0,21549:0:0:0:0:
329,192,21049,128,0,21216:0:0:0:0:
109,192,21049,1,0,0:0:0:0:
475,192,21049,1,0,0:0:0:0:
256,192,21216,128,0,21382:0:0:0:0:
475,192,21216,1,0,0:0:0:0:
182,192,21382,128,0,21549:0:0:0:0:
402,192,21382,1,0,0:0:0:0:
475,192,21549,128,0,21882:0:0:0:0:
109,192,21549,128,0,21716:0:0:0:0:
329,192,21549,1,0,0:0:0:0:
402,192,21549,1,0,0:0:0:0:
36,192,21716,128,0,21882:0:0:0:0:
256,192,21716,1,0,0:0:0:0:
109,192,21882,1,0,0:0:0:0:
182,192,21882,1,0,0:0:0:0:
329,192,21882,1,0,0:0:0:0:
402,192,21966,1,0,0:0:0:0:
256,192,21966,1,0,0:0:0:0:
109,192,22049,1,0,0:0:0:0:
36,192,22049,1,0,0:0:0:0:
329,192,22132,1,0,0:0:0:0:
182,192,22132,1,0,0:0:0:0:
402,192,22216,1,0,0:0:0:0:
475,192,22216,1,0,0:0:0:0:
36,192,22216,128,0,22716:0:0:0:0:
109,192,22216,128,0,22382:0:0:0:0:
256,192,22216,1,0,0:0:0:0:
182,192,22382,128,0,22549:0:0:0:0:
329,192,22382,1,0,0:0:0:0:
256,192,22549,128,0,22716:0:0:0:0:
402,192,22549,1,0,0:0:0:0:
182,192,22716,128,0,23216:0:0:0:0:
329,192,22716,128,0,22882:0:0:0:0:
475,192,22716,1,0,0:0:0:0:
109,192,22716,1,0,0:0:0:0:
402,192,22882,128,0,23049:0:0:0:0:
36,192,22882,1,0,0:0:0:0:
475,192,23049,128,0,23216:0:0:0:0:
109,192,23049,1,0,0:0:0:0:
329,192,23216,128,0,23716:0:0:0:0:
36,192,23216,128,0,23382:0:0:0:0:
256,192,23216,1,0,0:0:0:0:
402,192,23216,1,0,0:0:0:0:
109,192,23382,128,0,23549:0:0:0:0:
256,192,23382,1,0,0:0:0:0:
182,192,23549,128,0,23716:0:0:0:0:
402,192,23549,1,0,0:0:0:0:
475,192,23716,128,0,24216:0:0:0:0:
256,192,23716,128,0,23882:0:0:0:0:
36,192,23716,1,0,0:0:0:0:
109,192,23716,1,0,0:0:0:0:
329,192,23882,128,0,24049:0:0:0:0:
182,192,23882,1,0,0:0:0:0:
402,192,24049,128,0,24216:0:0:0:0:
256,192,24049,1,0,0:0:0:0:
36,192,24216,128,0,24549:0:0:0:0:
109,192,24216,128,0,24382:0:0:0:0:
329,192,24216,1,0,0:0:0:0:
182,192,24216,1,0,0:0:0:0:
182,192,24382,128,0,24549:0:0:0:0:
329,192,24382,1,0,0:0:0:0:
475,192,24549,128,0,24882:0:0:0:0:
256,192,24549,128,0,24716:0:0:0:0:
402,192,24549,1,0,0:0:0:0:
109,192,24549,1,0,0:0:0:0:
329,192,24716,128,0,24882:0:0:0:0:
109,192,24716,1,0,0:0:0:0:
182,192,24799,1,0,0:0:0:0:
36,192,24882,128,0,25382:0:0:0:0:
402,192,24882,128,0,25049:0:0:0:0:
256,192,24882,1,0,0:0:0:0:
109,192,24882,1,0,0:0:0:0:
475,192,25049,128,0,25216:0:0:0:0:
329,192,25049,1,0,0:0:0:0:
109,192,25216,128,0,25382:0:0:0:0:
402,192,25216,1,0,0:0:0:0:
182,192,25382,128,0,25882:0:0:0:0:
256,192,25382,128,0,25549:0:0:0:0:
329,192,25382,1,0,0:0:0:0:
475,192,25382,1,0,0:0:0:0:
329,192,25549,128,0,25716:0:0:0:0:
402,192,25549,1,0,0:0:0:0:
402,192,25716,128,0,25882:0:0:0:0:
36,192,25716,1,0,0:0:0:0:
329,192,25882,128,0,26382:0:0:0:0:
475,192,25882,128,0,26049:0:0:0:0:
109,192,25882,1,0,0:0:0:0:
256,192,25882,1,0,0:0:0:0:
36,192,26049,128,0,26216:0:0:0:0:
182,192,26049,1,0,0:0:0:0:
109,192,26216,128,0,26382:0:0:0:0:
256,192,26216,1,0,0:0:0:0:
475,192,26382,128,0,26882:0:0:0:0:
182,192,26382,128,0,26549:0:0:0:0:
402,192,26382,1,0,0:0:0:0:
256,192,26549,128,0,26716:0:0:0:0:
329,192,26549,1,0,0:0:0:0:
329,192,26716,128,0,26882:0:0:0:0:
182,192,26716,1,0,0:0:0:0:
36,192,26882,1,0,0:0:0:0:
109,192,26882,1,0,0:0:0:0:
402,192,26882,1,0,0:0:0:0:
256,192,26966,1,0,0:0:0:0:
182,192,26966,1,0,0:0:0:0:
329,192,27049,1,0,0:0:0:0:
402,192,27049,1,0,0:0:0:0:
475,192,27049,1,0,0:0:0:0:
109,192,27132,1,0,0:0:0:0:
182,192,27132,1,0,0:0:0:0:
256,192,27216,1,0,0:0:0:0:
329,192,27216,1,0,0:0:0:0:
36,192,27216,1,0,0:0:0:0:
475,192,27299,1,0,0:0:0:0:
402,192,27299,1,0,0:0:0:0:
329,192,27382,1,0,0:0:0:0:
256,192,27382,1,0,0:0:0:0:
109,192,27382,1,0,0:0:0:0:
475,192,27466,1,0,0:0:0:0:
182,192,27466,1,0,0:0:0:0:
402,192,27549,1,0,0:0:0:0:
329,192,27549,1,0,0:0:0:0:
36,192,27549,1,0,0:0:0:0:
109,192,27549,1,0,0:0:0:0:
256,192,27549,128,0,30216:0:0:0:0:
475,192,30216,1,0,0:0:0:0:
329,192,30716,1,0,0:0:0:0:
182,192,31216,1,0,0:0:0:0:
402,192,32882,1,0,0:0:0:0:
329,192,32882,1,0,0:0:0:0:
182,192,33382,1,0,0:0:0:0:
36,192,33882,1,0,0:0:0:0:
36,192,35549,1,0,0:0:0:0:
182,192,36049,1,0,0:0:0:0:
329,192,36549,1,0,0:0:0:0:
475,192,37049,1,0,0:0:0:0:
256,192,37549,1,0,0:0:0:0:
109,192,37882,1,0,0:0:0:0:
402,192,37882,1,0,0:0:0:0:
256,192,38216,1,0,0:0:0:0:
182,192,38216,1,0,0:0:0:0:
475,192,38216,1,0,0:0:0:0:
402,192,38382,1,0,0:0:0:0:
109,192,38382,1,0,0:0:0:0:
329,192,38549,1,0,0:0:0:0:
402,192,38549,1,0,0:0:0:0:
36,192,38549,1,0,0:0:0:0:
109,192,38716,1,0,0:0:0:0:
475,192,38716,1,0,0:0:0:0:
36,192,38882,1,0,0:0:0:0:
256,192,38882,1,0,0:0:0:0:
402,192,39049,1,0,0:0:0:0:
182,192,39049,1,0,0:0:0:0:
329,192,39216,1,0,0:0:0:0:
475,192,39216,1,0,0:0:0:0:
256,192,39382,1,0,0:0:0:0:
109,192,39382,1,0,0:0:0:0:
36,192,39382,1,0,0:0:0:0:
182,192,39549,1,0,0:0:0:0:
329,192,39549,1,0,0:0:0:0:
402,192,39716,1,0,0:0:0:0:
109,192,39716,1,0,0:0:0:0:
256,192,39882,1,0,0:0:0:0:
475,192,39882,1,0,0:0:0:0:
36,192,39882,1,0,0:0:0:0:
182,192,40049,1,0,0:0:0:0:
109,192,40049,1,0,0:0:0:0:
329,192,40216,1,0,0:0:0:0:
402,192,40216,1,0,0:0:0:0:
256,192,40382,1,0,0:0:0:0:
109,192,40382,1,0,0:0:0:0:
402,192,40549,1,0,0:0:0:0:
475,192,40549,1,0,0:0:0:0:
182,192,40549,1,0,0:0:0:0:
36,192,40716,1,0,0:0:0:0:
109,192,40716,1,0,0:0:0:0:
402,192,40799,1,0,0:0:0:0:
329,192,40799,1,0,0:0:0:0:
256,192,40882,1,0,0:0:0:0:
182,192,40882,1,0,0:0:0:0:
475,192,40882,1,0,0:0:0:0:
109,192,41049,1,0,0:0:0:0:
402,192,41049,1,0,0:0:0:0:
329,192,41216,1,0,0:0:0:0:
256,192,41216,1,0,0:0:0:0:
36,192,41216,1,0,0:0:0:0:
182,192,41382,1,0,0:0:0:0:
475,192,41382,1,0,0:0:0:0:
329,192,41549,1,0,0:0:0:0:
402,192,41549,1,0,0:0:0:0:
256,192,41716,1,0,0:0:0:0:
36,192,41716,1,0,0:0:0:0:
109,192,41882,1,0,0:0:0:0:
402,192,41882,1,0,0:0:0:0:
256,192,42049,1,0,0:0:0:0:
329,192,42049,1,0,0:0:0:0:
475,192,42049,1,0,0:0:0:0:
182,192,42216,1,0,0:0:0:0:
36,192,42216,1,0,0:0:0:0:
109,192,42382,1,0,0:0:0:0:
402,192,42382,1,0,0:0:0:0:
329,192,42549,1,0,0:0:0:0:
256,192,42549,1,0,0:0:0:0:
182,192,42549,1,0,0:0:0:0:
475,192,42716,1,0,0:0:0:0:
109,192,42716,1,0,0:0:0:0:
402,192,42882,1,0,0:0:0:0:
36,192,42882,1,0,0:0:0:0:
182,192,42882,1,0,0:0:0:0:
109,192,43049,1,0,0:0:0:0:
36,192,43049,1,0,0:0:0:0:
329,192,43132,1,0,0:0:0:0:
256,192,43132,1,0,0:0:0:0:
182,192,43216,1,0,0:0:0:0:
109,192,43216,1,0,0:0:0:0:
402,192,43299,1,0,0:0:0:0:
329,192,43299,1,0,0:0:0:0:
256,192,43382,1,0,0:0:0:0:
182,192,43382,1,0,0:0:0:0:
475,192,43466,1,0,0:0:0:0:
402,192,43466,1,0,0:0:0:0:
109,192,43549,1,0,0:0:0:0:
182,192,43549,1,0,0:0:0:0:
329,192,43549,1,0,0:0:0:0:
36,192,43549,1,0,0:0:0:0:
256,192,43716,1,0,0:0:0:0:
402,192,43716,1,0,0:0:0:0:
475,192,43882,1,0,0:0:0:0:
182,192,43882,1,0,0:0:0:0:
109,192,43882,1,0,0:0:0:0:
36,192,44049,1,0,0:0:0:0:
329,192,44049,1,0,0:0:0:0:
256,192,44216,1,0,0:0:0:0:
402,192,44216,1,0,0:0:0:0:
182,192,44382,1,0,0:0:0:0:
109,192,44382,1,0,0:0:0:0:
475,192,44549,1,0,0:0:0:0:
329,192,44549,1,0,0:0:0:0:
256,192,44716,1,0,0:0:0:0:
109,192,44716,1,0,0:0:0:0:
36,192,44716,1,0,0:0:0:0:
475,192,44882,1,0,0:0:0:0:
402,192,44882,1,0,0:0:0:0:
329,192,45049,1,0,0:0:0:0:
182,192,45049,1,0,0:0:0:0:
109,192,45216,1,0,0:0:0:0:
36,192,45216,1,0,0:0:0:0:
256,192,45216,1,0,0:0:0:0:
402,192,45382,1,0,0:0:0:0:
475,192,45382,1,0,0:0:0:0:
182,192,45549,1,0,0:0:0:0:
256,192,45549,1,0,0:0:0:0:
109,192,45716,1,0,0:0:0:0:
402,192,45716,1,0,0:0:0:0:
329,192,45882,1,0,0:0:0:0:
475,192,45882,1,0,0:0:0:0:
36,192,45882,1,0,0:0:0:0:
182,192,46049,1,0,0:0:0:0:
402,192,46049,1,0,0:0:0:0:
256,192,46216,1,0,0:0:0:0:
329,192,46216,1,0,0:0:0:0:
36,192,46216,1,0,0:0:0:0:
475,192,46216,1,0,0:0:0:0:
109,192,46382,1,0,0:0:0:0:
402,192,46382,1,0,0:0:0:0:
256,192,46549,1,0,0:0:0:0:
329,192,46549,1,0,0:0:0:0:
475,192,46549,1,0,0:0:0:0:
182,192,46716,1,0,0:0:0:0:
36,192,46716,1,0,0:0:0:0:
402,192,46882,1,0,0:0:0:0:
329,192,46882,1,0,0:0:0:0:
109,192,47049,1,0,0:0:0:0:
256,192,47049,1,0,0:0:0:0:
402,192,47216,1,0,0:0:0:0:
475,192,47216,1,0,0:0:0:0:
256,192,47382,1,0,0:0:0:0:
182,192,47382,1,0,0:0:0:0:
109,192,47549,1,0,0:0:0:0:
36,192,47549,1,0,0:0:0:0:
256,192,47716,1,0,0:0:0:0:
402,192,47716,1,0,0:0:0:0:
329,192,47882,1,0,0:0:0:0:
182,192,47882,1,0,0:0:0:0:
475,192,47882,1,0,0:0:0:0:
256,192,48049,1,0,0:0:0:0:
36,192,48049,1,0,0:0:0:0:
402,192,48216,1,0,0:0:0:0:
475,192,48216,1,0,0:0:0:0:
182,192,48299,1,0,0:0:0:0:
256,192,48299,1,0,0:0:0:0:
329,192,48382,1,0,0:0:0:0:
402,192,48382,1,0,0:0:0:0:
109,192,48466,1,0,0:0:0:0:
182,192,48466,1,0,0:0:0:0:
256,192,48549,1,0,0:0:0:0:
329,192,48549,1,0,0:0:0:0:
36,192,48632,1,0,0:0:0:0:
109,192,48632,1,0,0:0:0:0:
182,192,48716,1,0,0:0:0:0:
256,192,48716,1,0,0:0:0:0:
109,192,48799,1,0,0:0:0:0:
36,192,48799,1,0,0:0:0:0:
402,192,48882,1,0,0:0:0:0:
329,192,48882,1,0,0:0:0:0:
475,192,48882,128,0,51216:0:0:0:0:
256,192,48882,128,0,49216:0:0:0:0:
109,192,49216,1,0,0:0:0:0:
36,192,49216,1,0,0:0:0:0:
402,192,49216,1,0,0:0:0:0:
182,192,49382,128,0,49716:0:0:0:0:
329,192,49549,1,0,0:0:0:0:
402,192,49549,1,0,0:0:0:0:
109,192,49716,1,0,0:0:0:0:
36,192,49716,1,0,0:0:0:0:
109,192,49882,128,0,50216:0:0:0:0:
329,192,49882,1,0,0:0:0:0:
182,192,50049,1,0,0:0:0:0:
402,192,50049,1,0,0:0:0:0:
36,192,50049,1,0,0:0:0:0:
329,192,50216,1,0,0:0:0:0:
256,192,50216,1,0,0:0:0:0:
36,192,50382,128,0,50716:0:0:0:0:
182,192,50382,1,0,0:0:0:0:
256,192,50549,1,0,0:0:0:0:
329,192,50549,1,0,0:0:0:0:
402,192,50549,1,0,0:0:0:0:
109,192,50716,1,0,0:0:0:0:
256,192,50882,1,0,0:0:0:0:
329,192,50882,1,0,0:0:0:0:
182,192,51049,1,0,0:0:0:0:
109,192,51049,1,0,0:0:0:0:
402,192,51216,1,0,0:0:0:0:
256,192,51216,128,0,51549:0:0:0:0:
329,192,51216,1,0,0:0:0:0:
182,192,51382,1,0,0:0:0:0:
109,192,51382,1,0,0:0:0:0:
402,192,51466,1,0,0:0:0:0:
329,192,51466,1,0,0:0:0:0:
36,192,51549,128,0,53882:0:0:0:0:
109,192,51549,1,0,0:0:0:0:
182,192,51549,1,0,0:0:0:0:
475,192,51549,128,0,51882:0:0:0:0:
329,192,51882,1,0,0:0:0:0:
256,192,51882,1,0,0:0:0:0:
109,192,51882,1,0,0:0:0:0:
402,192,52049,128,0,52382:0:0:0:0:
182,192,52049,1,0,0:0:0:0:
329,192,52216,1,0,0:0:0:0:
475,192,52216,1,0,0:0:0:0:
256,192,52382,1,0,0:0:0:0:
182,192,52382,1,0,0:0:0:0:
329,192,52549,128,0,52882:0:0:0:0:
109,192,52549,1,0,0:0:0:0:
475,192,52716,1,0,0:0:0:0:
402,192,52716,1,0,0:0:0:0:
256,192,52716,1,0,0:0:0:0:
109,192,52882,1,0,0:0:0:0:
182,192,52882,1,0,0:0:0:0:
256,192,53049,128,0,53382:0:0:0:0:
402,192,53049,1,0,0:0:0:0:
329,192,53216,1,0,0:0:0:0:
475,192,53216,1,0,0:0:0:0:
182,192,53216,1,0,0:0:0:0:
109,192,53382,1,0,0:0:0:0:
402,192,53549,1,0,0:0:0:0:
329,192,53549,1,0,0:0:0:0:
182,192,53716,1,0,0:0:0:0:
109,192,53716,1,0,0:0:0:0:
402,192,53799,1,0,0:0:0:0:
329,192,53799,1,0,0:0:0:0:
256,192,53882,128,0,54216:0:0:0:0:
182,192,53882,1,0,0:0:0:0:
109,192,53882,1,0,0:0:0:0:
402,192,53966,1,0,0:0:0:0:
329,192,53966,1,0,0:0:0:0:
182,192,54049,1,0,0:0:0:0:
109,192,54049,1,0,0:0:0:0:
329,192,54132,1,0,0:0:0:0:
402,192,54132,1,0,0:0:0:0:
475,192,54216,128,0,56549:0:0:0:0:
182,192,54216,1,0,0:0:0:0:
109,192,54216,1,0,0:0:0:0:
36,192,54216,1,0,0:0:0:0:
402,192,54549,1,0,0:0:0:0:
329,192,54549,1,0,0:0:0:0:
109,192,54549,1,0,0:0:0:0:
182,192,54882,1,0,0:0:0:0:
256,192,54882,1,0,0:0:0:0:
256,192,55049,1,0,0:0:0:0:
182,192,55049,1,0,0:0:0:0:
109,192,55382,1,0,0:0:0:0:
36,192,55382,1,0,0:0:0:0:
402,192,55382,1,0,0:0:0:0:
329,192,55716,1,0,0:0:0:0:
256,192,55716,1,0,0:0:0:0:
182,192,55882,1,0,0:0:0:0:
402,192,55882,1,0,0:0:0:0:
36,192,55882,1,0,0:0:0:0:
36,192,56216,1,0,0:0:0:0:
109,192,56216,1,0,0:0:0:0:
109,192,56382,1,0,0:0:0:0:
36,192,56382,1,0,0:0:0:0:
182,192,56549,1,0,0:0:0:0:
256,192,56549,1,0,0:0:0:0:
329,192,56549,1,0,0:0:0:0:
402,192,56716,1,0,0:0:0:0:
36,192,56882,128,0,59216:0:0:0:0:
109,192,56882,1,0,0:0:0:0:
182,192,56882,1,0,0:0:0:0:
475,192,56882,1,0,0:0:0:0:
329,192,57216,1,0,0:0:0:0:
402,192,57216,1,0,0:0:0:0:
256,192,57216,1,0,0:0:0:0:
182,192,57549,1,0,0:0:0:0:
109,192,57549,1,0,0:0:0:0:
109,192,57716,1,0,0:0:0:0:
182,192,57716,1,0,0:0:0:0:
475,192,57882,1,0,0:0:0:0:
329,192,58049,1,0,0:0:0:0:
402,192,58049,1,0,0:0:0:0:
256,192,58049,1,0,0:0:0:0:
182,192,58216,1,0,0:0:0:0:
402,192,58382,1,0,0:0:0:0:
475,192,58382,1,0,0:0:0:0:
329,192,58549,1,0,0:0:0:0:
109,192,58549,1,0,0:0:0:0:
182,192,58549,1,0,0:0:0:0:
475,192,58716,1,0,0:0:0:0:
402,192,58716,1,0,0:0:0:0:
256,192,58799,1,0,0:0:0:0:
402,192,58882,1,0,0:0:0:0:
475,192,58882,1,0,0:0:0:0:
256,192,58966,1,0,0:0:0:0:
402,192,59049,1,0,0:0:0:0:
475,192,59049,1,0,0:0:0:0:
109,192,59216,1,0,0:0:0:0:
182,192,59216,1,0,0:0:0:0:
329,192,59216,1,0,0:0:0:0:
475,192,59549,128,0,60049:0:0:0:0:
256,192,59549,1,0,0:0:0:0:
36,192,59549,1,0,0:0:0:0:
109,192,59549,1,0,0:0:0:0:
329,192,59882,128,0,60049:0:0:0:0:
256,192,59882,1,0,0:0:0:0:
182,192,59882,1,0,0:0:0:0:
402,192,60049,128,0,60382:0:0:0:0:
36,192,60216,1,0,0:0:0:0:
109,192,60216,1,0,0:0:0:0:
329,192,60382,1,0,0:0:0:0:
182,192,60549,128,0,61049:0:0:0:0:
475,192,60549,1,0,0:0:0:0:
256,192,60549,1,0,0:0:0:0:
36,192,60882,128,0,61049:0:0:0:0:
402,192,60882,1,0,0:0:0:0:
109,192,61049,128,0,61382:0:0:0:0:
256,192,61216,1,0,0:0:0:0:
329,192,61216,1,0,0:0:0:0:
475,192,61216,1,0,0:0:0:0:
402,192,61549,1,0,0:0:0:0:
36,192,61549,1,0,0:0:0:0:
182,192,61716,1,0,0:0:0:0:
256,192,61882,1,0,0:0:0:0:
329,192,61882,1,0,0:0:0:0:
475,192,61882,1,0,0:0:0:0:
109,192,62049,1,0,0:0:0:0:
36,192,62216,128,0,62716:0:0:0:0:
402,192,62216,1,0,0:0:0:0:
182,192,62216,1,0,0:0:0:0:
182,192,62549,128,0,62716:0:0:0:0:
329,192,62549,1,0,0:0:0:0:
475,192,62549,1,0,0:0:0:0:
109,192,62716,128,0,63049:0:0:0:0:
256,192,62882,1,0,0:0:0:0:
402,192,62882,1,0,0:0:0:0:
36,192,63049,1,0,0:0:0:0:
329,192,63216,128,0,63716:0:0:0:0:
475,192,63216,1,0,0:0:0:0:
182,192,63216,1,0,0:0:0:0:
475,192,63549,128,0,63716:0:0:0:0:
36,192,63549,1,0,0:0:0:0:
402,192,63716,128,0,64049:0:0:0:0:
256,192,63716,1,0,0:0:0:0:
182,192,63882,1,0,0:0:0:0:
109,192,63882,1,0,0:0:0:0:
36,192,63882,1,0,0:0:0:0:
329,192,64049,1,0,0:0:0:0:
475,192,64049,1,0,0:0:0:0:
182,192,64216,1,0,0:0:0:0:
109,192,64216,1,0,0:0:0:0:
329,192,64299,1,0,0:0:0:0:
402,192,64299,1,0,0:0:0:0:
182,192,64382,1,0,0:0:0:0:
109,192,64382,1,0,0:0:0:0:
329,192,64466,1,0,0:0:0:0:
402,192,64466,1,0,0:0:0:0:
182,192,64549,1,0,0:0:0:0:
109,192,64549,1,0,0:0:0:0:
329,192,64632,1,0,0:0:0:0:
402,192,64632,1,0,0:0:0:0:
182,192,64716,1,0,0:0:0:0:
109,192,64716,1,0,0:0:0:0:
329,192,64799,1,0,0:0:0:0:
402,192,64799,1,0,0:0:0:0:
36,192,64882,128,0,68882:0:0:0:0:
256,192,64882,1,0,0:0:0:0:
109,192,64882,1,0,0:0:0:0:
475,192,64882,1,0,0:0:0:0:
329,192,65049,1,0,0:0:0:0:
402,192,65049,1,0,0:0:0:0:
402,192,65216,1,0,0:0:0:0:
329,192,65216,1,0,0:0:0:0:
329,192,65382,1,0,0:0:0:0:
402,192,65382,1,0,0:0:0:0:
109,192,65382,1,0,0:0:0:0:
182,192,65382,1,0,0:0:0:0:
182,192,65549,1,0,0:0:0:0:
109,192,65549,1,0,0:0:0:0:
109,192,65716,1,0,0:0:0:0:
182,192,65716,1,0,0:0:0:0:
109,192,65882,1,0,0:0:0:0:
182,192,65882,1,0,0:0:0:0:
402,192,65882,1,0,0:0:0:0:
475,192,65882,1,0,0:0:0:0:
475,192,66049,1,0,0:0:0:0:
402,192,66049,1,0,0:0:0:0:
475,192,66216,1,0,0:0:0:0:
402,192,66216,1,0,0:0:0:0:
402,192,66382,1,0,0:0:0:0:
475,192,66382,1,0,0:0:0:0:
256,192,66382,1,0,0:0:0:0:
182,192,66382,1,0,0:0:0:0:
182,192,66549,1,0,0:0:0:0:
256,192,66549,1,0,0:0:0:0:
256,192,66716,1,0,0:0:0:0:
182,192,66716,1,0,0:0:0:0:
182,192,66882,1,0,0:0:0:0:
256,192,66882,1,0,0:0:0:0:
329,192,66882,1,0,0:0:0:0:
402,192,66882,1,0,0:0:0:0:
402,192,67049,1,0,0:0:0:0:
329,192,67049,1,0,0:0:0:0:
329,192,67216,1,0,0:0:0:0:
402,192,67216,1,0,0:0:0:0:
182,192,67216,1,0,0:0:0:0:
109,192,67216,1,0,0:0:0:0:
109,192,67382,1,0,0:0:0:0:
182,192,67382,1,0,0:0:0:0:
329,192,67466,1,0,0:0:0:0:
256,192,67466,1,0,0:0:0:0:
475,192,67549,128,0,68882:0:0:0:0:
402,192,67549,1,0,0:0:0:0:
109,192,67549,1,0,0:0:0:0:
182,192,67549,1,0,0:0:0:0:
329,192,67882,1,0,0:0:0:0:
182,192,67882,1,0,0:0:0:0:
182,192,68049,1,0,0:0:0:0:
329,192,68049,1,0,0:0:0:0:
329,192,68216,1,0,0:0:0:0:
182,192,68216,1,0,0:0:0:0:
329,192,68382,1,0,0:0:0:0:
182,192,68382,1,0,0:0:0:0:
182,192,68549,1,0,0:0:0:0:
329,192,68549,1,0,0:0:0:0:
182,192,68716,1,0,0:0:0:0:
329,192,68716,1,0,0:0:0:0:
256,192,68882,128,0,68966:0:0:0:0:
256,192,69049,128,0,69132:0:0:0:0:
256,192,69216,128,0,69299:0:0:0:0:
256,192,69382,128,0,69466:0:0:0:0:
36,192,70216,1,0,0:0:0:0:
109,192,70216,1,0,0:0:0:0:
182,192,70216,1,0,0:0:0:0:
329,192,70216,1,0,0:0:0:0:
402,192,70216,1,0,0:0:0:0:
475,192,70216,1,0,0:0:0:0:
36,192,70382,1,0,0:0:0:0:
256,192,70382,1,0,0:0:0:0:
109,192,70382,1,0,0:0:0:0:
36,192,70549,1,0,0:0:0:0:
182,192,70549,1,0,0:0:0:0:
402,192,70549,1,0,0:0:0:0:
475,192,70716,1,0,0:0:0:0:
402,192,70716,1,0,0:0:0:0:
182,192,70716,1,0,0:0:0:0:
256,192,70716,1,0,0:0:0:0:
36,192,70716,1,0,0:0:0:0:
475,192,70882,1,0,0:0:0:0:
329,192,70882,1,0,0:0:0:0:
109,192,70882,1,0,0:0:0:0:
475,192,71049,1,0,0:0:0:0:
256,192,71049,1,0,0:0:0:0:
182,192,71049,1,0,0:0:0:0:
109,192,71216,1,0,0:0:0:0:
256,192,71216,1,0,0:0:0:0:
402,192,71216,1,0,0:0:0:0:
36,192,71216,1,0,0:0:0:0:
475,192,71216,1,0,0:0:0:0:
109,192,71382,1,0,0:0:0:0:
329,192,71382,1,0,0:0:0:0:
182,192,71382,1,0,0:0:0:0:
109,192,71549,1,0,0:0:0:0:
256,192,71549,1,0,0:0:0:0:
475,192,71549,1,0,0:0:0:0:
256,192,71716,1,0,0:0:0:0:
329,192,71716,1,0,0:0:0:0:
402,192,71716,1,0,0:0:0:0:
475,192,71716,1,0,0:0:0:0:
109,192,71716,1,0,0:0:0:0:
402,192,71882,1,0,0:0:0:0:
182,192,71882,1,0,0:0:0:0:
36,192,71882,1,0,0:0:0:0:
402,192,72049,1,0,0:0:0:0:
329,192,72049,1,0,0:0:0:0:
109,192,72049,1,0,0:0:0:0:
36,192,72216,1,0,0:0:0:0:
109,192,72216,1,0,0:0:0:0:
475,192,72216,1,0,0:0:0:0:
402,192,72216,1,0,0:0:0:0:
182,192,72382,1,0,0:0:0:0:
329,192,72382,1,0,0:0:0:0:
475,192,72382,1,0,0:0:0:0:
109,192,72549,1,0,0:0:0:0:
182,192,72549,1,0,0:0:0:0:
329,192,72549,1,0,0:0:0:0:
402,192,72549,1,0,0:0:0:0:
109,192,72716,1,0,0:0:0:0:
402,192,72716,1,0,0:0:0:0:
36,192,72716,1,0,0:0:0:0:
329,192,72799,1,0,0:0:0:0:
256,192,72799,1,0,0:0:0:0:
402,192,72882,1,0,0:0:0:0:
475,192,72882,1,0,0:0:0:0:
36,192,72882,1,0,0:0:0:0:
182,192,72882,1,0,0:0:0:0:
109,192,72882,1,0,0:0:0:0:
182,192,73049,1,0,0:0:0:0:
36,192,73049,1,0,0:0:0:0:
329,192,73049,1,0,0:0:0:0:
182,192,73216,1,0,0:0:0:0:
402,192,73216,1,0,0:0:0:0:
475,192,73216,1,0,0:0:0:0:
109,192,73382,1,0,0:0:0:0:
182,192,73382,1,0,0:0:0:0:
256,192,73382,1,0,0:0:0:0:
329,192,73382,1,0,0:0:0:0:
402,192,73382,1,0,0:0:0:0:
109,192,73549,1,0,0:0:0:0:
36,192,73549,1,0,0:0:0:0:
256,192,73549,1,0,0:0:0:0:
109,192,73716,1,0,0:0:0:0:
475,192,73716,1,0,0:0:0:0:
402,192,73716,1,0,0:0:0:0:
475,192,73882,1,0,0:0:0:0:
329,192,73882,1,0,0:0:0:0:
182,192,73882,1,0,0:0:0:0:
36,192,73882,1,0,0:0:0:0:
109,192,73882,1,0,0:0:0:0:
329,192,74049,1,0,0:0:0:0:
256,192,74049,1,0,0:0:0:0:
182,192,74049,1,0,0:0:0:0:
329,192,74216,1,0,0:0:0:0:
36,192,74216,1,0,0:0:0:0:
402,192,74216,1,0,0:0:0:0:
36,192,74382,1,0,0:0:0:0:
182,192,74382,1,0,0:0:0:0:
329,192,74382,1,0,0:0:0:0:
475,192,74382,1,0,0:0:0:0:
402,192,74382,1,0,0:0:0:0:
36,192,74549,1,0,0:0:0:0:
256,192,74549,1,0,0:0:0:0:
402,192,74549,1,0,0:0:0:0:
36,192,74716,1,0,0:0:0:0:
182,192,74716,1,0,0:0:0:0:
329,192,74716,1,0,0:0:0:0:
109,192,74882,1,0,0:0:0:0:
182,192,74882,1,0,0:0:0:0:
475,192,74882,1,0,0:0:0:0:
402,192,74882,1,0,0:0:0:0:
329,192,75049,1,0,0:0:0:0:
256,192,75049,1,0,0:0:0:0:
36,192,75049,1,0,0:0:0:0:
109,192,75216,1,0,0:0:0:0:
36,192,75216,1,0,0:0:0:0:
329,192,75216,1,0,0:0:0:0:
402,192,75216,1,0,0:0:0:0:
256,192,75382,1,0,0:0:0:0:
182,192,75382,1,0,0:0:0:0:
475,192,75382,1,0,0:0:0:0:
36,192,75466,1,0,0:0:0:0:
402,192,75466,1,0,0:0:0:0:
256,192,75549,1,0,0:0:0:0:
475,192,75549,1,0,0:0:0:0:
182,192,75549,1,0,0:0:0:0:
109,192,75549,1,0,0:0:0:0:
329,192,75549,1,0,0:0:0:0:
109,192,75716,1,0,0:0:0:0:
402,192,75716,1,0,0:0:0:0:
329,192,75716,1,0,0:0:0:0:
109,192,75882,1,0,0:0:0:0:
182,192,75882,1,0,0:0:0:0:
475,192,75882,1,0,0:0:0:0:
36,192,76049,1,0,0:0:0:0:
109,192,76049,1,0,0:0:0:0:
329,192,76049,1,0,0:0:0:0:
256,192,76049,1,0,0:0:0:0:
475,192,76049,1,0,0:0:0:0:
475,192,76216,1,0,0:0:0:0:
402,192,76216,1,0,0:0:0:0:
182,192,76216,1,0,0:0:0:0:
475,192,76382,1,0,0:0:0:0:
109,192,76382,1,0,0:0:0:0:
329,192,76382,1,0,0:0:0:0:
475,192,76549,1,0,0:0:0:0:
402,192,76549,1,0,0:0:0:0:
256,192,76549,1,0,0:0:0:0:
182,192,76549,1,0,0:0:0:0:
36,192,76549,1,0,0:0:0:0:
36,192,76716,1,0,0:0:0:0:
109,192,76716,1,0,0:0:0:0:
329,192,76716,1,0,0:0:0:0:
36,192,76882,1,0,0:0:0:0:
182,192,76882,1,0,0:0:0:0:
256,192,76882,1,0,0:0:0:0:
109,192,77049,1,0,0:0:0:0:
402,192,77049,1,0,0:0:0:0:
182,192,77049,1,0,0:0:0:0:
475,192,77049,1,0,0:0:0:0:
329,192,77049,1,0,0:0:0:0:
402,192,77216,1,0,0:0:0:0:
256,192,77216,1,0,0:0:0:0:
109,192,77216,1,0,0:0:0:0:
402,192,77382,1,0,0:0:0:0:
36,192,77382,1,0,0:0:0:0:
182,192,77382,1,0,0:0:0:0:
109,192,77549,1,0,0:0:0:0:
182,192,77549,1,0,0:0:0:0:
329,192,77549,1,0,0:0:0:0:
402,192,77549,1,0,0:0:0:0:
329,192,77716,1,0,0:0:0:0:
182,192,77716,1,0,0:0:0:0:
36,192,77716,1,0,0:0:0:0:
109,192,77882,1,0,0:0:0:0:
36,192,77882,1,0,0:0:0:0:
402,192,77882,1,0,0:0:0:0:
475,192,77882,1,0,0:0:0:0:
109,192,78049,1,0,0:0:0:0:
329,192,78049,1,0,0:0:0:0:
256,192,78132,1,0,0:0:0:0:
182,192,78132,1,0,0:0:0:0:
109,192,78216,1,0,0:0:0:0:
36,192,78216,1,0,0:0:0:0:
475,192,78216,1,0,0:0:0:0:
329,192,78216,1,0,0:0:0:0:
402,192,78216,1,0,0:0:0:0:
109,192,78382,1,0,0:0:0:0:
402,192,78382,1,0,0:0:0:0:
182,192,78382,1,0,0:0:0:0:
402,192,78549,1,0,0:0:0:0:
256,192,78549,1,0,0:0:0:0:
36,192,78549,1,0,0:0:0:0:
182,192,78716,1,0,0:0:0:0:
256,192,78716,1,0,0:0:0:0:
402,192,78716,1,0,0:0:0:0:
475,192,78716,1,0,0:0:0:0:
36,192,78716,1,0,0:0:0:0:
182,192,78882,1,0,0:0:0:0:
109,192,78882,1,0,0:0:0:0:
402,192,78882,1,0,0:0:0:0:
182,192,79049,1,0,0:0:0:0:
329,192,79049,1,0,0:0:0:0:
475,192,79049,1,0,0:0:0:0:
109,192,79216,1,0,0:0:0:0:
36,192,79216,1,0,0:0:0:0:
256,192,79216,1,0,0:0:0:0:
329,192,79216,1,0,0:0:0:0:
475,192,79216,1,0,0:0:0:0:
36,192,79382,1,0,0:0:0:0:
182,192,79382,1,0,0:0:0:0:
402,192,79382,1,0,0:0:0:0:
329,192,79549,1,0,0:0:0:0:
402,192,79549,1,0,0:0:0:0:
182,192,79549,1,0,0:0:0:0:
109,192,79549,1,0,0:0:0:0:
256,192,79549,1,0,0:0:0:0:
329,192,79716,1,0,0:0:0:0:
475,192,79716,1,0,0:0:0:0:
109,192,79716,1,0,0:0:0:0:
475,192,79882,1,0,0:0:0:0:
402,192,79882,1,0,0:0:0:0:
36,192,79882,1,0,0:0:0:0:
109,192,79882,1,0,0:0:0:0:
256,192,79882,1,0,0:0:0:0:
182,192,80049,1,0,0:0:0:0:
329,192,80049,1,0,0:0:0:0:
256,192,80216,1,0,0:0:0:0:
109,192,80216,1,0,0:0:0:0:
402,192,80216,1,0,0:0:0:0:
36,192,80382,1,0,0:0:0:0:
109,192,80382,1,0,0:0:0:0:
256,192,80466,1,0,0:0:0:0:
329,192,80466,1,0,0:0:0:0:
182,192,80549,1,0,0:0:0:0:
109,192,80549,1,0,0:0:0:0:
402,192,80632,1,0,0:0:0:0:
329,192,80632,1,0,0:0:0:0:
256,192,80716,1,0,0:0:0:0:
182,192,80716,1,0,0:0:0:0:
475,192,80799,1,0,0:0:0:0:
402,192,80799,1,0,0:0:0:0:
329,192,80882,1,0,0:0:0:0:
256,192,80882,1,0,0:0:0:0:
109,192,80882,1,0,0:0:0:0:
36,192,80882,1,0,0:0:0:0:
182,192,80882,1,0,0:0:0:0:
402,192,81049,1,0,0:0:0:0:
475,192,81049,1,0,0:0:0:0:
36,192,81216,1,0,0:0:0:0:
109,192,81216,1,0,0:0:0:0:
256,192,81216,1,0,0:0:0:0:
329,192,81382,1,0,0:0:0:0:
182,192,81382,1,0,0:0:0:0:
402,192,81549,1,0,0:0:0:0:
475,192,81549,1,0,0:0:0:0:
256,192,81716,1,0,0:0:0:0:
36,192,81716,1,0,0:0:0:0:
109,192,81882,1,0,0:0:0:0:
182,192,81882,1,0,0:0:0:0:
402,192,81882,1,0,0:0:0:0:
329,192,82049,1,0,0:0:0:0:
475,192,82049,1,0,0:0:0:0:
402,192,82216,1,0,0:0:0:0:
182,192,82216,1,0,0:0:0:0:
36,192,82216,1,0,0:0:0:0:
329,192,82382,1,0,0:0:0:0:
256,192,82382,1,0,0:0:0:0:
36,192,82549,1,0,0:0:0:0:
109,192,82549,1,0,0:0:0:0:
475,192,82549,1,0,0:0:0:0:
402,192,82716,1,0,0:0:0:0:
182,192,82716,1,0,0:0:0:0:
329,192,82882,1,0,0:0:0:0:
256,192,82882,1,0,0:0:0:0:
182,192,83049,1,0,0:0:0:0:
109,192,83049,1,0,0:0:0:0:
36,192,83216,1,0,0:0:0:0:
329,192,83216,1,0,0:0:0:0:
475,192,83216,1,0,0:0:0:0:
256,192,83382,1,0,0:0:0:0:
182,192,83382,1,0,0:0:0:0:
109,192,83382,1,0,0:0:0:0:
402,192,83466,1,0,0:0:0:0:
329,192,83466,1,0,0:0:0:0:
109,192,83549,1,0,0:0:0:0:
36,192,83549,1,0,0:0:0:0:
475,192,83549,1,0,0:0:0:0:
256,192,83549,1,0,0:0:0:0:
182,192,83549,1,0,0:0:0:0:
402,192,83716,1,0,0:0:0:0:
109,192,83716,1,0,0:0:0:0:
329,192,83882,1,0,0:0:0:0:
475,192,83882,1,0,0:0:0:0:
36,192,83882,1,0,0:0:0:0:
256,192,84049,1,0,0:0:0:0:
182,192,84049,1,0,0:0:0:0:
109,192,84216,1,0,0:0:0:0:
36,192,84216,1,0,0:0:0:0:
402,192,84216,1,0,0:0:0:0:
329,192,84382,1,0,0:0:0:0:
182,192,84382,1,0,0:0:0:0:
475,192,84549,1,0,0:0:0:0:
402,192,84549,1,0,0:0:0:0:
36,192,84549,1,0,0:0:0:0:
109,192,84716,1,0,0:0:0:0:
256,192,84716,1,0,0:0:0:0:
329,192,84882,1,0,0:0:0:0:
402,192,84882,1,0,0:0:0:0:
182,192,85049,1,0,0:0:0:0:
36,192,85049,1,0,0:0:0:0:
256,192,85216,1,0,0:0:0:0:
329,192,85216,1,0,0:0:0:0:
475,192,85216,1,0,0:0:0:0:
182,192,85382,1,0,0:0:0:0:
109,192,85382,1,0,0:0:0:0:
329,192,85549,1,0,0:0:0:0:
402,192,85549,1,0,0:0:0:0:
109,192,85716,1,0,0:0:0:0:
36,192,85716,1,0,0:0:0:0:
475,192,85716,1,0,0:0:0:0:
402,192,85716,1,0,0:0:0:0:
329,192,85882,1,0,0:0:0:0:
182,192,85882,1,0,0:0:0:0:
109,192,86049,1,0,0:0:0:0:
36,192,86049,1,0,0:0:0:0:
402,192,86049,1,0,0:0:0:0:
475,192,86049,1,0,0:0:0:0:
109,192,86216,1,0,0:0:0:0:
182,192,86216,1,0,0:0:0:0:
256,192,86216,1,0,0:0:0:0:
329,192,86216,1,0,0:0:0:0:
402,192,86216,1,0,0:0:0:0:
36,192,86382,1,0,0:0:0:0:
475,192,86382,1,0,0:0:0:0:
109,192,86549,1,0,0:0:0:0:
182,192,86549,1,0,0:0:0:0:
329,192,86549,1,0,0:0:0:0:
256,192,86716,1,0,0:0:0:0:
402,192,86716,1,0,0:0:0:0:
36,192,86882,128,0,87382:0:0:0:0:
475,192,86882,1,0,0:0:0:0:
109,192,87049,128,0,87382:0:0:0:0:
182,192,87216,128,0,87382:0:0:0:0:
256,192,87216,1,0,0:0:0:0:
475,192,87216,1,0,0:0:0:0:
329,192,87382,128,0,87882:0:0:0:0:
402,192,87549,1,0,0:0:0:0:
256,192,87549,1,0,0:0:0:0:
475,192,87716,128,0,87882:0:0:0:0:
109,192,87716,1,0,0:0:0:0:
256,192,87882,1,0,0:0:0:0:
182,192,87882,1,0,0:0:0:0:
402,192,87882,1,0,0:0:0:0:
36,192,88049,128,0,88716:0:0:0:0:
109,192,88049,1,0,0:0:0:0:
329,192,88216,1,0,0:0:0:0:
402,192,88216,1,0,0:0:0:0:
182,192,88382,128,0,88716:0:0:0:0:
256,192,88382,1,0,0:0:0:0:
475,192,88549,1,0,0:0:0:0:
402,192,88549,1,0,0:0:0:0:
109,192,88549,1,0,0:0:0:0:
402,192,88716,1,0,0:0:0:0:
329,192,88716,1,0,0:0:0:0:
256,192,88716,1,0,0:0:0:0:
109,192,88799,1,0,0:0:0:0:
36,192,88799,1,0,0:0:0:0:
475,192,88882,128,0,89216:0:0:0:0:
182,192,88882,1,0,0:0:0:0:
402,192,88882,1,0,0:0:0:0:
256,192,88882,1,0,0:0:0:0:
329,192,89216,1,0,0:0:0:0:
109,192,89216,1,0,0:0:0:0:
36,192,89216,1,0,0:0:0:0:
402,192,89382,1,0,0:0:0:0:
182,192,89382,1,0,0:0:0:0:
256,192,89549,128,0,90549:0:0:0:0:
475,192,89549,1,0,0:0:0:0:
182,192,89882,1,0,0:0:0:0:
36,192,89882,1,0,0:0:0:0:
402,192,89882,1,0,0:0:0:0:
36,192,90216,128,0,90549:0:0:0:0:
475,192,90216,128,0,90549:0:0:0:0:
182,192,90382,1,0,0:0:0:0:
329,192,90382,1,0,0:0:0:0:
402,192,90549,1,0,0:0:0:0:
109,192,90549,1,0,0:0:0:0:
182,192,90549,1,0,0:0:0:0:
329,192,90549,1,0,0:0:0:0:
475,192,90716,1,0,0:0:0:0:
36,192,90716,1,0,0:0:0:0:
109,192,90882,1,0,0:0:0:0:
182,192,90882,1,0,0:0:0:0:
256,192,90882,1,0,0:0:0:0:
329,192,90966,1,0,0:0:0:0:
402,192,90966,1,0,0:0:0:0:
475,192,91049,1,0,0:0:0:0:
36,192,91049,1,0,0:0:0:0:
109,192,91132,1,0,0:0:0:0:
182,192,91132,1,0,0:0:0:0:
256,192,91216,1,0,0:0:0:0:
475,192,91216,1,0,0:0:0:0:
402,192,91216,1,0,0:0:0:0:
329,192,91299,1,0,0:0:0:0:
36,192,91299,1,0,0:0:0:0:
109,192,91382,1,0,0:0:0:0:
402,192,91382,1,0,0:0:0:0:
182,192,91466,1,0,0:0:0:0:
475,192,91466,1,0,0:0:0:0:
36,192,91549,1,0,0:0:0:0:
109,192,91549,1,0,0:0:0:0:
256,192,91549,1,0,0:0:0:0:
329,192,91549,1,0,0:0:0:0:
402,192,91549,1,0,0:0:0:0:
256,192,91716,1,0,0:0:0:0:
329,192,91716,1,0,0:0:0:0:
402,192,91716,1,0,0:0:0:0:
402,192,91882,1,0,0:0:0:0:
329,192,91882,1,0,0:0:0:0:
256,192,91882,1,0,0:0:0:0:
329,192,92049,1,0,0:0:0:0:
402,192,92049,1,0,0:0:0:0:
182,192,92049,1,0,0:0:0:0:
109,192,92049,1,0,0:0:0:0:
36,192,92049,1,0,0:0:0:0:
182,192,92216,1,0,0:0:0:0:
109,192,92216,1,0,0:0:0:0:
36,192,92216,1,0,0:0:0:0:
36,192,92382,1,0,0:0:0:0:
109,192,92382,1,0,0:0:0:0:
182,192,92382,1,0,0:0:0:0:
109,192,92549,1,0,0:0:0:0:
36,192,92549,1,0,0:0:0:0:
475,192,92549,1,0,0:0:0:0:
329,192,92549,1,0,0:0:0:0:
402,192,92549,1,0,0:0:0:0:
329,192,92716,1,0,0:0:0:0:
402,192,92716,1,0,0:0:0:0:
475,192,92716,1,0,0:0:0:0:
475,192,92882,1,0,0:0:0:0:
402,192,92882,1,0,0:0:0:0:
329,192,92882,1,0,0:0:0:0:
109,192,93049,1,0,0:0:0:0:
182,192,93049,1,0,0:0:0:0:
256,192,93049,1,0,0:0:0:0:
475,192,93049,1,0,0:0:0:0:
402,192,93049,1,0,0:0:0:0:
256,192,93216,1,0,0:0:0:0:
182,192,93216,1,0,0:0:0:0:
109,192,93216,1,0,0:0:0:0:
109,192,93382,1,0,0:0:0:0:
182,192,93382,1,0,0:0:0:0:
256,192,93382,1,0,0:0:0:0:
36,192,93549,1,0,0:0:0:0:
256,192,93549,1,0,0:0:0:0:
475,192,93549,1,0,0:0:0:0:
402,192,93549,1,0,0:0:0:0:
109,192,93549,1,0,0:0:0:0:
36,192,93716,1,0,0:0:0:0:
475,192,93716,1,0,0:0:0:0:
256,192,93716,1,0,0:0:0:0:
256,192,93882,1,0,0:0:0:0:
329,192,93882,1,0,0:0:0:0:
182,192,93882,1,0,0:0:0:0:
36,192,93882,1,0,0:0:0:0:
475,192,93882,1,0,0:0:0:0:
329,192,94049,1,0,0:0:0:0:
256,192,94049,1,0,0:0:0:0:
182,192,94049,1,0,0:0:0:0:
256,192,94216,128,0,96382:0:0:0:0:
182,192,94216,128,0,96382:0:0:0:0:
329,192,94216,128,0,96382:0:0:0:0:
109,192,96382,1,0,0:0:0:0:
36,192,96382,1,0,0:0:0:0:
475,192,96466,1,0,0:0:0:0:
402,192,96466,1,0,0:0:0:0:
182,192,96549,1,0,0:0:0:0:
109,192,96549,1,0,0:0:0:0:
329,192,96882,1,0,0:0:0:0:
402,192,96882,1,0,0:0:0:0:
475,192,96882,1,0,0:0:0:0:
36,192,96882,1,0,0:0:0:0:
109,192,96882,1,0,0:0:0:0:
182,192,96882,1,0,0:0:0:0:
36,192,97049,1,0,0:0:0:0:
182,192,97049,1,0,0:0:0:0:
256,192,97049,1,0,0:0:0:0:
329,192,97216,1,0,0:0:0:0:
475,192,97216,1,0,0:0:0:0:
109,192,97216,1,0,0:0:0:0:
36,192,97216,1,0,0:0:0:0:
402,192,97216,1,0,0:0:0:0:
256,192,97382,1,0,0:0:0:0:
475,192,97382,1,0,0:0:0:0:
109,192,97382,1,0,0:0:0:0:
182,192,97549,1,0,0:0:0:0:
329,192,97549,1,0,0:0:0:0:
402,192,97549,1,0,0:0:0:0:
36,192,97549,1,0,0:0:0:0:
109,192,97716,1,0,0:0:0:0:
475,192,97716,1,0,0:0:0:0:
36,192,97716,1,0,0:0:0:0:
256,192,97882,1,0,0:0:0:0:
182,192,97882,1,0,0:0:0:0:
402,192,97882,1,0,0:0:0:0:
475,192,97882,1,0,0:0:0:0:
109,192,97882,1,0,0:0:0:0:
36,192,98049,1,0,0:0:0:0:
256,192,98049,1,0,0:0:0:0:
329,192,98049,1,0,0:0:0:0:
475,192,98216,1,0,0:0:0:0:
402,192,98216,1,0,0:0:0:0:
182,192,98216,1,0,0:0:0:0:
109,192,98216,1,0,0:0:0:0:
36,192,98216,1,0,0:0:0:0:
329,192,98382,1,0,0:0:0:0:
475,192,98382,1,0,0:0:0:0:
182,192,98382,1,0,0:0:0:0:
36,192,98549,1,0,0:0:0:0:
109,192,98549,1,0,0:0:0:0:
256,192,98549,1,0,0:0:0:0:
402,192,98716,1,0,0:0:0:0:
329,192,98716,1,0,0:0:0:0:
182,192,98716,1,0,0:0:0:0:
402,192,98882,1,0,0:0:0:0:
475,192,98882,1,0,0:0:0:0:
109,192,98882,1,0,0:0:0:0:
36,192,98882,1,0,0:0:0:0:
182,192,99049,1,0,0:0:0:0:
329,192,99049,1,0,0:0:0:0:
256,192,99049,1,0,0:0:0:0:
109,192,99216,1,0,0:0:0:0:
36,192,99216,1,0,0:0:0:0:
402,192,99216,1,0,0:0:0:0:
475,192,99216,1,0,0:0:0:0:
182,192,99382,1,0,0:0:0:0:
256,192,99382,1,0,0:0:0:0:
329,192,99382,1,0,0:0:0:0:
182,192,99549,1,0,0:0:0:0:
36,192,99549,1,0,0:0:0:0:
475,192,99549,1,0,0:0:0:0:
329,192,99549,1,0,0:0:0:0:
256,192,99549,1,0,0:0:0:0:
109,192,99716,1,0,0:0:0:0:
256,192,99716,1,0,0:0:0:0:
402,192,99716,1,0,0:0:0:0:
36,192,99882,1,0,0:0:0:0:
182,192,99882,1,0,0:0:0:0:
475,192,99882,1,0,0:0:0:0:
36,192,100049,1,0,0:0:0:0:
109,192,100049,1,0,0:0:0:0:
402,192,100049,1,0,0:0:0:0:
475,192,100049,1,0,0:0:0:0:
329,192,100049,1,0,0:0:0:0:
182,192,100216,1,0,0:0:0:0:
256,192,100216,1,0,0:0:0:0:
402,192,100216,1,0,0:0:0:0:
109,192,100382,1,0,0:0:0:0:
36,192,100382,1,0,0:0:0:0:
329,192,100382,1,0,0:0:0:0:
402,192,100549,1,0,0:0:0:0:
475,192,100549,1,0,0:0:0:0:
109,192,100549,1,0,0:0:0:0:
36,192,100549,1,0,0:0:0:0:
182,192,100549,1,0,0:0:0:0:
256,192,100716,1,0,0:0:0:0:
329,192,100716,1,0,0:0:0:0:
475,192,100716,1,0,0:0:0:0:
182,192,100882,1,0,0:0:0:0:
109,192,100882,1,0,0:0:0:0:
36,192,100882,1,0,0:0:0:0:
109,192,101049,1,0,0:0:0:0:
182,192,101049,1,0,0:0:0:0:
402,192,101049,1,0,0:0:0:0:
475,192,101049,1,0,0:0:0:0:
256,192,101049,1,0,0:0:0:0:
329,192,101216,1,0,0:0:0:0:
36,192,101216,1,0,0:0:0:0:
256,192,101216,1,0,0:0:0:0:
402,192,101382,1,0,0:0:0:0:
475,192,101382,1,0,0:0:0:0:
109,192,101382,1,0,0:0:0:0:
329,192,101549,1,0,0:0:0:0:
36,192,101549,1,0,0:0:0:0:
109,192,101549,1,0,0:0:0:0:
402,192,101549,1,0,0:0:0:0:
256,192,101549,1,0,0:0:0:0:
182,192,101716,1,0,0:0:0:0:
256,192,101716,1,0,0:0:0:0:
475,192,101716,1,0,0:0:0:0:
36,192,101882,1,0,0:0:0:0:
475,192,101882,1,0,0:0:0:0:
402,192,101882,1,0,0:0:0:0:
109,192,101882,1,0,0:0:0:0:
329,192,101966,1,0,0:0:0:0:
256,192,101966,1,0,0:0:0:0:
182,192,102049,1,0,0:0:0:0:
109,192,102049,1,0,0:0:0:0:
402,192,102132,1,0,0:0:0:0:
329,192,102132,1,0,0:0:0:0:
256,192,102216,1,0,0:0:0:0:
182,192,102216,1,0,0:0:0:0:
36,192,102216,1,0,0:0:0:0:
475,192,102216,1,0,0:0:0:0:
109,192,102216,1,0,0:0:0:0:
402,192,102382,1,0,0:0:0:0:
329,192,102382,1,0,0:0:0:0:
36,192,102382,1,0,0:0:0:0:
109,192,102549,1,0,0:0:0:0:
182,192,102549,1,0,0:0:0:0:
256,192,102549,1,0,0:0:0:0:
109,192,102716,1,0,0:0:0:0:
182,192,102716,1,0,0:0:0:0:
329,192,102716,1,0,0:0:0:0:
475,192,102716,1,0,0:0:0:0:
402,192,102716,1,0,0:0:0:0:
36,192,102882,1,0,0:0:0:0:
256,192,102882,1,0,0:0:0:0:
475,192,102882,1,0,0:0:0:0:
109,192,103049,1,0,0:0:0:0:
475,192,103049,1,0,0:0:0:0:
402,192,103049,1,0,0:0:0:0:
36,192,103216,1,0,0:0:0:0:
109,192,103216,1,0,0:0:0:0:
182,192,103216,1,0,0:0:0:0:
329,192,103216,1,0,0:0:0:0:
402,192,103216,1,0,0:0:0:0:
256,192,103382,1,0,0:0:0:0:
36,192,103382,1,0,0:0:0:0:
475,192,103382,1,0,0:0:0:0:
329,192,103549,1,0,0:0:0:0:
109,192,103549,1,0,0:0:0:0:
402,192,103549,1,0,0:0:0:0:
109,192,103716,1,0,0:0:0:0:
182,192,103716,1,0,0:0:0:0:
256,192,103716,1,0,0:0:0:0:
402,192,103716,1,0,0:0:0:0:
475,192,103716,1,0,0:0:0:0:
36,192,103882,1,0,0:0:0:0:
109,192,103882,1,0,0:0:0:0:
329,192,103882,1,0,0:0:0:0:
402,192,104049,1,0,0:0:0:0:
475,192,104049,1,0,0:0:0:0:
182,192,104049,1,0,0:0:0:0:
256,192,104216,1,0,0:0:0:0:
329,192,104216,1,0,0:0:0:0:
36,192,104216,1,0,0:0:0:0:
109,192,104216,1,0,0:0:0:0:
475,192,104216,1,0,0:0:0:0:
402,192,104382,1,0,0:0:0:0:
182,192,104382,1,0,0:0:0:0:
109,192,104382,1,0,0:0:0:0:
475,192,104549,1,0,0:0:0:0:
329,192,104549,1,0,0:0:0:0:
36,192,104549,1,0,0:0:0:0:
256,192,104716,1,0,0:0:0:0:
182,192,104716,1,0,0:0:0:0:
36,192,104716,1,0,0:0:0:0:
109,192,104882,1,0,0:0:0:0:
182,192,104882,1,0,0:0:0:0:
329,192,104882,1,0,0:0:0:0:
402,192,104882,1,0,0:0:0:0:
475,192,104882,1,0,0:0:0:0:
256,192,105049,1,0,0:0:0:0:
402,192,105049,1,0,0:0:0:0:
36,192,105049,1,0,0:0:0:0:
109,192,105216,1,0,0:0:0:0:
182,192,105216,1,0,0:0:0:0:
475,192,105216,1,0,0:0:0:0:
36,192,105382,1,0,0:0:0:0:
256,192,105382,1,0,0:0:0:0:
329,192,105382,1,0,0:0:0:0:
475,192,105382,1,0,0:0:0:0:
402,192,105382,1,0,0:0:0:0:
182,192,105549,1,0,0:0:0:0:
402,192,105549,1,0,0:0:0:0:
109,192,105549,1,0,0:0:0:0:
329,192,105716,1,0,0:0:0:0:
475,192,105716,1,0,0:0:0:0:
36,192,105716,1,0,0:0:0:0:
36,192,105882,1,0,0:0:0:0:
109,192,105882,1,0,0:0:0:0:
256,192,105882,1,0,0:0:0:0:
329,192,105882,1,0,0:0:0:0:
402,192,105882,1,0,0:0:0:0:
475,192,106049,1,0,0:0:0:0:
182,192,106049,1,0,0:0:0:0:
402,192,106049,1,0,0:0:0:0:
36,192,106216,1,0,0:0:0:0:
109,192,106216,1,0,0:0:0:0:
182,192,106216,1,0,0:0:0:0:
256,192,106216,1,0,0:0:0:0:
475,192,106216,1,0,0:0:0:0:
36,192,106382,5,0,0:0:0:0:
109,192,106382,1,0,0:0:0:0:
256,192,106382,1,0,0:0:0:0:
182,192,106549,5,0,0:0:0:0:
109,192,106549,1,0,0:0:0:0:
402,192,106549,1,0,0:0:0:0:
475,192,106549,1,0,0:0:0:0:
329,192,106549,1,0,0:0:0:0:
256,192,106716,1,0,0:0:0:0:
36,192,106716,1,0,0:0:0:0:
402,192,106716,1,0,0:0:0:0:
36,192,106882,1,0,0:0:0:0:
109,192,106882,1,0,0:0:0:0:
256,192,106966,1,0,0:0:0:0:
182,192,106966,1,0,0:0:0:0:
109,192,107049,1,0,0:0:0:0:
36,192,107049,1,0,0:0:0:0:
329,192,107132,1,0,0:0:0:0:
256,192,107132,1,0,0:0:0:0:
182,192,107216,1,0,0:0:0:0:
109,192,107216,1,0,0:0:0:0:
402,192,107299,1,0,0:0:0:0:
329,192,107299,1,0,0:0:0:0:
256,192,107382,1,0,0:0:0:0:
182,192,107382,1,0,0:0:0:0:
475,192,107466,1,0,0:0:0:0:
402,192,107466,1,0,0:0:0:0:
109,192,107549,128,0,107716:0:0:0:0:
256,192,107549,1,0,0:0:0:0:
36,192,107549,128,0,108049:0:0:0:0:
329,192,107549,1,0,0:0:0:0:
182,192,107549,1,0,0:0:0:0:
329,192,107716,1,0,0:0:0:0:
182,192,107716,128,0,107882:0:0:0:0:
402,192,107882,1,0,0:0:0:0:
256,192,107882,128,0,108049:0:0:0:0:
475,192,108049,1,0,0:0:0:0:
109,192,108049,1,0,0:0:0:0:
182,192,108049,128,0,108549:0:0:0:0:
329,192,108049,128,0,108216:0:0:0:0:
256,192,108216,1,0,0:0:0:0:
402,192,108216,128,0,108382:0:0:0:0:
109,192,108382,1,0,0:0:0:0:
475,192,108382,128,0,108549:0:0:0:0:
402,192,108549,1,0,0:0:0:0:
256,192,108549,1,0,0:0:0:0:
329,192,108549,128,0,109049:0:0:0:0:
36,192,108549,128,0,108716:0:0:0:0:
256,192,108716,1,0,0:0:0:0:
109,192,108716,128,0,108882:0:0:0:0:
402,192,108882,1,0,0:0:0:0:
182,192,108882,128,0,109049:0:0:0:0:
109,192,109049,1,0,0:0:0:0:
402,192,109049,1,0,0:0:0:0:
36,192,109049,1,0,0:0:0:0:
475,192,109049,128,0,109549:0:0:0:0:
256,192,109049,128,0,109216:0:0:0:0:
109,192,109216,1,0,0:0:0:0:
329,192,109216,128,0,109382:0:0:0:0:
182,192,109382,1,0,0:0:0:0:
402,192,109382,128,0,109549:0:0:0:0:
256,192,109549,1,0,0:0:0:0:
329,192,109549,1,0,0:0:0:0:
36,192,109549,128,0,109882:0:0:0:0:
109,192,109549,128,0,109716:0:0:0:0:
329,192,109716,1,0,0:0:0:0:
182,192,109716,128,0,109882:0:0:0:0:
402,192,109882,1,0,0:0:0:0:
109,192,109882,1,0,0:0:0:0:
475,192,109882,128,0,110216:0:0:0:0:
256,192,109882,128,0,110049:0:0:0:0:
109,192,110049,1,0,0:0:0:0:
329,192,110049,128,0,110216:0:0:0:0:
109,192,110216,1,0,0:0:0:0:
182,192,110216,1,0,0:0:0:0:
36,192,110216,128,0,110716:0:0:0:0:
402,192,110216,128,0,110382:0:0:0:0:
256,192,110382,1,0,0:0:0:0:
475,192,110382,128,0,110549:0:0:0:0:
329,192,110549,1,0,0:0:0:0:
109,192,110549,128,0,110716:0:0:0:0:
402,192,110716,1,0,0:0:0:0:
475,192,110716,1,0,0:0:0:0:
182,192,110716,128,0,111216:0:0:0:0:
256,192,110716,128,0,110882:0:0:0:0:
475,192,110882,1,0,0:0:0:0:
329,192,110882,128,0,111049:0:0:0:0:
109,192,111049,1,0,0:0:0:0:
402,192,111049,128,0,111216:0:0:0:0:
256,192,111216,1,0,0:0:0:0:
36,192,111216,1,0,0:0:0:0:
329,192,111216,128,0,111716:0:0:0:0:
475,192,111216,128,0,111382:0:0:0:0:
182,192,111382,1,0,0:0:0:0:
36,192,111382,128,0,111549:0:0:0:0:
256,192,111549,1,0,0:0:0:0:
109,192,111549,128,0,111716:0:0:0:0:
402,192,111716,1,0,0:0:0:0:
36,192,111716,1,0,0:0:0:0:
475,192,111716,128,0,112216:0:0:0:0:
182,192,111716,128,0,111882:0:0:0:0:
36,192,111882,1,0,0:0:0:0:
256,192,111882,128,0,112049:0:0:0:0:
109,192,112049,1,0,0:0:0:0:
329,192,112049,128,0,112216:0:0:0:0:
182,192,112216,1,0,0:0:0:0:
109,192,112216,1,0,0:0:0:0:
36,192,112216,128,0,112549:0:0:0:0:
402,192,112216,128,0,112382:0:0:0:0:
256,192,112382,1,0,0:0:0:0:
475,192,112382,128,0,112549:0:0:0:0:
182,192,112549,1,0,0:0:0:0:
329,192,112549,1,0,0:0:0:0:
402,192,112549,1,0,0:0:0:0:
256,192,112632,1,0,0:0:0:0:
109,192,112632,1,0,0:0:0:0:
475,192,112716,1,0,0:0:0:0:
402,192,112716,1,0,0:0:0:0:
329,192,112799,1,0,0:0:0:0:
182,192,112799,1,0,0:0:0:0:
402,192,112882,128,0,113049:0:0:0:0:
256,192,112882,1,0,0:0:0:0:
475,192,112882,128,0,113382:0:0:0:0:
109,192,112882,1,0,0:0:0:0:
36,192,112882,1,0,0:0:0:0:
182,192,113049,1,0,0:0:0:0:
329,192,113049,128,0,113216:0:0:0:0:
109,192,113216,1,0,0:0:0:0:
256,192,113216,128,0,113382:0:0:0:0:
36,192,113382,1,0,0:0:0:0:
402,192,113382,1,0,0:0:0:0:
329,192,113382,128,0,113882:0:0:0:0:
182,192,113382,128,0,113549:0:0:0:0:
475,192,113549,1,0,0:0:0:0:
109,192,113549,128,0,113716:0:0:0:0:
402,192,113716,1,0,0:0:0:0:
36,192,113716,128,0,113882:0:0:0:0:
256,192,113882,1,0,0:0:0:0:
109,192,113882,1,0,0:0:0:0:
182,192,113882,128,0,114382:0:0:0:0:
475,192,113882,128,0,114049:0:0:0:0:
256,192,114049,1,0,0:0:0:0:
402,192,114049,128,0,114216:0:0:0:0:
109,192,114216,1,0,0:0:0:0:
329,192,114216,128,0,114382:0:0:0:0:
475,192,114382,1,0,0:0:0:0:
402,192,114382,1,0,0:0:0:0:
36,192,114382,128,0,114882:0:0:0:0:
256,192,114382,128,0,114549:0:0:0:0:
329,192,114549,1,0,0:0:0:0:
182,192,114549,128,0,114716:0:0:0:0:
256,192,114716,1,0,0:0:0:0:
109,192,114716,128,0,114882:0:0:0:0:
182,192,114882,1,0,0:0:0:0:
329,192,114882,1,0,0:0:0:0:
475,192,114882,128,0,115216:0:0:0:0:
402,192,114882,128,0,115049:0:0:0:0:
182,192,115049,1,0,0:0:0:0:
329,192,115049,128,0,115216:0:0:0:0:
109,192,115216,1,0,0:0:0:0:
402,192,115216,1,0,0:0:0:0:
36,192,115216,128,0,115549:0:0:0:0:
256,192,115216,128,0,115382:0:0:0:0:
402,192,115382,1,0,0:0:0:0:
182,192,115382,128,0,115549:0:0:0:0:
329,192,115466,1,0,0:0:0:0:
256,192,115549,1,0,0:0:0:0:
402,192,115549,1,0,0:0:0:0:
475,192,115549,128,0,116049:0:0:0:0:
109,192,115549,128,0,115716:0:0:0:0:
182,192,115716,1,0,0:0:0:0:
36,192,115716,128,0,115882:0:0:0:0:
109,192,115882,1,0,0:0:0:0:
402,192,115882,128,0,116049:0:0:0:0:
182,192,116049,1,0,0:0:0:0:
36,192,116049,1,0,0:0:0:0:
329,192,116049,128,0,116549:0:0:0:0:
256,192,116049,128,0,116216:0:0:0:0:
109,192,116216,1,0,0:0:0:0:
182,192,116216,128,0,116382:0:0:0:0:
475,192,116382,1,0,0:0:0:0:
109,192,116382,128,0,116549:0:0:0:0:
402,192,116549,1,0,0:0:0:0:
256,192,116549,1,0,0:0:0:0:
182,192,116549,128,0,117049:0:0:0:0:
36,192,116549,128,0,116716:0:0:0:0:
329,192,116716,1,0,0:0:0:0:
475,192,116716,128,0,116882:0:0:0:0:
256,192,116882,1,0,0:0:0:0:
402,192,116882,128,0,117049:0:0:0:0:
109,192,117049,1,0,0:0:0:0:
329,192,117049,128,0,117216:0:0:0:0:
36,192,117049,128,0,117549:0:0:0:0:
182,192,117216,1,0,0:0:0:0:
256,192,117216,128,0,117382:0:0:0:0:
329,192,117382,1,0,0:0:0:0:
182,192,117382,128,0,117549:0:0:0:0:
109,192,117549,1,0,0:0:0:0:
402,192,117549,1,0,0:0:0:0:
475,192,117549,1,0,0:0:0:0:
329,192,117632,1,0,0:0:0:0:
256,192,117632,1,0,0:0:0:0:
36,192,117716,1,0,0:0:0:0:
109,192,117716,1,0,0:0:0:0:
182,192,117716,1,0,0:0:0:0:
329,192,117799,1,0,0:0:0:0:
402,192,117799,1,0,0:0:0:0:
475,192,117882,1,0,0:0:0:0:
182,192,117882,1,0,0:0:0:0:
256,192,117882,1,0,0:0:0:0:
109,192,117966,1,0,0:0:0:0:
36,192,117966,1,0,0:0:0:0:
402,192,118049,1,0,0:0:0:0:
256,192,118049,1,0,0:0:0:0:
182,192,118049,1,0,0:0:0:0:
329,192,118132,1,0,0:0:0:0:
109,192,118132,1,0,0:0:0:0:
402,192,118216,1,0,0:0:0:0:
475,192,118216,1,0,0:0:0:0:
182,192,118216,1,0,0:0:0:0:
36,192,118216,128,0,118716:0:0:0:0:
475,192,118549,1,0,0:0:0:0:
256,192,118549,1,0,0:0:0:0:
109,192,118549,1,0,0:0:0:0:
182,192,118716,128,0,119216:0:0:0:0:
475,192,118882,1,0,0:0:0:0:
402,192,118882,1,0,0:0:0:0:
402,192,119049,1,0,0:0:0:0:
475,192,119049,1,0,0:0:0:0:
329,192,119216,128,0,120882:0:0:0:0:
36,192,119216,1,0,0:0:0:0:
256,192,119382,1,0,0:0:0:0:
109,192,119382,1,0,0:0:0:0:
182,192,119382,1,0,0:0:0:0:
475,192,119716,1,0,0:0:0:0:
256,192,119716,1,0,0:0:0:0:
109,192,119882,1,0,0:0:0:0:
36,192,119882,1,0,0:0:0:0:
402,192,119882,1,0,0:0:0:0:
182,192,120216,1,0,0:0:0:0:
475,192,120216,1,0,0:0:0:0:
475,192,120382,1,0,0:0:0:0:
182,192,120382,1,0,0:0:0:0:
256,192,120549,1,0,0:0:0:0:
109,192,120549,1,0,0:0:0:0:
36,192,120549,1,0,0:0:0:0:
475,192,120716,128,0,120882:0:0:0:0:
109,192,120882,128,0,121382:0:0:0:0:
182,192,120882,1,0,0:0:0:0:
402,192,121216,1,0,0:0:0:0:
475,192,121216,1,0,0:0:0:0:
182,192,121216,1,0,0:0:0:0:
256,192,121382,128,0,121882:0:0:0:0:
36,192,121549,1,0,0:0:0:0:
109,192,121549,1,0,0:0:0:0:
109,192,121716,1,0,0:0:0:0:
36,192,121716,1,0,0:0:0:0:
402,192,121882,128,0,123549:0:0:0:0:
329,192,122049,1,0,0:0:0:0:
182,192,122049,1,0,0:0:0:0:
475,192,122049,1,0,0:0:0:0:
329,192,122382,1,0,0:0:0:0:
109,192,122382,1,0,0:0:0:0:
256,192,122549,1,0,0:0:0:0:
182,192,122549,1,0,0:0:0:0:
475,192,122549,1,0,0:0:0:0:
109,192,122882,1,0,0:0:0:0:
182,192,122882,1,0,0:0:0:0:
182,192,123049,1,0,0:0:0:0:
109,192,123049,1,0,0:0:0:0:
329,192,123216,1,0,0:0:0:0:
256,192,123216,1,0,0:0:0:0:
475,192,123216,1,0,0:0:0:0:
36,192,123382,128,0,123549:0:0:0:0:
182,192,123549,128,0,124049:0:0:0:0:
109,192,123549,1,0,0:0:0:0:
256,192,123549,1,0,0:0:0:0:
475,192,123549,1,0,0:0:0:0:
475,192,123882,1,0,0:0:0:0:
109,192,123882,1,0,0:0:0:0:
329,192,124049,128,0,124549:0:0:0:0:
256,192,124216,1,0,0:0:0:0:
109,192,124216,1,0,0:0:0:0:
109,192,124382,1,0,0:0:0:0:
256,192,124382,1,0,0:0:0:0:
475,192,124549,128,0,126216:0:0:0:0:
109,192,124716,1,0,0:0:0:0:
36,192,124716,1,0,0:0:0:0:
182,192,124716,1,0,0:0:0:0:
329,192,125049,1,0,0:0:0:0:
402,192,125049,1,0,0:0:0:0:
256,192,125216,1,0,0:0:0:0:
109,192,125216,1,0,0:0:0:0:
182,192,125216,1,0,0:0:0:0:
109,192,125549,1,0,0:0:0:0:
402,192,125549,1,0,0:0:0:0:
402,192,125716,1,0,0:0:0:0:
109,192,125716,1,0,0:0:0:0:
36,192,125882,128,0,126216:0:0:0:0:
329,192,125882,1,0,0:0:0:0:
256,192,125882,1,0,0:0:0:0:
109,192,125882,1,0,0:0:0:0:
256,192,126216,128,0,128216:0:0:0:0:
182,192,126216,1,0,0:0:0:0:
402,192,126549,1,0,0:0:0:0:
475,192,126549,1,0,0:0:0:0:
182,192,126882,1,0,0:0:0:0:
36,192,126882,1,0,0:0:0:0:
36,192,127049,1,0,0:0:0:0:
182,192,127049,1,0,0:0:0:0:
402,192,127216,1,0,0:0:0:0:
109,192,127382,1,0,0:0:0:0:
182,192,127382,1,0,0:0:0:0:
475,192,127382,1,0,0:0:0:0:
329,192,127716,1,0,0:0:0:0:
36,192,127716,1,0,0:0:0:0:
109,192,127882,1,0,0:0:0:0:
182,192,127882,1,0,0:0:0:0:
475,192,127882,1,0,0:0:0:0:
402,192,128216,5,0,0:0:0:0:
109,192,128216,1,0,0:0:0:0:
182,192,128382,1,0,0:0:0:0:
109,192,128382,1,0,0:0:0:0:
402,192,128466,1,0,0:0:0:0:
329,192,128466,1,0,0:0:0:0:
182,192,128549,1,0,0:0:0:0:
109,192,128549,1,0,0:0:0:0:
329,192,128632,1,0,0:0:0:0:
402,192,128632,1,0,0:0:0:0:
182,192,128716,1,0,0:0:0:0:
109,192,128716,1,0,0:0:0:0:
329,192,128799,1,0,0:0:0:0:
402,192,128799,1,0,0:0:0:0:
109,192,128882,1,0,0:0:0:0:
182,192,128882,1,0,0:0:0:0:
475,192,128882,1,0,0:0:0:0:
36,192,128882,1,0,0:0:0:0:
256,192,129049,1,0,0:0:0:0:
402,192,129049,1,0,0:0:0:0:
109,192,129216,128,0,129382:0:0:0:0:
329,192,129216,1,0,0:0:0:0:
182,192,129216,1,0,0:0:0:0:
475,192,129382,1,0,0:0:0:0:
36,192,129382,1,0,0:0:0:0:
256,192,129549,1,0,0:0:0:0:
182,192,129549,1,0,0:0:0:0:
329,192,129716,128,0,129882:0:0:0:0:
36,192,129716,1,0,0:0:0:0:
256,192,129882,1,0,0:0:0:0:
182,192,129882,1,0,0:0:0:0:
475,192,129882,1,0,0:0:0:0:
402,192,130049,1,0,0:0:0:0:
109,192,130049,1,0,0:0:0:0:
36,192,130216,1,0,0:0:0:0:
329,192,130216,1,0,0:0:0:0:
256,192,130382,1,0,0:0:0:0:
475,192,130382,1,0,0:0:0:0:
182,192,130549,128,0,130716:0:0:0:0:
402,192,130549,1,0,0:0:0:0:
109,192,130549,1,0,0:0:0:0:
36,192,130716,1,0,0:0:0:0:
256,192,130716,1,0,0:0:0:0:
475,192,130882,1,0,0:0:0:0:
402,192,130882,1,0,0:0:0:0:
329,192,131049,128,0,131216:0:0:0:0:
256,192,131049,1,0,0:0:0:0:
182,192,131216,1,0,0:0:0:0:
36,192,131216,1,0,0:0:0:0:
109,192,131216,1,0,0:0:0:0:
402,192,131382,1,0,0:0:0:0:
256,192,131382,1,0,0:0:0:0:
475,192,131549,1,0,0:0:0:0:
329,192,131549,1,0,0:0:0:0:
109,192,131549,1,0,0:0:0:0:
256,192,131716,1,0,0:0:0:0:
182,192,131716,1,0,0:0:0:0:
475,192,131882,128,0,132049:0:0:0:0:
402,192,131882,1,0,0:0:0:0:
36,192,131882,1,0,0:0:0:0:
109,192,132049,1,0,0:0:0:0:
256,192,132049,1,0,0:0:0:0:
329,192,132216,1,0,0:0:0:0:
402,192,132216,1,0,0:0:0:0:
36,192,132382,128,0,132549:0:0:0:0:
182,192,132382,1,0,0:0:0:0:
475,192,132549,1,0,0:0:0:0:
402,192,132549,1,0,0:0:0:0:
109,192,132549,1,0,0:0:0:0:
329,192,132716,1,0,0:0:0:0:
256,192,132716,1,0,0:0:0:0:
182,192,132882,1,0,0:0:0:0:
36,192,132882,1,0,0:0:0:0:
402,192,133049,1,0,0:0:0:0:
475,192,133049,1,0,0:0:0:0:
329,192,133216,128,0,133382:0:0:0:0:
109,192,133216,1,0,0:0:0:0:
256,192,133216,1,0,0:0:0:0:
402,192,133382,1,0,0:0:0:0:
182,192,133382,1,0,0:0:0:0:
36,192,133549,1,0,0:0:0:0:
256,192,133549,1,0,0:0:0:0:
475,192,133716,1,0,0:0:0:0:
329,192,133716,1,0,0:0:0:0:
109,192,133882,1,0,0:0:0:0:
182,192,133882,1,0,0:0:0:0:
402,192,133882,1,0,0:0:0:0:
256,192,134049,1,0,0:0:0:0:
36,192,134049,1,0,0:0:0:0:
402,192,134216,1,0,0:0:0:0:
475,192,134216,1,0,0:0:0:0:
329,192,134216,1,0,0:0:0:0:
109,192,134216,1,0,0:0:0:0:
182,192,134382,1,0,0:0:0:0:
256,192,134382,1,0,0:0:0:0:
475,192,134549,128,0,134716:0:0:0:0:
36,192,134549,1,0,0:0:0:0:
109,192,134549,1,0,0:0:0:0:
402,192,134716,1,0,0:0:0:0:
256,192,134716,1,0,0:0:0:0:
329,192,134882,1,0,0:0:0:0:
109,192,134882,1,0,0:0:0:0:
475,192,135049,1,0,0:0:0:0:
182,192,135049,1,0,0:0:0:0:
256,192,135216,1,0,0:0:0:0:
36,192,135216,1,0,0:0:0:0:
109,192,135216,1,0,0:0:0:0:
329,192,135382,128,0,135549:0:0:0:0:
475,192,135382,1,0,0:0:0:0:
256,192,135549,1,0,0:0:0:0:
182,192,135549,1,0,0:0:0:0:
475,192,135716,128,0,135882:0:0:0:0:
109,192,135716,1,0,0:0:0:0:
36,192,135882,128,0,136049:0:0:0:0:
402,192,135882,1,0,0:0:0:0:
256,192,135882,1,0,0:0:0:0:
109,192,136049,1,0,0:0:0:0:
182,192,136049,1,0,0:0:0:0:
329,192,136216,128,0,136382:0:0:0:0:
475,192,136216,1,0,0:0:0:0:
256,192,136382,1,0,0:0:0:0:
36,192,136382,1,0,0:0:0:0:
109,192,136549,128,0,136716:0:0:0:0:
182,192,136549,1,0,0:0:0:0:
475,192,136549,1,0,0:0:0:0:
329,192,136716,1,0,0:0:0:0:
256,192,136882,1,0,0:0:0:0:
36,192,136882,1,0,0:0:0:0:
475,192,136882,1,0,0:0:0:0:
182,192,137049,1,0,0:0:0:0:
109,192,137049,1,0,0:0:0:0:
402,192,137216,128,0,137382:0:0:0:0:
329,192,137216,1,0,0:0:0:0:
256,192,137216,1,0,0:0:0:0:
36,192,137382,1,0,0:0:0:0:
256,192,137549,1,0,0:0:0:0:
475,192,137549,1,0,0:0:0:0:
329,192,137716,1,0,0:0:0:0:
36,192,137716,1,0,0:0:0:0:
182,192,137882,128,0,138049:0:0:0:0:
109,192,137882,1,0,0:0:0:0:
402,192,137882,1,0,0:0:0:0:
256,192,138049,1,0,0:0:0:0:
475,192,138049,1,0,0:0:0:0:
329,192,138216,128,0,138382:0:0:0:0:
36,192,138216,1,0,0:0:0:0:
109,192,138216,1,0,0:0:0:0:
256,192,138382,1,0,0:0:0:0:
402,192,138382,1,0,0:0:0:0:
475,192,138549,128,0,138716:0:0:0:0:
182,192,138549,1,0,0:0:0:0:
36,192,138549,1,0,0:0:0:0:
329,192,138716,1,0,0:0:0:0:
402,192,138716,1,0,0:0:0:0:
109,192,138882,5,0,0:0:0:0:
36,192,138882,1,0,0:0:0:0:
329,192,138966,1,0,0:0:0:0:
256,192,138966,1,0,0:0:0:0:
182,192,139049,1,0,0:0:0:0:
109,192,139049,1,0,0:0:0:0:
402,192,139132,1,0,0:0:0:0:
329,192,139132,1,0,0:0:0:0:
256,192,139216,1,0,0:0:0:0:
182,192,139216,1,0,0:0:0:0:
475,192,139299,1,0,0:0:0:0:
402,192,139299,1,0,0:0:0:0:
329,192,139382,1,0,0:0:0:0:
256,192,139382,1,0,0:0:0:0:
402,192,139466,1,0,0:0:0:0:
475,192,139466,1,0,0:0:0:0:
109,192,139549,1,0,0:0:0:0:
182,192,139549,1,0,0:0:0:0:
36,192,139549,128,0,141882:0:0:0:0:
256,192,139549,128,0,139882:0:0:0:0:
329,192,139716,1,0,0:0:0:0:
402,192,139716,1,0,0:0:0:0:
109,192,139882,1,0,0:0:0:0:
475,192,139882,1,0,0:0:0:0:
329,192,140049,128,0,140382:0:0:0:0:
402,192,140049,1,0,0:0:0:0:
182,192,140216,1,0,0:0:0:0:
402,192,140382,1,0,0:0:0:0:
475,192,140382,1,0,0:0:0:0:
256,192,140466,1,0,0:0:0:0:
182,192,140466,1,0,0:0:0:0:
402,192,140549,128,0,140882:0:0:0:0:
109,192,140549,1,0,0:0:0:0:
329,192,140549,1,0,0:0:0:0:
182,192,140882,1,0,0:0:0:0:
256,192,140882,1,0,0:0:0:0:
475,192,141049,128,0,141382:0:0:0:0:
329,192,141049,1,0,0:0:0:0:
402,192,141382,1,0,0:0:0:0:
182,192,141382,1,0,0:0:0:0:
109,192,141382,1,0,0:0:0:0:
329,192,141466,1,0,0:0:0:0:
256,192,141466,1,0,0:0:0:0:
182,192,141549,1,0,0:0:0:0:
402,192,141549,1,0,0:0:0:0:
475,192,141549,1,0,0:0:0:0:
109,192,141549,1,0,0:0:0:0:
329,192,141716,1,0,0:0:0:0:
402,192,141716,1,0,0:0:0:0:
256,192,141716,1,0,0:0:0:0:
256,192,141882,128,0,142216:0:0:0:0:
329,192,142049,1,0,0:0:0:0:
402,192,142049,1,0,0:0:0:0:
109,192,142132,1,0,0:0:0:0:
182,192,142132,1,0,0:0:0:0:
475,192,142216,128,0,144549:0:0:0:0:
402,192,142216,1,0,0:0:0:0:
329,192,142216,1,0,0:0:0:0:
36,192,142216,128,0,142549:0:0:0:0:
182,192,142549,1,0,0:0:0:0:
402,192,142549,1,0,0:0:0:0:
109,192,142716,128,0,143049:0:0:0:0:
329,192,142716,1,0,0:0:0:0:
256,192,142716,1,0,0:0:0:0:
36,192,142882,1,0,0:0:0:0:
256,192,143049,1,0,0:0:0:0:
329,192,143049,1,0,0:0:0:0:
109,192,143132,1,0,0:0:0:0:
36,192,143132,1,0,0:0:0:0:
182,192,143216,128,0,143549:0:0:0:0:
402,192,143216,1,0,0:0:0:0:
329,192,143216,1,0,0:0:0:0:
402,192,143549,1,0,0:0:0:0:
329,192,143549,1,0,0:0:0:0:
256,192,143716,128,0,144049:0:0:0:0:
109,192,143716,1,0,0:0:0:0:
36,192,143716,1,0,0:0:0:0:
182,192,143882,1,0,0:0:0:0:
329,192,143882,1,0,0:0:0:0:
402,192,143882,1,0,0:0:0:0:
36,192,144049,1,0,0:0:0:0:
182,192,144132,1,0,0:0:0:0:
109,192,144132,1,0,0:0:0:0:
402,192,144216,1,0,0:0:0:0:
329,192,144216,1,0,0:0:0:0:
109,192,144382,1,0,0:0:0:0:
36,192,144382,1,0,0:0:0:0:
256,192,144549,128,0,144882:0:0:0:0:
182,192,144549,1,0,0:0:0:0:
329,192,144716,1,0,0:0:0:0:
402,192,144716,1,0,0:0:0:0:
36,192,144882,128,0,147216:0:0:0:0:
402,192,144882,1,0,0:0:0:0:
475,192,144882,1,0,0:0:0:0:
109,192,144882,1,0,0:0:0:0:
109,192,145216,1,0,0:0:0:0:
182,192,145216,1,0,0:0:0:0:
402,192,145382,1,0,0:0:0:0:
329,192,145549,1,0,0:0:0:0:
256,192,145549,1,0,0:0:0:0:
182,192,145549,1,0,0:0:0:0:
402,192,145716,1,0,0:0:0:0:
256,192,145882,1,0,0:0:0:0:
182,192,145882,1,0,0:0:0:0:
402,192,146049,1,0,0:0:0:0:
475,192,146049,1,0,0:0:0:0:
109,192,146049,1,0,0:0:0:0:
329,192,146132,1,0,0:0:0:0:
256,192,146216,1,0,0:0:0:0:
182,192,146216,1,0,0:0:0:0:
402,192,146382,1,0,0:0:0:0:
475,192,146382,1,0,0:0:0:0:
109,192,146549,1,0,0:0:0:0:
182,192,146716,1,0,0:0:0:0:
256,192,146716,1,0,0:0:0:0:
475,192,146882,1,0,0:0:0:0:
402,192,146882,1,0,0:0:0:0:
329,192,146882,1,0,0:0:0:0:
256,192,147216,1,0,0:0:0:0:
182,192,147216,1,0,0:0:0:0:
109,192,147382,1,0,0:0:0:0:
329,192,147382,1,0,0:0:0:0:
256,192,147466,1,0,0:0:0:0:
182,192,147466,1,0,0:0:0:0:
475,192,147549,128,0,149882:0:0:0:0:
402,192,147549,1,0,0:0:0:0:
329,192,147549,1,0,0:0:0:0:
36,192,147549,1,0,0:0:0:0:
182,192,147882,1,0,0:0:0:0:
109,192,147882,1,0,0:0:0:0:
36,192,148049,1,0,0:0:0:0:
256,192,148049,1,0,0:0:0:0:
329,192,148216,1,0,0:0:0:0:
402,192,148216,1,0,0:0:0:0:
182,192,148216,1,0,0:0:0:0:
256,192,148382,1,0,0:0:0:0:
109,192,148382,1,0,0:0:0:0:
36,192,148549,1,0,0:0:0:0:
109,192,148716,1,0,0:0:0:0:
182,192,148716,1,0,0:0:0:0:
329,192,148799,1,0,0:0:0:0:
402,192,148882,1,0,0:0:0:0:
256,192,148882,1,0,0:0:0:0:
109,192,149049,1,0,0:0:0:0:
36,192,149049,1,0,0:0:0:0:
402,192,149216,1,0,0:0:0:0:
329,192,149216,1,0,0:0:0:0:
36,192,149382,1,0,0:0:0:0:
109,192,149382,1,0,0:0:0:0:
182,192,149549,1,0,0:0:0:0:
256,192,149549,1,0,0:0:0:0:
402,192,149549,1,0,0:0:0:0:
109,192,149716,1,0,0:0:0:0:
36,192,149716,1,0,0:0:0:0:
402,192,149882,1,0,0:0:0:0:
182,192,149882,1,0,0:0:0:0:
329,192,149882,1,0,0:0:0:0:
36,192,150216,128,0,150716:0:0:0:0:
256,192,150216,1,0,0:0:0:0:
475,192,150216,1,0,0:0:0:0:
402,192,150216,1,0,0:0:0:0:
329,192,150382,1,0,0:0:0:0:
109,192,150382,1,0,0:0:0:0:
182,192,150549,128,0,150716:0:0:0:0:
109,192,150716,128,0,151049:0:0:0:0:
256,192,150716,1,0,0:0:0:0:
329,192,150716,1,0,0:0:0:0:
475,192,150882,1,0,0:0:0:0:
402,192,150882,1,0,0:0:0:0:
182,192,151049,1,0,0:0:0:0:
402,192,151132,1,0,0:0:0:0:
475,192,151132,1,0,0:0:0:0:
329,192,151216,128,0,151716:0:0:0:0:
36,192,151216,1,0,0:0:0:0:
256,192,151216,1,0,0:0:0:0:
475,192,151549,128,0,151716:0:0:0:0:
109,192,151549,1,0,0:0:0:0:
402,192,151716,128,0,152049:0:0:0:0:
182,192,151716,1,0,0:0:0:0:
256,192,151716,1,0,0:0:0:0:
36,192,151882,1,0,0:0:0:0:
182,192,152049,1,0,0:0:0:0:
329,192,152049,1,0,0:0:0:0:
109,192,152132,1,0,0:0:0:0:
36,192,152132,1,0,0:0:0:0:
475,192,152216,1,0,0:0:0:0:
256,192,152216,1,0,0:0:0:0:
329,192,152216,1,0,0:0:0:0:
182,192,152382,1,0,0:0:0:0:
256,192,152549,1,0,0:0:0:0:
36,192,152549,1,0,0:0:0:0:
402,192,152716,1,0,0:0:0:0:
475,192,152882,128,0,153382:0:0:0:0:
109,192,152882,1,0,0:0:0:0:
329,192,152882,1,0,0:0:0:0:
182,192,152882,1,0,0:0:0:0:
329,192,153216,128,0,153382:0:0:0:0:
36,192,153216,1,0,0:0:0:0:
402,192,153382,128,0,153716:0:0:0:0:
182,192,153382,1,0,0:0:0:0:
256,192,153382,1,0,0:0:0:0:
109,192,153549,1,0,0:0:0:0:
475,192,153716,1,0,0:0:0:0:
329,192,153716,1,0,0:0:0:0:
109,192,153799,1,0,0:0:0:0:
36,192,153799,1,0,0:0:0:0:
182,192,153882,128,0,154382:0:0:0:0:
256,192,153882,1,0,0:0:0:0:
402,192,153882,1,0,0:0:0:0:
36,192,154216,128,0,154382:0:0:0:0:
475,192,154216,1,0,0:0:0:0:
109,192,154382,128,0,154716:0:0:0:0:
256,192,154382,1,0,0:0:0:0:
402,192,154382,1,0,0:0:0:0:
182,192,154716,1,0,0:0:0:0:
36,192,154716,1,0,0:0:0:0:
329,192,154882,1,0,0:0:0:0:
402,192,154882,1,0,0:0:0:0:
182,192,154966,1,0,0:0:0:0:
109,192,154966,1,0,0:0:0:0:
329,192,155049,1,0,0:0:0:0:
402,192,155049,1,0,0:0:0:0:
256,192,155132,1,0,0:0:0:0:
182,192,155216,1,0,0:0:0:0:
109,192,155216,1,0,0:0:0:0:
36,192,155216,1,0,0:0:0:0:
475,192,155216,1,0,0:0:0:0:
329,192,155382,1,0,0:0:0:0:
402,192,155382,1,0,0:0:0:0:
475,192,155549,128,0,159549:0:0:0:0:
256,192,155549,1,0,0:0:0:0:
402,192,155549,1,0,0:0:0:0:
36,192,155549,1,0,0:0:0:0:
182,192,155716,1,0,0:0:0:0:
109,192,155716,1,0,0:0:0:0:
109,192,155882,1,0,0:0:0:0:
182,192,155882,1,0,0:0:0:0:
182,192,156049,1,0,0:0:0:0:
109,192,156049,1,0,0:0:0:0:
402,192,156049,1,0,0:0:0:0:
329,192,156049,1,0,0:0:0:0:
329,192,156216,1,0,0:0:0:0:
402,192,156216,1,0,0:0:0:0:
402,192,156382,1,0,0:0:0:0:
329,192,156382,1,0,0:0:0:0:
402,192,156549,1,0,0:0:0:0:
329,192,156549,1,0,0:0:0:0:
109,192,156549,1,0,0:0:0:0:
36,192,156549,1,0,0:0:0:0:
36,192,156716,1,0,0:0:0:0:
109,192,156716,1,0,0:0:0:0:
36,192,156882,1,0,0:0:0:0:
109,192,156882,1,0,0:0:0:0:
109,192,157049,1,0,0:0:0:0:
36,192,157049,1,0,0:0:0:0:
256,192,157049,1,0,0:0:0:0:
329,192,157049,1,0,0:0:0:0:
329,192,157216,1,0,0:0:0:0:
256,192,157216,1,0,0:0:0:0:
256,192,157382,1,0,0:0:0:0:
329,192,157382,1,0,0:0:0:0:
329,192,157549,1,0,0:0:0:0:
256,192,157549,1,0,0:0:0:0:
182,192,157549,1,0,0:0:0:0:
109,192,157549,1,0,0:0:0:0:
36,192,157716,1,0,0:0:0:0:
109,192,157716,1,0,0:0:0:0:
329,192,157799,1,0,0:0:0:0:
256,192,157799,1,0,0:0:0:0:
182,192,157882,1,0,0:0:0:0:
109,192,157882,1,0,0:0:0:0:
329,192,157966,1,0,0:0:0:0:
402,192,157966,1,0,0:0:0:0:
256,192,158049,1,0,0:0:0:0:
182,192,158049,1,0,0:0:0:0:
329,192,158132,1,0,0:0:0:0:
402,192,158132,1,0,0:0:0:0:
36,192,158216,128,0,159549:0:0:0:0:
109,192,158216,1,0,0:0:0:0:
256,192,158216,1,0,0:0:0:0:
182,192,158216,1,0,0:0:0:0:
182,192,158549,1,0,0:0:0:0:
329,192,158549,1,0,0:0:0:0:
329,192,158716,1,0,0:0:0:0:
182,192,158716,1,0,0:0:0:0:
182,192,158882,1,0,0:0:0:0:
329,192,158882,1,0,0:0:0:0:
182,192,159049,1,0,0:0:0:0:
329,192,159049,1,0,0:0:0:0:
329,192,159216,1,0,0:0:0:0:
182,192,159216,1,0,0:0:0:0:
256,192,159216,1,0,0:0:0:0:
329,192,159382,1,0,0:0:0:0:
182,192,159382,1,0,0:0:0:0:
402,192,159549,1,0,0:0:0:0:
109,192,159549,1,0,0:0:0:0:
182,192,159549,1,0,0:0:0:0:
329,192,159549,1,0,0:0:0:0:
109,192,159716,1,0,0:0:0:0:
36,192,159716,1,0,0:0:0:0:
182,192,159799,1,0,0:0:0:0:
256,192,159799,1,0,0:0:0:0:
109,192,159882,1,0,0:0:0:0:
36,192,159882,1,0,0:0:0:0:
402,192,159966,1,0,0:0:0:0:
475,192,159966,1,0,0:0:0:0:
329,192,160049,1,0,0:0:0:0:
182,192,160049,1,0,0:0:0:0:
109,192,160132,1,0,0:0:0:0:
36,192,160132,1,0,0:0:0:0:
402,192,160216,1,0,0:0:0:0:
475,192,160216,1,0,0:0:0:0:
329,192,160299,1,0,0:0:0:0:
256,192,160299,1,0,0:0:0:0:
402,192,160382,1,0,0:0:0:0:
475,192,160382,1,0,0:0:0:0:
182,192,160466,1,0,0:0:0:0:
109,192,160466,1,0,0:0:0:0:
36,192,160549,128,0,160882:0:0:0:0:
475,192,160549,128,0,160882:0:0:0:0:
329,192,160549,1,0,0:0:0:0:
256,192,160549,1,0,0:0:0:0:
402,192,160882,1,0,0:0:0:0:
329,192,160882,1,0,0:0:0:0:
182,192,160882,1,0,0:0:0:0:
109,192,160882,1,0,0:0:0:0:
256,192,160882,1,0,0:0:0:0:
475,192,161049,1,0,0:0:0:0:
256,192,161049,1,0,0:0:0:0:
402,192,161049,1,0,0:0:0:0:
475,192,161216,1,0,0:0:0:0:
329,192,161216,1,0,0:0:0:0:
109,192,161216,1,0,0:0:0:0:
36,192,161382,1,0,0:0:0:0:
109,192,161382,1,0,0:0:0:0:
329,192,161382,1,0,0:0:0:0:
256,192,161382,1,0,0:0:0:0:
475,192,161382,1,0,0:0:0:0:
36,192,161549,1,0,0:0:0:0:
182,192,161549,1,0,0:0:0:0:
402,192,161549,1,0,0:0:0:0:
36,192,161716,1,0,0:0:0:0:
256,192,161716,1,0,0:0:0:0:
329,192,161716,1,0,0:0:0:0:
402,192,161882,1,0,0:0:0:0:
256,192,161882,1,0,0:0:0:0:
109,192,161882,1,0,0:0:0:0:
475,192,161882,1,0,0:0:0:0:
36,192,161882,1,0,0:0:0:0:
402,192,162049,1,0,0:0:0:0:
182,192,162049,1,0,0:0:0:0:
329,192,162049,1,0,0:0:0:0:
402,192,162216,1,0,0:0:0:0:
256,192,162216,1,0,0:0:0:0:
36,192,162216,1,0,0:0:0:0:
256,192,162382,1,0,0:0:0:0:
182,192,162382,1,0,0:0:0:0:
109,192,162382,1,0,0:0:0:0:
36,192,162382,1,0,0:0:0:0:
402,192,162382,1,0,0:0:0:0:
109,192,162549,1,0,0:0:0:0:
329,192,162549,1,0,0:0:0:0:
475,192,162549,1,0,0:0:0:0:
109,192,162716,1,0,0:0:0:0:
182,192,162716,1,0,0:0:0:0:
402,192,162716,1,0,0:0:0:0:
475,192,162882,1,0,0:0:0:0:
402,192,162882,1,0,0:0:0:0:
36,192,162882,1,0,0:0:0:0:
109,192,162882,1,0,0:0:0:0:
329,192,163049,1,0,0:0:0:0:
182,192,163049,1,0,0:0:0:0:
36,192,163049,1,0,0:0:0:0:
402,192,163216,1,0,0:0:0:0:
329,192,163216,1,0,0:0:0:0:
182,192,163216,1,0,0:0:0:0:
109,192,163216,1,0,0:0:0:0:
256,192,163382,1,0,0:0:0:0:
109,192,163382,1,0,0:0:0:0:
475,192,163382,1,0,0:0:0:0:
109,192,163549,1,0,0:0:0:0:
36,192,163549,1,0,0:0:0:0:
475,192,163549,1,0,0:0:0:0:
329,192,163549,1,0,0:0:0:0:
402,192,163549,1,0,0:0:0:0:
329,192,163716,1,0,0:0:0:0:
475,192,163716,1,0,0:0:0:0:
182,192,163716,1,0,0:0:0:0:
329,192,163882,1,0,0:0:0:0:
109,192,163882,1,0,0:0:0:0:
36,192,163882,1,0,0:0:0:0:
402,192,164049,1,0,0:0:0:0:
329,192,164049,1,0,0:0:0:0:
256,192,164049,1,0,0:0:0:0:
182,192,164049,1,0,0:0:0:0:
109,192,164049,1,0,0:0:0:0:
402,192,164216,1,0,0:0:0:0:
475,192,164216,1,0,0:0:0:0:
256,192,164216,1,0,0:0:0:0:
402,192,164382,1,0,0:0:0:0:
36,192,164382,1,0,0:0:0:0:
109,192,164382,1,0,0:0:0:0:
36,192,164549,1,0,0:0:0:0:
182,192,164549,1,0,0:0:0:0:
329,192,164549,1,0,0:0:0:0:
475,192,164549,1,0,0:0:0:0:
402,192,164549,1,0,0:0:0:0:
182,192,164716,1,0,0:0:0:0:
256,192,164716,1,0,0:0:0:0:
329,192,164716,1,0,0:0:0:0:
182,192,164882,1,0,0:0:0:0:
475,192,164882,1,0,0:0:0:0:
109,192,164882,1,0,0:0:0:0:
475,192,165049,1,0,0:0:0:0:
329,192,165049,1,0,0:0:0:0:
182,192,165049,1,0,0:0:0:0:
36,192,165049,1,0,0:0:0:0:
109,192,165049,1,0,0:0:0:0:
475,192,165216,1,0,0:0:0:0:
256,192,165216,1,0,0:0:0:0:
109,192,165216,1,0,0:0:0:0:
475,192,165382,1,0,0:0:0:0:
329,192,165382,1,0,0:0:0:0:
182,192,165382,1,0,0:0:0:0:
402,192,165549,1,0,0:0:0:0:
329,192,165549,1,0,0:0:0:0:
36,192,165549,1,0,0:0:0:0:
109,192,165549,1,0,0:0:0:0:
256,192,165549,1,0,0:0:0:0:
182,192,165716,1,0,0:0:0:0:
256,192,165716,1,0,0:0:0:0:
475,192,165716,1,0,0:0:0:0:
402,192,165882,1,0,0:0:0:0:
475,192,165882,1,0,0:0:0:0:
182,192,165882,1,0,0:0:0:0:
109,192,165882,1,0,0:0:0:0:
329,192,165966,1,0,0:0:0:0:
256,192,165966,1,0,0:0:0:0:
36,192,166049,1,0,0:0:0:0:
182,192,166049,1,0,0:0:0:0:
402,192,166049,1,0,0:0:0:0:
475,192,166132,1,0,0:0:0:0:
109,192,166132,1,0,0:0:0:0:
256,192,166216,1,0,0:0:0:0:
36,192,166216,1,0,0:0:0:0:
329,192,166216,1,0,0:0:0:0:
402,192,166216,1,0,0:0:0:0:
182,192,166216,1,0,0:0:0:0:
402,192,166382,1,0,0:0:0:0:
109,192,166382,1,0,0:0:0:0:
182,192,166382,1,0,0:0:0:0:
402,192,166549,1,0,0:0:0:0:
329,192,166549,1,0,0:0:0:0:
36,192,166549,1,0,0:0:0:0:
475,192,166716,1,0,0:0:0:0:
402,192,166716,1,0,0:0:0:0:
182,192,166716,1,0,0:0:0:0:
256,192,166716,1,0,0:0:0:0:
36,192,166716,1,0,0:0:0:0:
36,192,166882,1,0,0:0:0:0:
109,192,166882,1,0,0:0:0:0:
329,192,166882,1,0,0:0:0:0:
36,192,167049,1,0,0:0:0:0:
402,192,167049,1,0,0:0:0:0:
182,192,167049,1,0,0:0:0:0:
36,192,167216,1,0,0:0:0:0:
109,192,167216,1,0,0:0:0:0:
256,192,167216,1,0,0:0:0:0:
329,192,167216,1,0,0:0:0:0:
475,192,167216,1,0,0:0:0:0:
475,192,167382,1,0,0:0:0:0:
402,192,167382,1,0,0:0:0:0:
182,192,167382,1,0,0:0:0:0:
475,192,167549,1,0,0:0:0:0:
329,192,167549,1,0,0:0:0:0:
256,192,167549,1,0,0:0:0:0:
402,192,167716,1,0,0:0:0:0:
109,192,167716,1,0,0:0:0:0:
329,192,167716,1,0,0:0:0:0:
36,192,167716,1,0,0:0:0:0:
182,192,167716,1,0,0:0:0:0:
109,192,167882,1,0,0:0:0:0:
256,192,167882,1,0,0:0:0:0:
402,192,167882,1,0,0:0:0:0:
475,192,168049,1,0,0:0:0:0:
329,192,168049,1,0,0:0:0:0:
36,192,168049,1,0,0:0:0:0:
402,192,168216,1,0,0:0:0:0:
329,192,168216,1,0,0:0:0:0:
182,192,168216,1,0,0:0:0:0:
109,192,168216,1,0,0:0:0:0:
36,192,168216,1,0,0:0:0:0:
182,192,168382,1,0,0:0:0:0:
329,192,168382,1,0,0:0:0:0:
475,192,168382,1,0,0:0:0:0:
402,192,168549,1,0,0:0:0:0:
475,192,168549,1,0,0:0:0:0:
109,192,168549,1,0,0:0:0:0:
36,192,168549,1,0,0:0:0:0:
182,192,168716,1,0,0:0:0:0:
256,192,168716,1,0,0:0:0:0:
329,192,168716,1,0,0:0:0:0:
402,192,168882,1,0,0:0:0:0:
475,192,168882,1,0,0:0:0:0:
36,192,168882,1,0,0:0:0:0:
182,192,168882,1,0,0:0:0:0:
109,192,168882,1,0,0:0:0:0:
402,192,169049,1,0,0:0:0:0:
109,192,169049,1,0,0:0:0:0:
329,192,169049,1,0,0:0:0:0:
109,192,169216,1,0,0:0:0:0:
256,192,169216,1,0,0:0:0:0:
475,192,169216,1,0,0:0:0:0:
329,192,169382,1,0,0:0:0:0:
256,192,169382,1,0,0:0:0:0:
109,192,169382,1,0,0:0:0:0:
36,192,169382,1,0,0:0:0:0:
475,192,169382,1,0,0:0:0:0:
329,192,169549,1,0,0:0:0:0:
402,192,169549,1,0,0:0:0:0:
109,192,169549,1,0,0:0:0:0:
329,192,169716,1,0,0:0:0:0:
182,192,169716,1,0,0:0:0:0:
36,192,169716,1,0,0:0:0:0:
402,192,169882,1,0,0:0:0:0:
475,192,169882,1,0,0:0:0:0:
256,192,169882,1,0,0:0:0:0:
182,192,169882,1,0,0:0:0:0:
36,192,169882,1,0,0:0:0:0:
475,192,170049,1,0,0:0:0:0:
329,192,170049,1,0,0:0:0:0:
109,192,170049,1,0,0:0:0:0:
182,192,170216,1,0,0:0:0:0:
109,192,170216,1,0,0:0:0:0:
329,192,170216,1,0,0:0:0:0:
402,192,170216,1,0,0:0:0:0:
256,192,170216,1,0,0:0:0:0:
182,192,170382,1,0,0:0:0:0:
36,192,170382,1,0,0:0:0:0:
402,192,170382,1,0,0:0:0:0:
36,192,170549,1,0,0:0:0:0:
109,192,170549,1,0,0:0:0:0:
475,192,170549,1,0,0:0:0:0:
402,192,170549,1,0,0:0:0:0:
256,192,170549,1,0,0:0:0:0:
329,192,170716,1,0,0:0:0:0:
182,192,170716,1,0,0:0:0:0:
256,192,170882,1,0,0:0:0:0:
402,192,170882,1,0,0:0:0:0:
109,192,170882,1,0,0:0:0:0:
475,192,171049,1,0,0:0:0:0:
402,192,171049,1,0,0:0:0:0:
256,192,171132,1,0,0:0:0:0:
182,192,171132,1,0,0:0:0:0:
329,192,171216,1,0,0:0:0:0:
402,192,171216,1,0,0:0:0:0:
109,192,171299,1,0,0:0:0:0:
182,192,171299,1,0,0:0:0:0:
256,192,171382,1,0,0:0:0:0:
329,192,171382,1,0,0:0:0:0:
36,192,171466,1,0,0:0:0:0:
109,192,171466,1,0,0:0:0:0:
182,192,171549,1,0,0:0:0:0:
256,192,171549,1,0,0:0:0:0:
402,192,171549,1,0,0:0:0:0:
475,192,171549,1,0,0:0:0:0:
329,192,171549,1,0,0:0:0:0:
109,192,171716,1,0,0:0:0:0:
36,192,171716,1,0,0:0:0:0:
475,192,171882,1,0,0:0:0:0:
402,192,171882,1,0,0:0:0:0:
256,192,171882,1,0,0:0:0:0:
182,192,172049,1,0,0:0:0:0:
329,192,172049,1,0,0:0:0:0:
109,192,172216,1,0,0:0:0:0:
36,192,172216,1,0,0:0:0:0:
256,192,172382,1,0,0:0:0:0:
475,192,172382,1,0,0:0:0:0:
402,192,172549,1,0,0:0:0:0:
329,192,172549,1,0,0:0:0:0:
109,192,172549,1,0,0:0:0:0:
182,192,172716,1,0,0:0:0:0:
36,192,172716,1,0,0:0:0:0:
329,192,172882,1,0,0:0:0:0:
475,192,172882,1,0,0:0:0:0:
182,192,173049,1,0,0:0:0:0:
256,192,173049,1,0,0:0:0:0:
475,192,173216,1,0,0:0:0:0:
402,192,173216,1,0,0:0:0:0:
36,192,173216,1,0,0:0:0:0:
109,192,173382,1,0,0:0:0:0:
329,192,173382,1,0,0:0:0:0:
182,192,173549,1,0,0:0:0:0:
256,192,173549,1,0,0:0:0:0:
329,192,173716,1,0,0:0:0:0:
402,192,173716,1,0,0:0:0:0:
475,192,173882,1,0,0:0:0:0:
182,192,173882,1,0,0:0:0:0:
36,192,173882,1,0,0:0:0:0:
256,192,174049,1,0,0:0:0:0:
329,192,174049,1,0,0:0:0:0:
402,192,174049,1,0,0:0:0:0:
109,192,174132,1,0,0:0:0:0:
182,192,174132,1,0,0:0:0:0:
402,192,174216,1,0,0:0:0:0:
475,192,174216,1,0,0:0:0:0:
36,192,174216,1,0,0:0:0:0:
256,192,174216,1,0,0:0:0:0:
329,192,174216,1,0,0:0:0:0:
109,192,174382,1,0,0:0:0:0:
402,192,174382,1,0,0:0:0:0:
182,192,174549,1,0,0:0:0:0:
36,192,174549,1,0,0:0:0:0:
475,192,174549,1,0,0:0:0:0:
256,192,174716,1,0,0:0:0:0:
329,192,174716,1,0,0:0:0:0:
402,192,174882,1,0,0:0:0:0:
475,192,174882,1,0,0:0:0:0:
109,192,174882,1,0,0:0:0:0:
182,192,175049,1,0,0:0:0:0:
329,192,175049,1,0,0:0:0:0:
36,192,175216,1,0,0:0:0:0:
109,192,175216,1,0,0:0:0:0:
475,192,175216,1,0,0:0:0:0:
402,192,175382,1,0,0:0:0:0:
256,192,175382,1,0,0:0:0:0:
182,192,175549,1,0,0:0:0:0:
109,192,175549,1,0,0:0:0:0:
329,192,175716,1,0,0:0:0:0:
475,192,175716,1,0,0:0:0:0:
256,192,175882,1,0,0:0:0:0:
182,192,175882,1,0,0:0:0:0:
36,192,175882,1,0,0:0:0:0:
329,192,176049,1,0,0:0:0:0:
402,192,176049,1,0,0:0:0:0:
182,192,176216,1,0,0:0:0:0:
109,192,176216,1,0,0:0:0:0:
402,192,176382,1,0,0:0:0:0:
475,192,176382,1,0,0:0:0:0:
182,192,176549,1,0,0:0:0:0:
329,192,176549,1,0,0:0:0:0:
36,192,176549,1,0,0:0:0:0:
109,192,176716,1,0,0:0:0:0:
182,192,176716,1,0,0:0:0:0:
329,192,176799,1,0,0:0:0:0:
402,192,176799,1,0,0:0:0:0:
182,192,176882,1,0,0:0:0:0:
109,192,176882,1,0,0:0:0:0:
36,192,176882,1,0,0:0:0:0:
256,192,176882,1,0,0:0:0:0:
475,192,176882,1,0,0:0:0:0:
475,192,177049,1,0,0:0:0:0:
329,192,177049,1,0,0:0:0:0:
402,192,177216,1,0,0:0:0:0:
329,192,177216,1,0,0:0:0:0:
182,192,177216,1,0,0:0:0:0:
256,192,177382,1,0,0:0:0:0:
109,192,177382,1,0,0:0:0:0:
475,192,177549,128,0,178049:0:0:0:0:
36,192,177549,1,0,0:0:0:0:
402,192,177716,128,0,178049:0:0:0:0:
329,192,177882,128,0,178049:0:0:0:0:
256,192,177882,1,0,0:0:0:0:
36,192,177882,1,0,0:0:0:0:
182,192,178049,128,0,178549:0:0:0:0:
109,192,178216,1,0,0:0:0:0:
256,192,178216,1,0,0:0:0:0:
36,192,178382,128,0,178549:0:0:0:0:
402,192,178382,1,0,0:0:0:0:
256,192,178549,1,0,0:0:0:0:
329,192,178549,1,0,0:0:0:0:
109,192,178549,1,0,0:0:0:0:
475,192,178716,128,0,179382:0:0:0:0:
402,192,178716,1,0,0:0:0:0:
182,192,178882,1,0,0:0:0:0:
109,192,178882,1,0,0:0:0:0:
329,192,179049,128,0,179382:0:0:0:0:
256,192,179049,1,0,0:0:0:0:
36,192,179216,1,0,0:0:0:0:
109,192,179216,1,0,0:0:0:0:
402,192,179216,1,0,0:0:0:0:
109,192,179382,1,0,0:0:0:0:
182,192,179382,1,0,0:0:0:0:
256,192,179382,1,0,0:0:0:0:
36,192,179549,128,0,179882:0:0:0:0:
329,192,179549,1,0,0:0:0:0:
109,192,179549,1,0,0:0:0:0:
256,192,179549,1,0,0:0:0:0:
182,192,179882,1,0,0:0:0:0:
402,192,179882,1,0,0:0:0:0:
475,192,179882,1,0,0:0:0:0:
109,192,180049,1,0,0:0:0:0:
329,192,180049,1,0,0:0:0:0:
256,192,180216,128,0,181216:0:0:0:0:
36,192,180216,1,0,0:0:0:0:
182,192,180382,1,0,0:0:0:0:
402,192,180382,1,0,0:0:0:0:
329,192,180549,1,0,0:0:0:0:
475,192,180549,1,0,0:0:0:0:
109,192,180549,1,0,0:0:0:0:
475,192,180882,128,0,181216:0:0:0:0:
36,192,180882,128,0,181216:0:0:0:0:
182,192,180966,1,0,0:0:0:0:
109,192,180966,1,0,0:0:0:0:
329,192,181049,1,0,0:0:0:0:
402,192,181049,1,0,0:0:0:0:
182,192,181132,1,0,0:0:0:0:
109,192,181132,1,0,0:0:0:0:
402,192,181216,1,0,0:0:0:0:
329,192,181216,1,0,0:0:0:0:
182,192,181299,1,0,0:0:0:0:
109,192,181299,1,0,0:0:0:0:
36,192,181382,1,0,0:0:0:0:
475,192,181382,1,0,0:0:0:0:
402,192,181466,1,0,0:0:0:0:
329,192,181466,1,0,0:0:0:0:
256,192,181549,1,0,0:0:0:0:
109,192,181549,1,0,0:0:0:0:
182,192,181632,1,0,0:0:0:0:
402,192,181632,1,0,0:0:0:0:
36,192,181716,1,0,0:0:0:0:
329,192,181716,1,0,0:0:0:0:
475,192,181799,1,0,0:0:0:0:
402,192,181799,1,0,0:0:0:0:
36,192,181882,1,0,0:0:0:0:
109,192,181882,1,0,0:0:0:0:
182,192,181966,1,0,0:0:0:0:
475,192,181966,1,0,0:0:0:0:
402,192,182049,1,0,0:0:0:0:
109,192,182049,1,0,0:0:0:0:
329,192,182132,1,0,0:0:0:0:
36,192,182132,1,0,0:0:0:0:
475,192,182216,1,0,0:0:0:0:
402,192,182216,1,0,0:0:0:0:
256,192,182216,1,0,0:0:0:0:
182,192,182216,1,0,0:0:0:0:
109,192,182216,1,0,0:0:0:0:
256,192,182382,1,0,0:0:0:0:
182,192,182382,1,0,0:0:0:0:
109,192,182382,1,0,0:0:0:0:
109,192,182549,1,0,0:0:0:0:
182,192,182549,1,0,0:0:0:0:
256,192,182549,1,0,0:0:0:0:
182,192,182716,1,0,0:0:0:0:
109,192,182716,1,0,0:0:0:0:
329,192,182716,1,0,0:0:0:0:
402,192,182716,1,0,0:0:0:0:
475,192,182716,1,0,0:0:0:0:
329,192,182882,1,0,0:0:0:0:
402,192,182882,1,0,0:0:0:0:
475,192,182882,1,0,0:0:0:0:
475,192,183049,1,0,0:0:0:0:
402,192,183049,1,0,0:0:0:0:
329,192,183049,1,0,0:0:0:0:
402,192,183216,1,0,0:0:0:0:
475,192,183216,1,0,0:0:0:0:
36,192,183216,1,0,0:0:0:0:
182,192,183216,1,0,0:0:0:0:
109,192,183216,1,0,0:0:0:0:
182,192,183382,1,0,0:0:0:0:
109,192,183382,1,0,0:0:0:0:
36,192,183382,1,0,0:0:0:0:
36,192,183549,1,0,0:0:0:0:
109,192,183549,1,0,0:0:0:0:
182,192,183549,1,0,0:0:0:0:
402,192,183716,1,0,0:0:0:0:
329,192,183716,1,0,0:0:0:0:
256,192,183716,1,0,0:0:0:0:
36,192,183716,1,0,0:0:0:0:
109,192,183716,1,0,0:0:0:0:
256,192,183882,1,0,0:0:0:0:
329,192,183882,1,0,0:0:0:0:
402,192,183882,1,0,0:0:0:0:
402,192,184049,1,0,0:0:0:0:
329,192,184049,1,0,0:0:0:0:
256,192,184049,1,0,0:0:0:0:
475,192,184216,1,0,0:0:0:0:
256,192,184216,1,0,0:0:0:0:
36,192,184216,1,0,0:0:0:0:
109,192,184216,1,0,0:0:0:0:
402,192,184216,1,0,0:0:0:0:
36,192,184327,1,0,0:0:0:0:
109,192,184327,1,0,0:0:0:0:
182,192,184327,1,0,0:0:0:0:
329,192,184438,1,0,0:0:0:0:
402,192,184438,1,0,0:0:0:0:
475,192,184438,1,0,0:0:0:0:
109,192,184549,1,0,0:0:0:0:
182,192,184549,1,0,0:0:0:0:
256,192,184549,1,0,0:0:0:0:
402,192,184660,1,0,0:0:0:0:
475,192,184660,1,0,0:0:0:0:
36,192,184660,1,0,0:0:0:0:
182,192,184771,1,0,0:0:0:0:
329,192,184771,1,0,0:0:0:0:
256,192,184771,1,0,0:0:0:0:
475,192,184882,128,0,186216:0:0:0:0:
402,192,184882,1,0,0:0:0:0:
109,192,184882,128,0,186216:0:0:0:0:
36,192,184882,128,0,186216:0:0:0:0:
182,192,184882,1,0,0:0:0:0:
182,192,187049,1,0,0:0:0:0:
109,192,187049,1,0,0:0:0:0:
329,192,187132,1,0,0:0:0:0:
402,192,187132,1,0,0:0:0:0:
256,192,187216,128,0,187549:0:0:0:0:
36,192,187216,1,0,0:0:0:0:
475,192,187216,1,0,0:0:0:0:
36,192,187549,128,0,189882:0:0:0:0:
109,192,187549,1,0,0:0:0:0:
182,192,187549,1,0,0:0:0:0:
475,192,187549,1,0,0:0:0:0:
402,192,187549,1,0,0:0:0:0:
109,192,187882,1,0,0:0:0:0:
329,192,187882,1,0,0:0:0:0:
182,192,188049,128,0,189882:0:0:0:0:
256,192,188049,1,0,0:0:0:0:
475,192,188049,1,0,0:0:0:0:
402,192,188049,1,0,0:0:0:0:
329,192,188549,128,0,189882:0:0:0:0:
402,192,188549,1,0,0:0:0:0:
475,192,188549,1,0,0:0:0:0:
109,192,188549,1,0,0:0:0:0:
475,192,189882,1,0,0:0:0:0:
475,192,190216,128,0,192549:0:0:0:0:
36,192,190216,1,0,0:0:0:0:
182,192,190216,1,0,0:0:0:0:
402,192,190216,1,0,0:0:0:0:
329,192,190216,1,0,0:0:0:0:
109,192,190216,1,0,0:0:0:0:
329,192,190716,128,0,192549:0:0:0:0:
182,192,191216,128,0,192549:0:0:0:0:
36,192,191549,1,0,0:0:0:0:
109,192,191549,1,0,0:0:0:0:
256,192,191605,1,0,0:0:0:0:
402,192,191605,1,0,0:0:0:0:
109,192,191716,1,0,0:0:0:0:
36,192,191716,1,0,0:0:0:0:
36,192,191882,128,0,192216:0:0:0:0:
256,192,192049,1,0,0:0:0:0:
402,192,192049,1,0,0:0:0:0:
109,192,192216,128,0,192549:0:0:0:0:
402,192,192382,1,0,0:0:0:0:
36,192,192382,1,0,0:0:0:0:
256,192,192549,128,0,192882:0:0:0:0:
402,192,192549,1,0,0:0:0:0:
36,192,192882,128,0,195216:0:0:0:0:
182,192,192882,1,0,0:0:0:0:
475,192,192882,1,0,0:0:0:0:
329,192,192882,1,0,0:0:0:0:
109,192,192882,1,0,0:0:0:0:
475,192,193216,1,0,0:0:0:0:
329,192,193216,1,0,0:0:0:0:
182,192,193382,128,0,195216:0:0:0:0:
109,192,193382,1,0,0:0:0:0:
256,192,193382,1,0,0:0:0:0:
402,192,193382,1,0,0:0:0:0:
329,192,193882,128,0,195216:0:0:0:0:
475,192,193882,1,0,0:0:0:0:
109,192,193882,1,0,0:0:0:0:
256,192,193882,1,0,0:0:0:0:
475,192,195216,1,0,0:0:0:0:
475,192,195549,128,0,197882:0:0:0:0:
256,192,195549,1,0,0:0:0:0:
402,192,195549,1,0,0:0:0:0:
36,192,195549,1,0,0:0:0:0:
109,192,195549,1,0,0:0:0:0:
36,192,195882,1,0,0:0:0:0:
109,192,195882,1,0,0:0:0:0:
109,192,196049,1,0,0:0:0:0:
36,192,196049,1,0,0:0:0:0:
329,192,196216,128,0,197882:0:0:0:0:
402,192,196216,1,0,0:0:0:0:
256,192,196382,1,0,0:0:0:0:
36,192,196382,1,0,0:0:0:0:
182,192,196549,128,0,197882:0:0:0:0:
109,192,196549,1,0,0:0:0:0:
256,192,196549,1,0,0:0:0:0:
402,192,196549,1,0,0:0:0:0:
36,192,196882,1,0,0:0:0:0:
109,192,196882,1,0,0:0:0:0:
256,192,197049,1,0,0:0:0:0:
402,192,197049,1,0,0:0:0:0:
36,192,197049,1,0,0:0:0:0:
109,192,197216,1,0,0:0:0:0:
256,192,197216,1,0,0:0:0:0:
36,192,197216,1,0,0:0:0:0:
402,192,197382,1,0,0:0:0:0:
36,192,197382,1,0,0:0:0:0:
256,192,197549,1,0,0:0:0:0:
109,192,197549,1,0,0:0:0:0:
36,192,197549,1,0,0:0:0:0:
402,192,197716,1,0,0:0:0:0:
256,192,197716,1,0,0:0:0:0:
109,192,197882,1,0,0:0:0:0:
36,192,197882,1,0,0:0:0:0:
402,192,197882,1,0,0:0:0:0:
256,192,197966,1,0,0:0:0:0:
475,192,197966,1,0,0:0:0:0:
182,192,198049,1,0,0:0:0:0:
109,192,198049,1,0,0:0:0:0:
402,192,198132,1,0,0:0:0:0:
329,192,198132,1,0,0:0:0:0:
256,192,198216,1,0,0:0:0:0:
109,192,198216,1,0,0:0:0:0:
475,192,198216,1,0,0:0:0:0:
36,192,198216,128,0,198716:0:0:0:0:
402,192,198382,1,0,0:0:0:0:
182,192,198382,1,0,0:0:0:0:
329,192,198549,1,0,0:0:0:0:
109,192,198549,1,0,0:0:0:0:
182,192,198716,128,0,199216:0:0:0:0:
256,192,198716,1,0,0:0:0:0:
475,192,198716,1,0,0:0:0:0:
402,192,198716,1,0,0:0:0:0:
36,192,198882,1,0,0:0:0:0:
109,192,198882,1,0,0:0:0:0:
256,192,199049,1,0,0:0:0:0:
402,192,199049,1,0,0:0:0:0:
329,192,199216,128,0,200882:0:0:0:0:
475,192,199216,1,0,0:0:0:0:
256,192,199216,1,0,0:0:0:0:
36,192,199216,1,0,0:0:0:0:
109,192,199382,1,0,0:0:0:0:
182,192,199382,1,0,0:0:0:0:
475,192,199549,1,0,0:0:0:0:
402,192,199549,1,0,0:0:0:0:
256,192,199716,1,0,0:0:0:0:
36,192,199716,1,0,0:0:0:0:
109,192,199716,1,0,0:0:0:0:
475,192,199716,1,0,0:0:0:0:
182,192,199882,1,0,0:0:0:0:
402,192,199882,1,0,0:0:0:0:
256,192,200049,1,0,0:0:0:0:
36,192,200049,1,0,0:0:0:0:
109,192,200216,1,0,0:0:0:0:
182,192,200216,1,0,0:0:0:0:
475,192,200216,1,0,0:0:0:0:
402,192,200216,1,0,0:0:0:0:
256,192,200382,1,0,0:0:0:0:
36,192,200382,1,0,0:0:0:0:
109,192,200549,1,0,0:0:0:0:
402,192,200549,1,0,0:0:0:0:
256,192,200716,1,0,0:0:0:0:
182,192,200716,1,0,0:0:0:0:
109,192,200799,1,0,0:0:0:0:
36,192,200799,1,0,0:0:0:0:
475,192,200882,128,0,201382:0:0:0:0:
182,192,200882,1,0,0:0:0:0:
256,192,200882,1,0,0:0:0:0:
402,192,200882,1,0,0:0:0:0:
36,192,201049,1,0,0:0:0:0:
329,192,201049,1,0,0:0:0:0:
182,192,201216,1,0,0:0:0:0:
402,192,201216,1,0,0:0:0:0:
36,192,201382,128,0,201882:0:0:0:0:
109,192,201382,1,0,0:0:0:0:
329,192,201382,1,0,0:0:0:0:
256,192,201382,1,0,0:0:0:0:
402,192,201549,1,0,0:0:0:0:
475,192,201549,1,0,0:0:0:0:
182,192,201716,1,0,0:0:0:0:
109,192,201716,1,0,0:0:0:0:
182,192,201882,128,0,203216:0:0:0:0:
256,192,201882,1,0,0:0:0:0:
402,192,201882,1,0,0:0:0:0:
475,192,201882,1,0,0:0:0:0:
329,192,202049,1,0,0:0:0:0:
109,192,202049,1,0,0:0:0:0:
36,192,202216,1,0,0:0:0:0:
475,192,202216,1,0,0:0:0:0:
256,192,202382,1,0,0:0:0:0:
402,192,202382,1,0,0:0:0:0:
109,192,202382,1,0,0:0:0:0:
36,192,202382,1,0,0:0:0:0:
475,192,202549,1,0,0:0:0:0:
329,192,202549,1,0,0:0:0:0:
402,192,202716,1,0,0:0:0:0:
109,192,202716,1,0,0:0:0:0:
36,192,202882,1,0,0:0:0:0:
256,192,202882,1,0,0:0:0:0:
475,192,202882,1,0,0:0:0:0:
329,192,202882,1,0,0:0:0:0:
402,192,203049,1,0,0:0:0:0:
475,192,203049,1,0,0:0:0:0:
109,192,203216,1,0,0:0:0:0:
36,192,203216,1,0,0:0:0:0:
256,192,203299,1,0,0:0:0:0:
182,192,203299,1,0,0:0:0:0:
402,192,203382,1,0,0:0:0:0:
329,192,203382,1,0,0:0:0:0:
475,192,203466,1,0,0:0:0:0:
182,192,203466,1,0,0:0:0:0:
329,192,203549,128,0,204049:0:0:0:0:
256,192,203549,1,0,0:0:0:0:
402,192,203549,1,0,0:0:0:0:
36,192,203549,1,0,0:0:0:0:
109,192,203549,1,0,0:0:0:0:
182,192,203716,1,0,0:0:0:0:
475,192,203716,1,0,0:0:0:0:
256,192,203882,1,0,0:0:0:0:
36,192,203882,1,0,0:0:0:0:
475,192,204049,128,0,204549:0:0:0:0:
109,192,204049,1,0,0:0:0:0:
182,192,204049,1,0,0:0:0:0:
402,192,204049,1,0,0:0:0:0:
36,192,204216,1,0,0:0:0:0:
256,192,204216,1,0,0:0:0:0:
402,192,204382,1,0,0:0:0:0:
109,192,204382,1,0,0:0:0:0:
36,192,204549,128,0,205882:0:0:0:0:
182,192,204549,1,0,0:0:0:0:
256,192,204549,1,0,0:0:0:0:
329,192,204549,1,0,0:0:0:0:
109,192,204716,1,0,0:0:0:0:
402,192,204716,1,0,0:0:0:0:
475,192,204882,1,0,0:0:0:0:
329,192,204882,1,0,0:0:0:0:
182,192,205049,1,0,0:0:0:0:
109,192,205049,1,0,0:0:0:0:
402,192,205049,1,0,0:0:0:0:
256,192,205049,1,0,0:0:0:0:
475,192,205216,1,0,0:0:0:0:
109,192,205216,1,0,0:0:0:0:
182,192,205382,1,0,0:0:0:0:
329,192,205382,1,0,0:0:0:0:
402,192,205549,1,0,0:0:0:0:
475,192,205549,1,0,0:0:0:0:
256,192,205549,1,0,0:0:0:0:
109,192,205549,1,0,0:0:0:0:
182,192,205716,1,0,0:0:0:0:
329,192,205716,1,0,0:0:0:0:
402,192,205882,1,0,0:0:0:0:
475,192,205882,1,0,0:0:0:0:
109,192,205882,1,0,0:0:0:0:
329,192,205966,1,0,0:0:0:0:
256,192,205966,1,0,0:0:0:0:
182,192,206049,1,0,0:0:0:0:
109,192,206049,1,0,0:0:0:0:
36,192,206132,1,0,0:0:0:0:
402,192,206132,1,0,0:0:0:0:
475,192,206216,128,0,208382:0:0:0:0:
329,192,206216,1,0,0:0:0:0:
256,192,206216,1,0,0:0:0:0:
182,192,206216,1,0,0:0:0:0:
109,192,206216,1,0,0:0:0:0:
36,192,206549,1,0,0:0:0:0:
109,192,206549,1,0,0:0:0:0:
329,192,206716,1,0,0:0:0:0:
256,192,206716,1,0,0:0:0:0:
182,192,206882,1,0,0:0:0:0:
109,192,206882,1,0,0:0:0:0:
402,192,207049,1,0,0:0:0:0:
329,192,207049,1,0,0:0:0:0:
256,192,207216,1,0,0:0:0:0:
182,192,207216,1,0,0:0:0:0:
402,192,207382,1,0,0:0:0:0:
329,192,207382,1,0,0:0:0:0:
36,192,207549,128,0,208382:0:0:0:0:
109,192,207549,1,0,0:0:0:0:
182,192,207549,1,0,0:0:0:0:
329,192,207716,1,0,0:0:0:0:
256,192,207716,1,0,0:0:0:0:
182,192,207882,1,0,0:0:0:0:
109,192,207882,1,0,0:0:0:0:
402,192,208049,1,0,0:0:0:0:
329,192,208049,1,0,0:0:0:0:
182,192,208216,1,0,0:0:0:0:
256,192,208216,1,0,0:0:0:0:
402,192,208382,1,0,0:0:0:0:
329,192,208382,1,0,0:0:0:0:
256,192,208382,1,0,0:0:0:0:
182,192,208466,1,0,0:0:0:0:
109,192,208466,1,0,0:0:0:0:
36,192,208466,1,0,0:0:0:0:
475,192,208549,1,0,0:0:0:0:
402,192,208549,1,0,0:0:0:0:
256,192,208549,128,0,208882:0:0:0:0:
182,192,208632,1,0,0:0:0:0:
109,192,208632,1,0,0:0:0:0:
36,192,208632,1,0,0:0:0:0:
475,192,208716,1,0,0:0:0:0:
402,192,208716,1,0,0:0:0:0:
329,192,208716,1,0,0:0:0:0:
182,192,208799,1,0,0:0:0:0:
109,192,208799,1,0,0:0:0:0:
36,192,208799,1,0,0:0:0:0:
475,192,208882,128,0,210216:0:0:0:0:
329,192,208882,128,0,209382:0:0:0:0:
402,192,208882,128,0,209049:0:0:0:0:
36,192,208882,1,0,0:0:0:0:
109,192,208882,1,0,0:0:0:0:
256,192,209049,128,0,209216:0:0:0:0:
182,192,209216,128,0,209382:0:0:0:0:
109,192,209216,1,0,0:0:0:0:
109,192,209382,128,0,209882:0:0:0:0:
36,192,209382,128,0,209549:0:0:0:0:
256,192,209549,128,0,209716:0:0:0:0:
402,192,209549,1,0,0:0:0:0:
36,192,209716,1,0,0:0:0:0:
402,192,209882,128,0,210382:0:0:0:0:
182,192,209882,128,0,210049:0:0:0:0:
329,192,209882,1,0,0:0:0:0:
36,192,210049,128,0,210216:0:0:0:0:
329,192,210216,128,0,211549:0:0:0:0:
109,192,210216,1,0,0:0:0:0:
36,192,210382,128,0,210882:0:0:0:0:
182,192,210382,128,0,210549:0:0:0:0:
475,192,210549,128,0,210716:0:0:0:0:
256,192,210549,1,0,0:0:0:0:
109,192,210549,1,0,0:0:0:0:
402,192,210716,1,0,0:0:0:0:
256,192,210882,128,0,211216:0:0:0:0:
109,192,210882,128,0,211049:0:0:0:0:
402,192,211049,128,0,211216:0:0:0:0:
475,192,211216,128,0,211549:0:0:0:0:
182,192,211216,128,0,211382:0:0:0:0:
36,192,211216,1,0,0:0:0:0:
109,192,211382,128,0,211549:0:0:0:0:
402,192,211382,1,0,0:0:0:0:
256,192,211466,1,0,0:0:0:0:
182,192,211549,128,0,212882:0:0:0:0:
36,192,211549,128,0,212049:0:0:0:0:
402,192,211549,128,0,211716:0:0:0:0:
475,192,211716,128,0,211882:0:0:0:0:
256,192,211882,128,0,212049:0:0:0:0:
402,192,211882,1,0,0:0:0:0:
329,192,211882,1,0,0:0:0:0:
329,192,212049,128,0,212549:0:0:0:0:
109,192,212049,128,0,212216:0:0:0:0:
36,192,212216,128,0,212382:0:0:0:0:
475,192,212216,1,0,0:0:0:0:
256,192,212382,1,0,0:0:0:0:
475,192,212549,128,0,213049:0:0:0:0:
402,192,212549,128,0,212716:0:0:0:0:
109,192,212549,1,0,0:0:0:0:
256,192,212716,128,0,212882:0:0:0:0:
36,192,212882,128,0,214216:0:0:0:0:
402,192,212882,1,0,0:0:0:0:
109,192,213049,128,0,213549:0:0:0:0:
329,192,213049,128,0,213216:0:0:0:0:
182,192,213216,128,0,213382:0:0:0:0:
256,192,213216,1,0,0:0:0:0:
402,192,213216,1,0,0:0:0:0:
475,192,213382,1,0,0:0:0:0:
475,192,213549,128,0,213882:0:0:0:0:
402,192,213549,128,0,213716:0:0:0:0:
329,192,213716,128,0,213882:0:0:0:0:
256,192,213882,128,0,214049:0:0:0:0:
109,192,213882,1,0,0:0:0:0:
182,192,213882,1,0,0:0:0:0:
475,192,214049,1,0,0:0:0:0:
402,192,214049,1,0,0:0:0:0:
256,192,214132,1,0,0:0:0:0:
402,192,214216,128,0,215549:0:0:0:0:
109,192,214216,128,0,214716:0:0:0:0:
329,192,214216,128,0,214382:0:0:0:0:
475,192,214216,1,0,0:0:0:0:
182,192,214216,1,0,0:0:0:0:
256,192,214382,128,0,214549:0:0:0:0:
182,192,214549,128,0,214716:0:0:0:0:
475,192,214549,1,0,0:0:0:0:
36,192,214549,1,0,0:0:0:0:
329,192,214716,128,0,215216:0:0:0:0:
36,192,214716,128,0,214882:0:0:0:0:
256,192,214882,128,0,215049:0:0:0:0:
182,192,214882,1,0,0:0:0:0:
109,192,215049,128,0,215216:0:0:0:0:
182,192,215216,128,0,215716:0:0:0:0:
475,192,215216,128,0,215382:0:0:0:0:
36,192,215216,1,0,0:0:0:0:
36,192,215382,128,0,215549:0:0:0:0:
256,192,215549,128,0,216882:0:0:0:0:
109,192,215549,128,0,215716:0:0:0:0:
329,192,215716,128,0,216216:0:0:0:0:
402,192,215716,128,0,215882:0:0:0:0:
475,192,215882,128,0,216049:0:0:0:0:
36,192,215882,1,0,0:0:0:0:
109,192,215882,1,0,0:0:0:0:
36,192,216049,128,0,216216:0:0:0:0:
182,192,216049,1,0,0:0:0:0:
475,192,216216,128,0,216549:0:0:0:0:
182,192,216216,1,0,0:0:0:0:
329,192,216299,1,0,0:0:0:0:
402,192,216299,1,0,0:0:0:0:
182,192,216382,1,0,0:0:0:0:
109,192,216382,1,0,0:0:0:0:
329,192,216466,1,0,0:0:0:0:
402,192,216466,1,0,0:0:0:0:
36,192,216549,128,0,216882:0:0:0:0:
109,192,216549,1,0,0:0:0:0:
182,192,216549,1,0,0:0:0:0:
402,192,216632,1,0,0:0:0:0:
329,192,216632,1,0,0:0:0:0:
182,192,216716,1,0,0:0:0:0:
109,192,216716,1,0,0:0:0:0:
329,192,216799,1,0,0:0:0:0:
109,192,216882,128,0,218216:0:0:0:0:
475,192,216882,128,0,217382:0:0:0:0:
182,192,216882,128,0,217049:0:0:0:0:
402,192,216882,1,0,0:0:0:0:
402,192,217049,128,0,217216:0:0:0:0:
256,192,217049,1,0,0:0:0:0:
329,192,217216,128,0,217382:0:0:0:0:
182,192,217216,1,0,0:0:0:0:
256,192,217382,128,0,217882:0:0:0:0:
182,192,217382,128,0,217549:0:0:0:0:
402,192,217382,1,0,0:0:0:0:
36,192,217382,1,0,0:0:0:0:
36,192,217549,128,0,217716:0:0:0:0:
475,192,217549,1,0,0:0:0:0:
329,192,217716,128,0,217882:0:0:0:0:
182,192,217716,1,0,0:0:0:0:
36,192,217882,128,0,218382:0:0:0:0:
402,192,217882,128,0,218049:0:0:0:0:
475,192,217882,1,0,0:0:0:0:
182,192,218049,128,0,218216:0:0:0:0:
256,192,218049,1,0,0:0:0:0:
475,192,218216,128,0,219549:0:0:0:0:
402,192,218216,128,0,218382:0:0:0:0:
329,192,218382,128,0,218882:0:0:0:0:
256,192,218382,128,0,218549:0:0:0:0:
109,192,218382,1,0,0:0:0:0:
182,192,218549,128,0,218716:0:0:0:0:
109,192,218549,1,0,0:0:0:0:
36,192,218716,128,0,218882:0:0:0:0:
256,192,218716,1,0,0:0:0:0:
109,192,218882,128,0,219216:0:0:0:0:
256,192,218882,128,0,219049:0:0:0:0:
402,192,218882,1,0,0:0:0:0:
329,192,219049,128,0,219216:0:0:0:0:
182,192,219049,1,0,0:0:0:0:
402,192,219216,128,0,219549:0:0:0:0:
182,192,219216,128,0,219382:0:0:0:0:
36,192,219216,1,0,0:0:0:0:
256,192,219382,128,0,219549:0:0:0:0:
109,192,219382,1,0,0:0:0:0:
36,192,219549,128,0,220882:0:0:0:0:
109,192,219549,128,0,220049:0:0:0:0:
329,192,219549,128,0,219716:0:0:0:0:
182,192,219549,1,0,0:0:0:0:
402,192,219716,128,0,219882:0:0:0:0:
475,192,219716,1,0,0:0:0:0:
182,192,219882,128,0,220049:0:0:0:0:
329,192,219882,1,0,0:0:0:0:
329,192,220049,128,0,220216:0:0:0:0:
402,192,220049,1,0,0:0:0:0:
256,192,220049,1,0,0:0:0:0:
475,192,220049,128,0,220549:0:0:0:0:
256,192,220216,128,0,220382:0:0:0:0:
182,192,220216,1,0,0:0:0:0:
109,192,220382,128,0,220549:0:0:0:0:
402,192,220382,1,0,0:0:0:0:
182,192,220549,128,0,221049:0:0:0:0:
402,192,220549,128,0,220716:0:0:0:0:
256,192,220549,1,0,0:0:0:0:
329,192,220549,1,0,0:0:0:0:
329,192,220716,128,0,220882:0:0:0:0:
109,192,220716,1,0,0:0:0:0:
475,192,220882,128,0,221049:0:0:0:0:
256,192,220882,128,0,222216:0:0:0:0:
402,192,220882,1,0,0:0:0:0:
329,192,221049,128,0,221549:0:0:0:0:
109,192,221049,128,0,221216:0:0:0:0:
36,192,221049,1,0,0:0:0:0:
402,192,221049,1,0,0:0:0:0:
182,192,221216,128,0,221382:0:0:0:0:
475,192,221216,1,0,0:0:0:0:
402,192,221382,128,0,221549:0:0:0:0:
109,192,221382,1,0,0:0:0:0:
36,192,221549,128,0,222216:0:0:0:0:
475,192,221549,128,0,222216:0:0:0:0:
182,192,221549,1,0,0:0:0:0:
109,192,221549,1,0,0:0:0:0:
402,192,221632,1,0,0:0:0:0:
329,192,221632,1,0,0:0:0:0:
182,192,221716,1,0,0:0:0:0:
109,192,221716,1,0,0:0:0:0:
402,192,221799,1,0,0:0:0:0:
329,192,221799,1,0,0:0:0:0:
182,192,221882,1,0,0:0:0:0:
109,192,221882,1,0,0:0:0:0:
402,192,221966,1,0,0:0:0:0:
329,192,221966,1,0,0:0:0:0:
182,192,222049,1,0,0:0:0:0:
109,192,222049,1,0,0:0:0:0:
402,192,222132,1,0,0:0:0:0:
329,192,222132,1,0,0:0:0:0:
182,192,222216,1,0,0:0:0:0:
402,192,222216,1,0,0:0:0:0:
329,192,222216,1,0,0:0:0:0:
109,192,222216,128,0,223216:0:0:0:0:
329,192,222716,1,0,0:0:0:0:
402,192,223216,128,0,224216:0:0:0:0:
36,192,223216,1,0,0:0:0:0:
109,192,224216,1,0,0:0:0:0:
256,192,224549,1,0,0:0:0:0:
36,192,224882,128,0,225882:0:0:0:0:
402,192,224882,1,0,0:0:0:0:
109,192,225382,1,0,0:0:0:0:
475,192,225882,128,0,226882:0:0:0:0:
402,192,225882,1,0,0:0:0:0:
256,192,226882,1,0,0:0:0:0:
109,192,227216,1,0,0:0:0:0:
329,192,227549,1,0,0:0:0:0:
402,192,227549,1,0,0:0:0:0:
109,192,228049,1,0,0:0:0:0:
402,192,228382,1,0,0:0:0:0:
329,192,228549,1,0,0:0:0:0:
256,192,228716,1,0,0:0:0:0:
402,192,229049,1,0,0:0:0:0:
109,192,229382,1,0,0:0:0:0:
182,192,229549,1,0,0:0:0:0:
256,192,229882,1,0,0:0:0:0:
475,192,230216,1,0,0:0:0:0:
182,192,230549,1,0,0:0:0:0:
36,192,230716,1,0,0:0:0:0:
475,192,231049,1,0,0:0:0:0:
329,192,231216,1,0,0:0:0:0:
329,192,231549,1,0,0:0:0:0:
475,192,231716,1,0,0:0:0:0:
36,192,232049,1,0,0:0:0:0:
182,192,232216,1,0,0:0:0:0:
36,192,232882,1,0,0:0:0:0:
256,192,232882,1,0,0:0:0:0:
475,192,232882,1,0,0:0:0:0:
36,192,233049,1,0,0:0:0:0:
36,192,233216,1,0,0:0:0:0:
256,192,233216,1,0,0:0:0:0:
36,192,233382,1,0,0:0:0:0:
36,192,233549,1,0,0:0:0:0:
256,192,233549,1,0,0:0:0:0:
36,192,233716,1,0,0:0:0:0:
36,192,233882,1,0,0:0:0:0:
256,192,233882,1,0,0:0:0:0:
36,192,234049,1,0,0:0:0:0:
36,192,234216,1,0,0:0:0:0:
256,192,234216,1,0,0:0:0:0:
36,192,234382,1,0,0:0:0:0:
36,192,234549,1,0,0:0:0:0:
256,192,234549,1,0,0:0:0:0:
36,192,234716,1,0,0:0:0:0:
36,192,234882,1,0,0:0:0:0:
256,192,234882,1,0,0:0:0:0:
256,192,235049,128,0,235216:0:0:0:0:
36,192,235216,1,0,0:0:0:0:
256,192,235382,128,0,235549:0:0:0:0:
475,192,235549,1,0,0:0:0:0:
36,192,235549,1,0,0:0:0:0:
475,192,235716,1,0,0:0:0:0:
475,192,235882,1,0,0:0:0:0:
256,192,235882,1,0,0:0:0:0:
475,192,236049,1,0,0:0:0:0:
475,192,236216,1,0,0:0:0:0:
256,192,236216,1,0,0:0:0:0:
475,192,236382,1,0,0:0:0:0:
475,192,236549,1,0,0:0:0:0:
256,192,236549,1,0,0:0:0:0:
475,192,236716,1,0,0:0:0:0:
475,192,236882,1,0,0:0:0:0:
256,192,236882,1,0,0:0:0:0:
475,192,237049,1,0,0:0:0:0:
475,192,237216,1,0,0:0:0:0:
256,192,237216,1,0,0:0:0:0:
475,192,237382,1,0,0:0:0:0:
475,192,237549,1,0,0:0:0:0:
256,192,237549,1,0,0:0:0:0:
475,192,237882,1,0,0:0:0:0:
256,192,237882,1,0,0:0:0:0:
256,192,238049,128,0,238216:0:0:0:0:
109,192,238216,1,0,0:0:0:0:
475,192,238216,1,0,0:0:0:0:
109,192,238382,1,0,0:0:0:0:
109,192,238549,1,0,0:0:0:0:
256,192,238549,1,0,0:0:0:0:
109,192,238716,1,0,0:0:0:0:
109,192,238882,1,0,0:0:0:0:
256,192,238882,1,0,0:0:0:0:
109,192,239049,1,0,0:0:0:0:
109,192,239216,1,0,0:0:0:0:
256,192,239216,1,0,0:0:0:0:
109,192,239382,1,0,0:0:0:0:
109,192,239549,1,0,0:0:0:0:
402,192,239549,1,0,0:0:0:0:
256,192,239549,1,0,0:0:0:0:
402,192,239716,1,0,0:0:0:0:
402,192,239882,1,0,0:0:0:0:
256,192,239882,1,0,0:0:0:0:
402,192,240049,1,0,0:0:0:0:
402,192,240216,1,0,0:0:0:0:
256,192,240216,1,0,0:0:0:0:
402,192,240382,1,0,0:0:0:0:
402,192,240549,1,0,0:0:0:0:
256,192,240549,1,0,0:0:0:0:
402,192,240716,1,0,0:0:0:0:
402,192,240882,1,0,0:0:0:0:
256,192,240882,1,0,0:0:0:0:
109,192,240882,1,0,0:0:0:0:
329,192,241049,1,0,0:0:0:0:
36,192,241049,1,0,0:0:0:0:
256,192,241216,1,0,0:0:0:0:
475,192,241216,1,0,0:0:0:0:
182,192,241216,1,0,0:0:0:0:
182,192,241382,1,0,0:0:0:0:
256,192,241382,1,0,0:0:0:0:
109,192,241382,1,0,0:0:0:0:
329,192,241466,1,0,0:0:0:0:
402,192,241466,1,0,0:0:0:0:
182,192,241549,1,0,0:0:0:0:
109,192,241549,1,0,0:0:0:0:
36,192,241549,1,0,0:0:0:0:
329,192,241632,1,0,0:0:0:0:
402,192,241632,1,0,0:0:0:0:
475,192,241632,1,0,0:0:0:0:
182,192,241716,1,0,0:0:0:0:
36,192,241716,1,0,0:0:0:0:
109,192,241716,1,0,0:0:0:0:
329,192,241799,1,0,0:0:0:0:
402,192,241799,1,0,0:0:0:0:
475,192,241799,1,0,0:0:0:0:
182,192,241882,1,0,0:0:0:0:
109,192,241882,1,0,0:0:0:0:
36,192,241882,1,0,0:0:0:0:
329,192,241966,1,0,0:0:0:0:
475,192,241966,1,0,0:0:0:0:
402,192,241966,1,0,0:0:0:0:
182,192,242049,1,0,0:0:0:0:
109,192,242049,1,0,0:0:0:0:
36,192,242049,1,0,0:0:0:0:
329,192,242132,1,0,0:0:0:0:
402,192,242132,1,0,0:0:0:0:
475,192,242132,1,0,0:0:0:0:
36,192,242216,128,0,244716:0:0:0:0:
109,192,242216,128,0,243549:0:0:0:0:
182,192,242216,128,0,242882:0:0:0:0:
36,192,244882,1,0,0:0:0:0:
109,192,244882,1,0,0:0:0:0:
182,192,244882,1,0,0:0:0:0:
329,192,244882,1,0,0:0:0:0:
475,192,244882,1,0,0:0:0:0:
402,192,244882,1,0,0:0:0:0:
256,192,245049,1,0,0:0:0:0:
182,192,245049,1,0,0:0:0:0:
109,192,245049,1,0,0:0:0:0:
109,192,245216,1,0,0:0:0:0:
182,192,245216,1,0,0:0:0:0:
256,192,245216,1,0,0:0:0:0:
36,192,245382,1,0,0:0:0:0:
109,192,245382,1,0,0:0:0:0:
182,192,245382,1,0,0:0:0:0:
256,192,245382,1,0,0:0:0:0:
329,192,245382,1,0,0:0:0:0:
475,192,245549,1,0,0:0:0:0:
329,192,245549,1,0,0:0:0:0:
36,192,245549,1,0,0:0:0:0:
36,192,245716,1,0,0:0:0:0:
329,192,245716,1,0,0:0:0:0:
475,192,245716,1,0,0:0:0:0:
109,192,245882,1,0,0:0:0:0:
182,192,245882,1,0,0:0:0:0:
256,192,245882,1,0,0:0:0:0:
329,192,245882,1,0,0:0:0:0:
402,192,245882,1,0,0:0:0:0:
256,192,246049,1,0,0:0:0:0:
109,192,246049,1,0,0:0:0:0:
475,192,246049,1,0,0:0:0:0:
475,192,246216,1,0,0:0:0:0:
109,192,246216,1,0,0:0:0:0:
256,192,246216,1,0,0:0:0:0:
182,192,246382,1,0,0:0:0:0:
256,192,246382,1,0,0:0:0:0:
329,192,246382,1,0,0:0:0:0:
402,192,246382,1,0,0:0:0:0:
475,192,246382,1,0,0:0:0:0:
36,192,246549,1,0,0:0:0:0:
329,192,246549,1,0,0:0:0:0:
109,192,246549,1,0,0:0:0:0:
36,192,246716,1,0,0:0:0:0:
329,192,246716,1,0,0:0:0:0:
109,192,246716,1,0,0:0:0:0:
36,192,246882,1,0,0:0:0:0:
182,192,246882,1,0,0:0:0:0:
256,192,246882,1,0,0:0:0:0:
329,192,246882,1,0,0:0:0:0:
402,192,246882,1,0,0:0:0:0:
109,192,247049,1,0,0:0:0:0:
256,192,247049,1,0,0:0:0:0:
475,192,247049,1,0,0:0:0:0:
109,192,247216,1,0,0:0:0:0:
475,192,247216,1,0,0:0:0:0:
329,192,247216,1,0,0:0:0:0:
182,192,247216,1,0,0:0:0:0:
256,192,247216,1,0,0:0:0:0:
402,192,247382,1,0,0:0:0:0:
36,192,247382,1,0,0:0:0:0:
109,192,247382,1,0,0:0:0:0:
329,192,247466,1,0,0:0:0:0:
182,192,247466,1,0,0:0:0:0:
36,192,247549,1,0,0:0:0:0:
109,192,247549,1,0,0:0:0:0:
402,192,247549,1,0,0:0:0:0:
475,192,247549,1,0,0:0:0:0:
256,192,247549,1,0,0:0:0:0:
475,192,247716,1,0,0:0:0:0:
182,192,247716,1,0,0:0:0:0:
329,192,247716,1,0,0:0:0:0:
182,192,247882,1,0,0:0:0:0:
329,192,247882,1,0,0:0:0:0:
475,192,247882,1,0,0:0:0:0:
36,192,248049,1,0,0:0:0:0:
109,192,248049,1,0,0:0:0:0:
256,192,248049,1,0,0:0:0:0:
329,192,248049,1,0,0:0:0:0:
402,192,248049,1,0,0:0:0:0:
182,192,248216,1,0,0:0:0:0:
36,192,248216,1,0,0:0:0:0:
109,192,248216,1,0,0:0:0:0:
182,192,248382,1,0,0:0:0:0:
36,192,248382,1,0,0:0:0:0:
109,192,248382,1,0,0:0:0:0:
109,192,248549,1,0,0:0:0:0:
36,192,248549,1,0,0:0:0:0:
182,192,248549,1,0,0:0:0:0:
329,192,248549,1,0,0:0:0:0:
402,192,248549,1,0,0:0:0:0:
256,192,248716,1,0,0:0:0:0:
402,192,248716,1,0,0:0:0:0:
475,192,248716,1,0,0:0:0:0:
256,192,248882,1,0,0:0:0:0:
402,192,248882,1,0,0:0:0:0:
475,192,248882,1,0,0:0:0:0:
36,192,249049,1,0,0:0:0:0:
109,192,249049,1,0,0:0:0:0:
182,192,249049,1,0,0:0:0:0:
256,192,249049,1,0,0:0:0:0:
402,192,249049,1,0,0:0:0:0:
329,192,249216,1,0,0:0:0:0:
182,192,249216,1,0,0:0:0:0:
256,192,249216,1,0,0:0:0:0:
182,192,249382,1,0,0:0:0:0:
256,192,249382,1,0,0:0:0:0:
329,192,249382,1,0,0:0:0:0:
475,192,249549,1,0,0:0:0:0:
329,192,249549,1,0,0:0:0:0:
256,192,249549,1,0,0:0:0:0:
182,192,249549,1,0,0:0:0:0:
109,192,249549,1,0,0:0:0:0:
36,192,249716,1,0,0:0:0:0:
256,192,249716,1,0,0:0:0:0:
402,192,249716,1,0,0:0:0:0:
475,192,249882,1,0,0:0:0:0:
402,192,249882,1,0,0:0:0:0:
256,192,249882,1,0,0:0:0:0:
182,192,249882,1,0,0:0:0:0:
109,192,249882,1,0,0:0:0:0:
475,192,250049,1,0,0:0:0:0:
329,192,250049,1,0,0:0:0:0:
109,192,250049,1,0,0:0:0:0:
256,192,250132,1,0,0:0:0:0:
182,192,250132,1,0,0:0:0:0:
402,192,250216,1,0,0:0:0:0:
329,192,250216,1,0,0:0:0:0:
475,192,250216,1,0,0:0:0:0:
36,192,250216,1,0,0:0:0:0:
109,192,250216,1,0,0:0:0:0:
36,192,250382,1,0,0:0:0:0:
402,192,250382,1,0,0:0:0:0:
182,192,250382,1,0,0:0:0:0:
36,192,250549,1,0,0:0:0:0:
402,192,250549,1,0,0:0:0:0:
182,192,250549,1,0,0:0:0:0:
36,192,250716,1,0,0:0:0:0:
109,192,250716,1,0,0:0:0:0:
329,192,250716,1,0,0:0:0:0:
256,192,250716,1,0,0:0:0:0:
475,192,250716,1,0,0:0:0:0:
402,192,250882,1,0,0:0:0:0:
109,192,250882,1,0,0:0:0:0:
182,192,250882,1,0,0:0:0:0:
109,192,251049,1,0,0:0:0:0:
182,192,251049,1,0,0:0:0:0:
402,192,251049,1,0,0:0:0:0:
329,192,251216,1,0,0:0:0:0:
402,192,251216,1,0,0:0:0:0:
109,192,251216,1,0,0:0:0:0:
475,192,251216,1,0,0:0:0:0:
36,192,251216,1,0,0:0:0:0:
256,192,251382,1,0,0:0:0:0:
402,192,251382,1,0,0:0:0:0:
109,192,251382,1,0,0:0:0:0:
256,192,251549,1,0,0:0:0:0:
402,192,251549,1,0,0:0:0:0:
109,192,251549,1,0,0:0:0:0:
36,192,251716,1,0,0:0:0:0:
329,192,251716,1,0,0:0:0:0:
256,192,251716,1,0,0:0:0:0:
475,192,251716,1,0,0:0:0:0:
109,192,251716,1,0,0:0:0:0:
36,192,251882,1,0,0:0:0:0:
182,192,251882,1,0,0:0:0:0:
402,192,251882,1,0,0:0:0:0:
36,192,252049,1,0,0:0:0:0:
182,192,252049,1,0,0:0:0:0:
402,192,252049,1,0,0:0:0:0:
36,192,252216,1,0,0:0:0:0:
402,192,252216,1,0,0:0:0:0:
256,192,252216,1,0,0:0:0:0:
329,192,252216,1,0,0:0:0:0:
475,192,252216,1,0,0:0:0:0:
109,192,252382,1,0,0:0:0:0:
329,192,252382,1,0,0:0:0:0:
402,192,252382,1,0,0:0:0:0:
182,192,252549,1,0,0:0:0:0:
329,192,252549,1,0,0:0:0:0:
475,192,252549,1,0,0:0:0:0:
36,192,252549,1,0,0:0:0:0:
256,192,252549,1,0,0:0:0:0:
402,192,252716,1,0,0:0:0:0:
182,192,252716,1,0,0:0:0:0:
36,192,252716,1,0,0:0:0:0:
256,192,252799,1,0,0:0:0:0:
329,192,252799,1,0,0:0:0:0:
109,192,252882,1,0,0:0:0:0:
182,192,252882,1,0,0:0:0:0:
475,192,252882,1,0,0:0:0:0:
36,192,252882,1,0,0:0:0:0:
402,192,252882,1,0,0:0:0:0:
329,192,253049,1,0,0:0:0:0:
109,192,253049,1,0,0:0:0:0:
256,192,253049,1,0,0:0:0:0:
329,192,253216,1,0,0:0:0:0:
109,192,253216,1,0,0:0:0:0:
256,192,253216,1,0,0:0:0:0:
109,192,253382,1,0,0:0:0:0:
475,192,253382,1,0,0:0:0:0:
402,192,253382,1,0,0:0:0:0:
36,192,253382,1,0,0:0:0:0:
182,192,253382,1,0,0:0:0:0:
256,192,253549,1,0,0:0:0:0:
475,192,253549,1,0,0:0:0:0:
329,192,253549,1,0,0:0:0:0:
256,192,253716,1,0,0:0:0:0:
329,192,253716,1,0,0:0:0:0:
475,192,253716,1,0,0:0:0:0:
36,192,253882,1,0,0:0:0:0:
475,192,253882,1,0,0:0:0:0:
329,192,253882,1,0,0:0:0:0:
109,192,253882,1,0,0:0:0:0:
402,192,253882,1,0,0:0:0:0:
182,192,254049,1,0,0:0:0:0:
329,192,254049,1,0,0:0:0:0:
402,192,254049,1,0,0:0:0:0:
182,192,254216,1,0,0:0:0:0:
109,192,254216,1,0,0:0:0:0:
36,192,254216,1,0,0:0:0:0:
475,192,254299,1,0,0:0:0:0:
402,192,254299,1,0,0:0:0:0:
329,192,254299,1,0,0:0:0:0:
182,192,254382,1,0,0:0:0:0:
109,192,254382,1,0,0:0:0:0:
36,192,254382,1,0,0:0:0:0:
329,192,254466,1,0,0:0:0:0:
402,192,254466,1,0,0:0:0:0:
475,192,254466,1,0,0:0:0:0:
182,192,254549,1,0,0:0:0:0:
109,192,254549,1,0,0:0:0:0:
36,192,254549,1,0,0:0:0:0:
256,192,254632,1,0,0:0:0:0:
329,192,254716,1,0,0:0:0:0:
402,192,254716,1,0,0:0:0:0:
475,192,254716,1,0,0:0:0:0:
182,192,254799,1,0,0:0:0:0:
109,192,254799,1,0,0:0:0:0:
36,192,254799,1,0,0:0:0:0:
329,192,254882,1,0,0:0:0:0:
402,192,254882,1,0,0:0:0:0:
475,192,254882,1,0,0:0:0:0:
182,192,254966,1,0,0:0:0:0:
109,192,254966,1,0,0:0:0:0:
36,192,254966,1,0,0:0:0:0:
402,192,255049,1,0,0:0:0:0:
475,192,255049,1,0,0:0:0:0:
329,192,255049,1,0,0:0:0:0:
256,192,255132,1,0,0:0:0:0:
182,192,255216,1,0,0:0:0:0:
109,192,255216,1,0,0:0:0:0:
36,192,255216,1,0,0:0:0:0:
475,192,255299,1,0,0:0:0:0:
402,192,255299,1,0,0:0:0:0:
329,192,255299,1,0,0:0:0:0:
182,192,255382,1,0,0:0:0:0:
109,192,255382,1,0,0:0:0:0:
36,192,255382,1,0,0:0:0:0:
329,192,255466,1,0,0:0:0:0:
402,192,255466,1,0,0:0:0:0:
475,192,255466,1,0,0:0:0:0:
256,192,255549,1,0,0:0:0:0:
182,192,255549,1,0,0:0:0:0:
109,192,255549,1,0,0:0:0:0:
36,192,255549,1,0,0:0:0:0:
329,192,255632,1,0,0:0:0:0:
475,192,255632,1,0,0:0:0:0:
402,192,255716,1,0,0:0:0:0:
109,192,255716,1,0,0:0:0:0:
182,192,255716,1,0,0:0:0:0:
256,192,255799,1,0,0:0:0:0:
329,192,255799,1,0,0:0:0:0:
109,192,255882,1,0,0:0:0:0:
36,192,255882,1,0,0:0:0:0:
475,192,255882,1,0,0:0:0:0:
182,192,255882,1,0,0:0:0:0:
402,192,255966,1,0,0:0:0:0:
329,192,255966,1,0,0:0:0:0:
182,192,256049,1,0,0:0:0:0:
36,192,256049,1,0,0:0:0:0:
256,192,256049,1,0,0:0:0:0:
475,192,256132,1,0,0:0:0:0:
329,192,256132,1,0,0:0:0:0:
109,192,256216,1,0,0:0:0:0:
36,192,256216,1,0,0:0:0:0:
402,192,256216,1,0,0:0:0:0:
256,192,256216,1,0,0:0:0:0:
182,192,256299,1,0,0:0:0:0:
329,192,256299,1,0,0:0:0:0:
36,192,256382,1,0,0:0:0:0:
475,192,256382,1,0,0:0:0:0:
256,192,256382,1,0,0:0:0:0:
329,192,256466,1,0,0:0:0:0:
109,192,256466,1,0,0:0:0:0:
182,192,256549,1,0,0:0:0:0:
402,192,256549,1,0,0:0:0:0:
256,192,256549,1,0,0:0:0:0:
36,192,256549,1,0,0:0:0:0:
475,192,256632,1,0,0:0:0:0:
109,192,256632,1,0,0:0:0:0:
182,192,256716,1,0,0:0:0:0:
36,192,256716,1,0,0:0:0:0:
402,192,256716,1,0,0:0:0:0:
256,192,256799,1,0,0:0:0:0:
329,192,256799,1,0,0:0:0:0:
182,192,256882,1,0,0:0:0:0:
36,192,256882,1,0,0:0:0:0:
475,192,256882,1,0,0:0:0:0:
402,192,256882,1,0,0:0:0:0:
109,192,256966,1,0,0:0:0:0:
329,192,256966,1,0,0:0:0:0:
256,192,257049,1,0,0:0:0:0:
402,192,257049,1,0,0:0:0:0:
182,192,257049,1,0,0:0:0:0:
36,192,257132,1,0,0:0:0:0:
329,192,257132,1,0,0:0:0:0:
109,192,257216,1,0,0:0:0:0:
475,192,257216,1,0,0:0:0:0:
256,192,257216,1,0,0:0:0:0:
402,192,257216,1,0,0:0:0:0:
182,192,257299,1,0,0:0:0:0:
329,192,257299,1,0,0:0:0:0:
36,192,257382,1,0,0:0:0:0:
256,192,257382,1,0,0:0:0:0:
475,192,257382,1,0,0:0:0:0:
109,192,257466,1,0,0:0:0:0:
329,192,257466,1,0,0:0:0:0:
182,192,257549,1,0,0:0:0:0:
475,192,257549,1,0,0:0:0:0:
402,192,257549,1,0,0:0:0:0:
256,192,257549,1,0,0:0:0:0:
36,192,257632,1,0,0:0:0:0:
109,192,257632,1,0,0:0:0:0:
329,192,257716,1,0,0:0:0:0:
182,192,257716,1,0,0:0:0:0:
256,192,257716,1,0,0:0:0:0:
475,192,257799,1,0,0:0:0:0:
402,192,257799,1,0,0:0:0:0:
329,192,257882,1,0,0:0:0:0:
109,192,257882,1,0,0:0:0:0:
36,192,257882,1,0,0:0:0:0:
256,192,257882,1,0,0:0:0:0:
402,192,257966,1,0,0:0:0:0:
475,192,257966,1,0,0:0:0:0:
182,192,258049,1,0,0:0:0:0:
109,192,258049,1,0,0:0:0:0:
36,192,258049,1,0,0:0:0:0:
475,192,258132,1,0,0:0:0:0:
402,192,258132,1,0,0:0:0:0:
329,192,258132,1,0,0:0:0:0:
182,192,258216,1,0,0:0:0:0:
109,192,258216,1,0,0:0:0:0:
36,192,258216,1,0,0:0:0:0:
256,192,258299,1,0,0:0:0:0:
402,192,258299,1,0,0:0:0:0:
475,192,258382,1,0,0:0:0:0:
109,192,258382,1,0,0:0:0:0:
182,192,258382,1,0,0:0:0:0:
329,192,258466,1,0,0:0:0:0:
256,192,258466,1,0,0:0:0:0:
36,192,258549,1,0,0:0:0:0:
109,192,258549,1,0,0:0:0:0:
402,192,258549,1,0,0:0:0:0:
475,192,258549,1,0,0:0:0:0:
182,192,258632,1,0,0:0:0:0:
329,192,258632,1,0,0:0:0:0:
256,192,258716,1,0,0:0:0:0:
475,192,258716,1,0,0:0:0:0:
36,192,258716,1,0,0:0:0:0:
109,192,258799,1,0,0:0:0:0:
329,192,258799,1,0,0:0:0:0:
182,192,258882,1,0,0:0:0:0:
256,192,258882,1,0,0:0:0:0:
402,192,258882,1,0,0:0:0:0:
475,192,258882,1,0,0:0:0:0:
109,192,258966,1,0,0:0:0:0:
36,192,258966,1,0,0:0:0:0:
329,192,259049,1,0,0:0:0:0:
182,192,259049,1,0,0:0:0:0:
475,192,259049,1,0,0:0:0:0:
256,192,259132,1,0,0:0:0:0:
109,192,259132,1,0,0:0:0:0:
402,192,259216,1,0,0:0:0:0:
475,192,259216,1,0,0:0:0:0:
36,192,259216,1,0,0:0:0:0:
182,192,259216,1,0,0:0:0:0:
329,192,259299,1,0,0:0:0:0:
109,192,259299,1,0,0:0:0:0:
256,192,259382,1,0,0:0:0:0:
475,192,259382,1,0,0:0:0:0:
36,192,259382,1,0,0:0:0:0:
329,192,259466,1,0,0:0:0:0:
402,192,259466,1,0,0:0:0:0:
182,192,259549,1,0,0:0:0:0:
109,192,259549,1,0,0:0:0:0:
36,192,259549,1,0,0:0:0:0:
256,192,259549,1,0,0:0:0:0:
475,192,259632,1,0,0:0:0:0:
329,192,259632,1,0,0:0:0:0:
256,192,259716,1,0,0:0:0:0:
36,192,259716,1,0,0:0:0:0:
182,192,259716,1,0,0:0:0:0:
402,192,259799,1,0,0:0:0:0:
109,192,259799,1,0,0:0:0:0:
182,192,259882,1,0,0:0:0:0:
475,192,259882,1,0,0:0:0:0:
256,192,259882,1,0,0:0:0:0:
329,192,259882,1,0,0:0:0:0:
109,192,259966,1,0,0:0:0:0:
36,192,259966,1,0,0:0:0:0:
182,192,260049,1,0,0:0:0:0:
402,192,260049,1,0,0:0:0:0:
329,192,260049,1,0,0:0:0:0:
256,192,260132,1,0,0:0:0:0:
475,192,260132,1,0,0:0:0:0:
36,192,260216,1,0,0:0:0:0:
109,192,260216,1,0,0:0:0:0:
329,192,260216,1,0,0:0:0:0:
402,192,260216,1,0,0:0:0:0:
256,192,260299,1,0,0:0:0:0:
182,192,260299,1,0,0:0:0:0:
475,192,260382,1,0,0:0:0:0:
402,192,260382,1,0,0:0:0:0:
36,192,260382,1,0,0:0:0:0:
109,192,260382,1,0,0:0:0:0:
329,192,260466,1,0,0:0:0:0:
256,192,260466,1,0,0:0:0:0:
182,192,260549,1,0,0:0:0:0:
36,192,260549,1,0,0:0:0:0:
109,192,260549,1,0,0:0:0:0:
402,192,260632,1,0,0:0:0:0:
329,192,260632,1,0,0:0:0:0:
475,192,260716,1,0,0:0:0:0:
256,192,260716,1,0,0:0:0:0:
182,192,260716,1,0,0:0:0:0:
36,192,260716,1,0,0:0:0:0:
109,192,260799,1,0,0:0:0:0:
329,192,260799,1,0,0:0:0:0:
402,192,260882,1,0,0:0:0:0:
475,192,260882,1,0,0:0:0:0:
36,192,260882,1,0,0:0:0:0:
182,192,260882,1,0,0:0:0:0:
256,192,260966,1,0,0:0:0:0:
329,192,260966,1,0,0:0:0:0:
402,192,261049,1,0,0:0:0:0:
109,192,261049,1,0,0:0:0:0:
475,192,261049,1,0,0:0:0:0:
256,192,261132,1,0,0:0:0:0:
182,192,261132,1,0,0:0:0:0:
109,192,261216,1,0,0:0:0:0:
36,192,261216,1,0,0:0:0:0:
329,192,261216,1,0,0:0:0:0:
475,192,261216,1,0,0:0:0:0:
402,192,261299,1,0,0:0:0:0:
256,192,261299,1,0,0:0:0:0:
182,192,261382,1,0,0:0:0:0:
109,192,261382,1,0,0:0:0:0:
475,192,261382,1,0,0:0:0:0:
329,192,261466,1,0,0:0:0:0:
402,192,261466,1,0,0:0:0:0:
36,192,261549,128,0,262049:0:0:0:0:
475,192,261549,1,0,0:0:0:0:
256,192,261549,1,0,0:0:0:0:
182,192,261549,1,0,0:0:0:0:
329,192,261632,1,0,0:0:0:0:
109,192,261716,128,0,262049:0:0:0:0:
256,192,261716,1,0,0:0:0:0:
402,192,261799,1,0,0:0:0:0:
182,192,261882,128,0,262049:0:0:0:0:
256,192,261882,1,0,0:0:0:0:
329,192,261882,1,0,0:0:0:0:
475,192,261882,1,0,0:0:0:0:
402,192,261966,1,0,0:0:0:0:
329,192,262049,128,0,262549:0:0:0:0:
256,192,262049,1,0,0:0:0:0:
182,192,262132,1,0,0:0:0:0:
109,192,262132,1,0,0:0:0:0:
402,192,262216,1,0,0:0:0:0:
256,192,262216,1,0,0:0:0:0:
36,192,262216,1,0,0:0:0:0:
109,192,262299,1,0,0:0:0:0:
475,192,262382,128,0,262549:0:0:0:0:
182,192,262382,1,0,0:0:0:0:
36,192,262466,1,0,0:0:0:0:
256,192,262549,1,0,0:0:0:0:
182,192,262549,1,0,0:0:0:0:
402,192,262549,1,0,0:0:0:0:
109,192,262632,1,0,0:0:0:0:
475,192,262632,1,0,0:0:0:0:
36,192,262716,128,0,263382:0:0:0:0:
256,192,262716,1,0,0:0:0:0:
402,192,262799,1,0,0:0:0:0:
329,192,262799,1,0,0:0:0:0:
109,192,262882,1,0,0:0:0:0:
182,192,262882,1,0,0:0:0:0:
256,192,262882,1,0,0:0:0:0:
402,192,262966,1,0,0:0:0:0:
475,192,262966,1,0,0:0:0:0:
182,192,263049,128,0,263382:0:0:0:0:
256,192,263049,1,0,0:0:0:0:
329,192,263132,1,0,0:0:0:0:
475,192,263216,1,0,0:0:0:0:
402,192,263216,1,0,0:0:0:0:
109,192,263216,1,0,0:0:0:0:
256,192,263299,1,0,0:0:0:0:
402,192,263382,1,0,0:0:0:0:
329,192,263382,1,0,0:0:0:0:
109,192,263466,1,0,0:0:0:0:
182,192,263466,1,0,0:0:0:0:
475,192,263549,128,0,263882:0:0:0:0:
402,192,263549,1,0,0:0:0:0:
36,192,263549,1,0,0:0:0:0:
329,192,263549,1,0,0:0:0:0:
256,192,263549,1,0,0:0:0:0:
109,192,263632,1,0,0:0:0:0:
182,192,263632,1,0,0:0:0:0:
329,192,263716,1,0,0:0:0:0:
402,192,263716,1,0,0:0:0:0:
256,192,263799,1,0,0:0:0:0:
329,192,263882,1,0,0:0:0:0:
109,192,263882,1,0,0:0:0:0:
36,192,263882,1,0,0:0:0:0:
256,192,263966,1,0,0:0:0:0:
182,192,263966,1,0,0:0:0:0:
329,192,264049,1,0,0:0:0:0:
475,192,264049,1,0,0:0:0:0:
36,192,264049,1,0,0:0:0:0:
109,192,264132,1,0,0:0:0:0:
402,192,264132,1,0,0:0:0:0:
256,192,264216,128,0,265216:0:0:0:0:
475,192,264216,1,0,0:0:0:0:
36,192,264216,1,0,0:0:0:0:
329,192,264299,1,0,0:0:0:0:
36,192,264382,1,0,0:0:0:0:
182,192,264382,1,0,0:0:0:0:
402,192,264382,1,0,0:0:0:0:
329,192,264466,1,0,0:0:0:0:
182,192,264549,1,0,0:0:0:0:
36,192,264549,1,0,0:0:0:0:
109,192,264549,1,0,0:0:0:0:
475,192,264549,1,0,0:0:0:0:
402,192,264632,1,0,0:0:0:0:
182,192,264716,1,0,0:0:0:0:
36,192,264716,1,0,0:0:0:0:
475,192,264716,1,0,0:0:0:0:
109,192,264799,1,0,0:0:0:0:
36,192,264882,128,0,265216:0:0:0:0:
475,192,264882,128,0,265216:0:0:0:0:
402,192,264882,1,0,0:0:0:0:
329,192,264882,1,0,0:0:0:0:
182,192,264966,1,0,0:0:0:0:
109,192,264966,1,0,0:0:0:0:
329,192,265049,1,0,0:0:0:0:
402,192,265049,1,0,0:0:0:0:
182,192,265132,1,0,0:0:0:0:
109,192,265132,1,0,0:0:0:0:
402,192,265216,1,0,0:0:0:0:
329,192,265216,1,0,0:0:0:0:
182,192,265299,1,0,0:0:0:0:
36,192,265299,1,0,0:0:0:0:
109,192,265299,1,0,0:0:0:0:
475,192,265382,1,0,0:0:0:0:
329,192,265382,1,0,0:0:0:0:
402,192,265382,1,0,0:0:0:0:
182,192,265466,1,0,0:0:0:0:
109,192,265466,1,0,0:0:0:0:
36,192,265466,1,0,0:0:0:0:
329,192,265549,1,0,0:0:0:0:
402,192,265549,1,0,0:0:0:0:
475,192,265549,1,0,0:0:0:0:
182,192,265632,1,0,0:0:0:0:
109,192,265632,1,0,0:0:0:0:
36,192,265632,1,0,0:0:0:0:
329,192,265716,1,0,0:0:0:0:
475,192,265716,1,0,0:0:0:0:
402,192,265716,1,0,0:0:0:0:
182,192,265799,1,0,0:0:0:0:
109,192,265799,1,0,0:0:0:0:
36,192,265799,1,0,0:0:0:0:
329,192,265882,1,0,0:0:0:0:
402,192,265882,1,0,0:0:0:0:
475,192,265882,1,0,0:0:0:0:
182,192,265966,1,0,0:0:0:0:
109,192,265966,1,0,0:0:0:0:
36,192,265966,1,0,0:0:0:0:
329,192,266049,1,0,0:0:0:0:
402,192,266049,1,0,0:0:0:0:
475,192,266049,1,0,0:0:0:0:
182,192,266132,1,0,0:0:0:0:
109,192,266132,1,0,0:0:0:0:
36,192,266132,1,0,0:0:0:0:
256,192,266216,1,0,0:0:0:0:
329,192,266216,1,0,0:0:0:0:
402,192,266216,1,0,0:0:0:0:
475,192,266216,1,0,0:0:0:0:
36,192,266299,1,0,0:0:0:0:
109,192,266299,1,0,0:0:0:0:
182,192,266382,1,0,0:0:0:0:
256,192,266382,1,0,0:0:0:0:
329,192,266382,1,0,0:0:0:0:
402,192,266466,1,0,0:0:0:0:
475,192,266466,1,0,0:0:0:0:
36,192,266549,1,0,0:0:0:0:
109,192,266549,1,0,0:0:0:0:
182,192,266549,1,0,0:0:0:0:
256,192,266632,1,0,0:0:0:0:
329,192,266632,1,0,0:0:0:0:
36,192,266716,1,0,0:0:0:0:
109,192,266716,1,0,0:0:0:0:
182,192,266716,1,0,0:0:0:0:
329,192,266716,1,0,0:0:0:0:
402,192,266716,1,0,0:0:0:0:
475,192,266716,1,0,0:0:0:0:
256,192,266799,1,0,0:0:0:0:
182,192,266799,1,0,0:0:0:0:
109,192,266882,1,0,0:0:0:0:
36,192,266882,1,0,0:0:0:0:
475,192,266882,1,0,0:0:0:0:
402,192,266966,1,0,0:0:0:0:
329,192,266966,1,0,0:0:0:0:
256,192,267049,1,0,0:0:0:0:
182,192,267049,1,0,0:0:0:0:
109,192,267049,1,0,0:0:0:0:
36,192,267132,1,0,0:0:0:0:
475,192,267132,1,0,0:0:0:0:
109,192,267216,1,0,0:0:0:0:
182,192,267216,1,0,0:0:0:0:
256,192,267216,1,0,0:0:0:0:
329,192,267216,1,0,0:0:0:0:
402,192,267216,1,0,0:0:0:0:
475,192,267216,1,0,0:0:0:0:
36,192,267299,1,0,0:0:0:0:
329,192,267299,1,0,0:0:0:0:
109,192,267382,1,0,0:0:0:0:
182,192,267382,1,0,0:0:0:0:
256,192,267382,1,0,0:0:0:0:
402,192,267466,1,0,0:0:0:0:
475,192,267466,1,0,0:0:0:0:
329,192,267549,1,0,0:0:0:0:
256,192,267549,1,0,0:0:0:0:
36,192,267549,1,0,0:0:0:0:
109,192,267632,1,0,0:0:0:0:
182,192,267632,1,0,0:0:0:0:
36,192,267716,1,0,0:0:0:0:
182,192,267716,1,0,0:0:0:0:
256,192,267716,1,0,0:0:0:0:
329,192,267716,1,0,0:0:0:0:
402,192,267716,1,0,0:0:0:0:
475,192,267716,1,0,0:0:0:0:
109,192,267799,1,0,0:0:0:0:
36,192,267799,1,0,0:0:0:0:
329,192,267882,1,0,0:0:0:0:
402,192,267882,1,0,0:0:0:0:
475,192,267882,1,0,0:0:0:0:
256,192,267966,1,0,0:0:0:0:
182,192,267966,1,0,0:0:0:0:
109,192,268049,1,0,0:0:0:0:
36,192,268049,1,0,0:0:0:0:
329,192,268049,1,0,0:0:0:0:
182,192,268132,1,0,0:0:0:0:
402,192,268132,1,0,0:0:0:0:
36,192,268216,1,0,0:0:0:0:
109,192,268216,1,0,0:0:0:0:
402,192,268216,1,0,0:0:0:0:
329,192,268216,1,0,0:0:0:0:
475,192,268216,1,0,0:0:0:0:
256,192,268216,1,0,0:0:0:0:
182,192,268299,1,0,0:0:0:0:
256,192,268299,1,0,0:0:0:0:
402,192,268382,1,0,0:0:0:0:
475,192,268382,1,0,0:0:0:0:
109,192,268382,1,0,0:0:0:0:
256,192,268466,1,0,0:0:0:0:
329,192,268466,1,0,0:0:0:0:
182,192,268549,1,0,0:0:0:0:
109,192,268549,1,0,0:0:0:0:
36,192,268549,1,0,0:0:0:0:
402,192,268549,1,0,0:0:0:0:
475,192,268549,1,0,0:0:0:0:
256,192,268549,1,0,0:0:0:0:
329,192,268632,1,0,0:0:0:0:
402,192,268632,1,0,0:0:0:0:
182,192,268716,1,0,0:0:0:0:
36,192,268716,1,0,0:0:0:0:
109,192,268716,1,0,0:0:0:0:
402,192,268799,1,0,0:0:0:0:
475,192,268799,1,0,0:0:0:0:
329,192,268799,1,0,0:0:0:0:
36,192,268882,1,0,0:0:0:0:
109,192,268882,1,0,0:0:0:0:
182,192,268882,1,0,0:0:0:0:
256,192,268882,1,0,0:0:0:0:
475,192,268882,1,0,0:0:0:0:
402,192,268882,1,0,0:0:0:0:
182,192,268966,1,0,0:0:0:0:
329,192,268966,1,0,0:0:0:0:
256,192,269049,1,0,0:0:0:0:
36,192,269049,1,0,0:0:0:0:
475,192,269049,1,0,0:0:0:0:
109,192,269132,1,0,0:0:0:0:
182,192,269132,1,0,0:0:0:0:
402,192,269216,1,0,0:0:0:0:
329,192,269216,1,0,0:0:0:0:
256,192,269216,1,0,0:0:0:0:
475,192,269299,1,0,0:0:0:0:
109,192,269299,1,0,0:0:0:0:
402,192,269382,1,0,0:0:0:0:
329,192,269382,1,0,0:0:0:0:
256,192,269382,1,0,0:0:0:0:
182,192,269382,1,0,0:0:0:0:
109,192,269382,1,0,0:0:0:0:
36,192,269382,1,0,0:0:0:0:
475,192,269466,1,0,0:0:0:0:
402,192,269466,1,0,0:0:0:0:
329,192,269549,1,0,0:0:0:0:
36,192,269549,1,0,0:0:0:0:
109,192,269549,1,0,0:0:0:0:
256,192,269632,1,0,0:0:0:0:
182,192,269632,1,0,0:0:0:0:
402,192,269716,1,0,0:0:0:0:
475,192,269716,1,0,0:0:0:0:
36,192,269716,1,0,0:0:0:0:
256,192,269799,1,0,0:0:0:0:
182,192,269799,1,0,0:0:0:0:
36,192,269882,1,0,0:0:0:0:
109,192,269882,1,0,0:0:0:0:
182,192,269882,1,0,0:0:0:0:
329,192,269882,1,0,0:0:0:0:
402,192,269882,1,0,0:0:0:0:
475,192,269882,1,0,0:0:0:0:
256,192,269966,1,0,0:0:0:0:
402,192,269966,1,0,0:0:0:0:
329,192,270049,1,0,0:0:0:0:
109,192,270049,1,0,0:0:0:0:
36,192,270049,1,0,0:0:0:0:
182,192,270132,1,0,0:0:0:0:
475,192,270132,1,0,0:0:0:0:
402,192,270216,1,0,0:0:0:0:
329,192,270216,1,0,0:0:0:0:
256,192,270216,1,0,0:0:0:0:
36,192,270299,1,0,0:0:0:0:
182,192,270299,1,0,0:0:0:0:
475,192,270382,1,0,0:0:0:0:
402,192,270382,1,0,0:0:0:0:
329,192,270382,1,0,0:0:0:0:
256,192,270382,1,0,0:0:0:0:
109,192,270382,1,0,0:0:0:0:
182,192,270382,1,0,0:0:0:0:
36,192,270466,1,0,0:0:0:0:
109,192,270466,1,0,0:0:0:0:
256,192,270549,1,0,0:0:0:0:
329,192,270549,1,0,0:0:0:0:
402,192,270549,1,0,0:0:0:0:
475,192,270632,1,0,0:0:0:0:
182,192,270632,1,0,0:0:0:0:
36,192,270716,1,0,0:0:0:0:
402,192,270716,1,0,0:0:0:0:
109,192,270716,1,0,0:0:0:0:
329,192,270799,1,0,0:0:0:0:
256,192,270799,1,0,0:0:0:0:
182,192,270882,1,0,0:0:0:0:
109,192,270882,1,0,0:0:0:0:
36,192,270882,1,0,0:0:0:0:
329,192,270966,1,0,0:0:0:0:
402,192,270966,1,0,0:0:0:0:
475,192,270966,1,0,0:0:0:0:
182,192,271049,1,0,0:0:0:0:
109,192,271049,1,0,0:0:0:0:
36,192,271049,1,0,0:0:0:0:
329,192,271132,1,0,0:0:0:0:
402,192,271132,1,0,0:0:0:0:
475,192,271132,1,0,0:0:0:0:
182,192,271216,1,0,0:0:0:0:
109,192,271216,1,0,0:0:0:0:
36,192,271216,1,0,0:0:0:0:
402,192,271299,1,0,0:0:0:0:
475,192,271299,1,0,0:0:0:0:
329,192,271299,1,0,0:0:0:0:
109,192,271382,1,0,0:0:0:0:
36,192,271382,1,0,0:0:0:0:
182,192,271382,1,0,0:0:0:0:
329,192,271466,1,0,0:0:0:0:
402,192,271466,1,0,0:0:0:0:
475,192,271466,1,0,0:0:0:0:
182,192,271549,1,0,0:0:0:0:
109,192,271549,1,0,0:0:0:0:
36,192,271549,1,0,0:0:0:0:
256,192,271549,1,0,0:0:0:0:
475,192,271632,1,0,0:0:0:0:
402,192,271632,1,0,0:0:0:0:
329,192,271716,1,0,0:0:0:0:
256,192,271716,1,0,0:0:0:0:
182,192,271716,1,0,0:0:0:0:
109,192,271799,1,0,0:0:0:0:
36,192,271799,1,0,0:0:0:0:
256,192,271882,1,0,0:0:0:0:
182,192,271882,1,0,0:0:0:0:
475,192,271882,1,0,0:0:0:0:
402,192,271966,1,0,0:0:0:0:
329,192,271966,1,0,0:0:0:0:
475,192,272049,1,0,0:0:0:0:
256,192,272049,1,0,0:0:0:0:
329,192,272049,1,0,0:0:0:0:
109,192,272049,1,0,0:0:0:0:
182,192,272049,1,0,0:0:0:0:
36,192,272049,1,0,0:0:0:0:
402,192,272132,1,0,0:0:0:0:
109,192,272132,1,0,0:0:0:0:
36,192,272216,1,0,0:0:0:0:
182,192,272216,1,0,0:0:0:0:
256,192,272216,1,0,0:0:0:0:
329,192,272299,1,0,0:0:0:0:
475,192,272299,1,0,0:0:0:0:
402,192,272382,1,0,0:0:0:0:
109,192,272382,1,0,0:0:0:0:
182,192,272382,1,0,0:0:0:0:
256,192,272466,1,0,0:0:0:0:
329,192,272466,1,0,0:0:0:0:
475,192,272549,1,0,0:0:0:0:
402,192,272549,1,0,0:0:0:0:
256,192,272549,1,0,0:0:0:0:
182,192,272549,1,0,0:0:0:0:
109,192,272549,1,0,0:0:0:0:
36,192,272549,1,0,0:0:0:0:
329,192,272632,1,0,0:0:0:0:
475,192,272632,1,0,0:0:0:0:
402,192,272716,1,0,0:0:0:0:
182,192,272716,1,0,0:0:0:0:
36,192,272716,1,0,0:0:0:0:
109,192,272799,1,0,0:0:0:0:
256,192,272799,1,0,0:0:0:0:
329,192,272882,1,0,0:0:0:0:
402,192,272882,1,0,0:0:0:0:
475,192,272882,1,0,0:0:0:0:
182,192,272966,1,0,0:0:0:0:
36,192,272966,1,0,0:0:0:0:
475,192,273049,1,0,0:0:0:0:
402,192,273049,1,0,0:0:0:0:
329,192,273049,1,0,0:0:0:0:
109,192,273049,1,0,0:0:0:0:
36,192,273049,1,0,0:0:0:0:
256,192,273049,1,0,0:0:0:0:
182,192,273132,1,0,0:0:0:0:
256,192,273132,1,0,0:0:0:0:
329,192,273216,1,0,0:0:0:0:
475,192,273216,1,0,0:0:0:0:
109,192,273216,1,0,0:0:0:0:
36,192,273299,1,0,0:0:0:0:
402,192,273299,1,0,0:0:0:0:
182,192,273382,1,0,0:0:0:0:
256,192,273382,1,0,0:0:0:0:
475,192,273382,1,0,0:0:0:0:
109,192,273466,1,0,0:0:0:0:
329,192,273466,1,0,0:0:0:0:
402,192,273549,1,0,0:0:0:0:
475,192,273549,1,0,0:0:0:0:
256,192,273549,1,0,0:0:0:0:
36,192,273660,1,0,0:0:0:0:
109,192,273660,1,0,0:0:0:0:
182,192,273660,1,0,0:0:0:0:
109,192,273771,1,0,0:0:0:0:
182,192,273771,1,0,0:0:0:0:
256,192,273771,1,0,0:0:0:0:
182,192,273882,1,0,0:0:0:0:
256,192,273882,1,0,0:0:0:0:
329,192,273882,1,0,0:0:0:0:
256,192,273994,1,0,0:0:0:0:
329,192,273994,1,0,0:0:0:0:
402,192,273994,1,0,0:0:0:0:
329,192,274105,1,0,0:0:0:0:
475,192,274105,1,0,0:0:0:0:
402,192,274105,1,0,0:0:0:0:
256,192,274216,1,0,0:0:0:0:
182,192,274216,1,0,0:0:0:0:
36,192,274216,128,0,276382:0:0:0:0:
109,192,274216,128,0,276382:0:0:0:0:
475,192,276382,1,0,0:0:0:0:
402,192,276382,1,0,0:0:0:0:
329,192,276382,1,0,0:0:0:0:
182,192,276466,1,0,0:0:0:0:
109,192,276466,1,0,0:0:0:0:
36,192,276466,1,0,0:0:0:0:
256,192,276549,1,0,0:0:0:0:
329,192,276549,1,0,0:0:0:0:
402,192,276549,1,0,0:0:0:0:
475,192,276549,1,0,0:0:0:0:
109,192,276716,1,0,0:0:0:0:
256,192,276716,1,0,0:0:0:0:
402,192,276716,1,0,0:0:0:0:
182,192,276882,1,0,0:0:0:0:
36,192,276882,1,0,0:0:0:0:
109,192,276882,1,0,0:0:0:0:
475,192,276882,1,0,0:0:0:0:
402,192,276882,1,0,0:0:0:0:
329,192,276882,1,0,0:0:0:0:
36,192,277049,1,0,0:0:0:0:
109,192,277049,1,0,0:0:0:0:
182,192,277049,1,0,0:0:0:0:
182,192,277216,1,0,0:0:0:0:
109,192,277216,1,0,0:0:0:0:
36,192,277216,1,0,0:0:0:0:
475,192,277382,1,0,0:0:0:0:
402,192,277382,1,0,0:0:0:0:
329,192,277382,1,0,0:0:0:0:
256,192,277382,1,0,0:0:0:0:
182,192,277382,1,0,0:0:0:0:
109,192,277382,1,0,0:0:0:0:
475,192,277549,1,0,0:0:0:0:
402,192,277549,1,0,0:0:0:0:
329,192,277549,1,0,0:0:0:0:
329,192,277716,1,0,0:0:0:0:
402,192,277716,1,0,0:0:0:0:
475,192,277716,1,0,0:0:0:0:
36,192,277882,1,0,0:0:0:0:
182,192,277882,1,0,0:0:0:0:
256,192,277882,1,0,0:0:0:0:
329,192,277882,1,0,0:0:0:0:
402,192,277882,1,0,0:0:0:0:
475,192,277882,1,0,0:0:0:0:
109,192,278049,1,0,0:0:0:0:
182,192,278049,1,0,0:0:0:0:
256,192,278049,1,0,0:0:0:0:
256,192,278216,1,0,0:0:0:0:
182,192,278216,1,0,0:0:0:0:
109,192,278216,1,0,0:0:0:0:
36,192,278382,1,0,0:0:0:0:
109,192,278382,1,0,0:0:0:0:
256,192,278382,1,0,0:0:0:0:
402,192,278382,1,0,0:0:0:0:
329,192,278382,1,0,0:0:0:0:
475,192,278382,1,0,0:0:0:0:
256,192,278549,1,0,0:0:0:0:
329,192,278549,1,0,0:0:0:0:
402,192,278549,1,0,0:0:0:0:
402,192,278716,1,0,0:0:0:0:
329,192,278716,1,0,0:0:0:0:
256,192,278716,1,0,0:0:0:0:
182,192,278882,1,0,0:0:0:0:
109,192,278882,1,0,0:0:0:0:
36,192,278882,1,0,0:0:0:0:
402,192,278882,1,0,0:0:0:0:
256,192,278882,1,0,0:0:0:0:
475,192,278882,1,0,0:0:0:0:
109,192,279049,1,0,0:0:0:0:
36,192,279049,1,0,0:0:0:0:
475,192,279049,1,0,0:0:0:0:
329,192,279216,1,0,0:0:0:0:
256,192,279216,1,0,0:0:0:0:
182,192,279216,1,0,0:0:0:0:
109,192,279216,1,0,0:0:0:0:
36,192,279216,1,0,0:0:0:0:
475,192,279216,1,0,0:0:0:0:
402,192,279382,1,0,0:0:0:0:
182,192,279382,1,0,0:0:0:0:
329,192,279382,1,0,0:0:0:0:
402,192,279549,1,0,0:0:0:0:
329,192,279549,1,0,0:0:0:0:
256,192,279549,1,0,0:0:0:0:
182,192,279549,1,0,0:0:0:0:
109,192,279549,1,0,0:0:0:0:
36,192,279549,1,0,0:0:0:0:
109,192,279716,1,0,0:0:0:0:
256,192,279716,1,0,0:0:0:0:
402,192,279716,1,0,0:0:0:0:
402,192,279882,1,0,0:0:0:0:
256,192,279882,1,0,0:0:0:0:
109,192,279882,1,0,0:0:0:0:
329,192,280049,1,0,0:0:0:0:
402,192,280049,1,0,0:0:0:0:
475,192,280049,1,0,0:0:0:0:
109,192,280049,1,0,0:0:0:0:
36,192,280049,1,0,0:0:0:0:
182,192,280049,1,0,0:0:0:0:
329,192,280216,1,0,0:0:0:0:
475,192,280216,1,0,0:0:0:0:
109,192,280216,1,0,0:0:0:0:
475,192,280382,1,0,0:0:0:0:
329,192,280382,1,0,0:0:0:0:
109,192,280382,1,0,0:0:0:0:
36,192,280549,1,0,0:0:0:0:
109,192,280549,1,0,0:0:0:0:
182,192,280549,1,0,0:0:0:0:
256,192,280549,1,0,0:0:0:0:
329,192,280549,1,0,0:0:0:0:
402,192,280549,1,0,0:0:0:0:
182,192,280716,1,0,0:0:0:0:
329,192,280716,1,0,0:0:0:0:
256,192,280716,1,0,0:0:0:0:
256,192,280882,1,0,0:0:0:0:
182,192,280882,1,0,0:0:0:0:
329,192,280882,1,0,0:0:0:0:
475,192,281049,1,0,0:0:0:0:
329,192,281049,1,0,0:0:0:0:
182,192,281049,1,0,0:0:0:0:
109,192,281049,1,0,0:0:0:0:
36,192,281049,1,0,0:0:0:0:
256,192,281049,1,0,0:0:0:0:
36,192,281216,1,0,0:0:0:0:
182,192,281216,1,0,0:0:0:0:
402,192,281216,1,0,0:0:0:0:
36,192,281382,1,0,0:0:0:0:
182,192,281382,1,0,0:0:0:0:
402,192,281382,1,0,0:0:0:0:
475,192,281549,1,0,0:0:0:0:
402,192,281549,1,0,0:0:0:0:
256,192,281549,1,0,0:0:0:0:
182,192,281549,1,0,0:0:0:0:
109,192,281549,1,0,0:0:0:0:
36,192,281549,1,0,0:0:0:0:
329,192,281716,1,0,0:0:0:0:
36,192,281716,1,0,0:0:0:0:
256,192,281716,1,0,0:0:0:0:
475,192,281882,1,0,0:0:0:0:
402,192,281882,1,0,0:0:0:0:
329,192,281882,1,0,0:0:0:0:
109,192,281882,1,0,0:0:0:0:
36,192,281882,1,0,0:0:0:0:
256,192,281882,1,0,0:0:0:0:
475,192,282049,1,0,0:0:0:0:
402,192,282049,1,0,0:0:0:0:
329,192,282049,1,0,0:0:0:0:
182,192,282132,1,0,0:0:0:0:
109,192,282132,1,0,0:0:0:0:
36,192,282132,1,0,0:0:0:0:
475,192,282216,1,0,0:0:0:0:
402,192,282216,1,0,0:0:0:0:
256,192,282216,1,0,0:0:0:0:
329,192,282216,1,0,0:0:0:0:
182,192,282216,1,0,0:0:0:0:
36,192,282216,1,0,0:0:0:0:
109,192,282382,1,0,0:0:0:0:
182,192,282382,1,0,0:0:0:0:
475,192,282382,1,0,0:0:0:0:
182,192,282549,1,0,0:0:0:0:
475,192,282549,1,0,0:0:0:0:
109,192,282549,1,0,0:0:0:0:
475,192,282716,1,0,0:0:0:0:
402,192,282716,1,0,0:0:0:0:
256,192,282716,1,0,0:0:0:0:
329,192,282716,1,0,0:0:0:0:
182,192,282716,1,0,0:0:0:0:
109,192,282716,1,0,0:0:0:0:
36,192,282882,1,0,0:0:0:0:
329,192,282882,1,0,0:0:0:0:
256,192,282882,1,0,0:0:0:0:
36,192,283049,1,0,0:0:0:0:
256,192,283049,1,0,0:0:0:0:
329,192,283049,1,0,0:0:0:0:
36,192,283216,1,0,0:0:0:0:
109,192,283216,1,0,0:0:0:0:
182,192,283216,1,0,0:0:0:0:
402,192,283216,1,0,0:0:0:0:
475,192,283216,1,0,0:0:0:0:
329,192,283216,1,0,0:0:0:0:
475,192,283382,1,0,0:0:0:0:
402,192,283382,1,0,0:0:0:0:
256,192,283382,1,0,0:0:0:0:
402,192,283549,1,0,0:0:0:0:
475,192,283549,1,0,0:0:0:0:
256,192,283549,1,0,0:0:0:0:
36,192,283716,1,0,0:0:0:0:
182,192,283716,1,0,0:0:0:0:
256,192,283716,1,0,0:0:0:0:
329,192,283716,1,0,0:0:0:0:
402,192,283716,1,0,0:0:0:0:
475,192,283716,1,0,0:0:0:0:
109,192,283882,1,0,0:0:0:0:
256,192,283882,1,0,0:0:0:0:
402,192,283882,1,0,0:0:0:0:
109,192,284049,1,0,0:0:0:0:
256,192,284049,1,0,0:0:0:0:
402,192,284049,1,0,0:0:0:0:
256,192,284216,1,0,0:0:0:0:
182,192,284216,1,0,0:0:0:0:
109,192,284216,1,0,0:0:0:0:
36,192,284216,1,0,0:0:0:0:
329,192,284216,1,0,0:0:0:0:
475,192,284216,1,0,0:0:0:0:
182,192,284382,1,0,0:0:0:0:
109,192,284382,1,0,0:0:0:0:
36,192,284382,1,0,0:0:0:0:
329,192,284466,1,0,0:0:0:0:
402,192,284466,1,0,0:0:0:0:
475,192,284466,1,0,0:0:0:0:
256,192,284549,1,0,0:0:0:0:
182,192,284549,1,0,0:0:0:0:
109,192,284549,1,0,0:0:0:0:
36,192,284549,1,0,0:0:0:0:
402,192,284549,1,0,0:0:0:0:
475,192,284549,1,0,0:0:0:0:
329,192,284716,1,0,0:0:0:0:
256,192,284716,1,0,0:0:0:0:
182,192,284716,1,0,0:0:0:0:
36,192,284882,1,0,0:0:0:0:
256,192,284882,1,0,0:0:0:0:
329,192,284882,1,0,0:0:0:0:
475,192,284882,1,0,0:0:0:0:
402,192,284882,1,0,0:0:0:0:
109,192,284882,1,0,0:0:0:0:
475,192,285049,1,0,0:0:0:0:
402,192,285049,1,0,0:0:0:0:
182,192,285049,1,0,0:0:0:0:
182,192,285216,1,0,0:0:0:0:
402,192,285216,1,0,0:0:0:0:
475,192,285216,1,0,0:0:0:0:
329,192,285382,1,0,0:0:0:0:
475,192,285382,1,0,0:0:0:0:
109,192,285382,1,0,0:0:0:0:
36,192,285382,1,0,0:0:0:0:
182,192,285382,1,0,0:0:0:0:
256,192,285382,1,0,0:0:0:0:
36,192,285549,1,0,0:0:0:0:
256,192,285549,1,0,0:0:0:0:
402,192,285549,1,0,0:0:0:0:
256,192,285716,1,0,0:0:0:0:
36,192,285716,1,0,0:0:0:0:
402,192,285716,1,0,0:0:0:0:
329,192,285882,1,0,0:0:0:0:
402,192,285882,1,0,0:0:0:0:
475,192,285882,1,0,0:0:0:0:
182,192,285882,1,0,0:0:0:0:
109,192,285882,1,0,0:0:0:0:
36,192,285882,1,0,0:0:0:0:
256,192,286049,1,0,0:0:0:0:
402,192,286049,1,0,0:0:0:0:
475,192,286049,1,0,0:0:0:0:
36,192,286216,1,0,0:0:0:0:
109,192,286216,1,0,0:0:0:0:
182,192,286216,1,0,0:0:0:0:
329,192,286299,1,0,0:0:0:0:
402,192,286299,1,0,0:0:0:0:
475,192,286299,1,0,0:0:0:0:
182,192,286382,1,0,0:0:0:0:
109,192,286382,1,0,0:0:0:0:
36,192,286382,1,0,0:0:0:0:
329,192,286466,1,0,0:0:0:0:
402,192,286466,1,0,0:0:0:0:
475,192,286466,1,0,0:0:0:0:
182,192,286549,1,0,0:0:0:0:
109,192,286549,1,0,0:0:0:0:
36,192,286549,1,0,0:0:0:0:
329,192,286632,1,0,0:0:0:0:
402,192,286632,1,0,0:0:0:0:
475,192,286632,1,0,0:0:0:0:
182,192,286716,1,0,0:0:0:0:
109,192,286716,1,0,0:0:0:0:
36,192,286716,1,0,0:0:0:0:
329,192,286799,1,0,0:0:0:0:
402,192,286799,1,0,0:0:0:0:
475,192,286799,1,0,0:0:0:0:
182,192,286882,1,0,0:0:0:0:
109,192,286882,1,0,0:0:0:0:
36,192,286882,1,0,0:0:0:0:
329,192,286966,1,0,0:0:0:0:
402,192,286966,1,0,0:0:0:0:
475,192,286966,1,0,0:0:0:0:
182,192,287049,1,0,0:0:0:0:
109,192,287049,1,0,0:0:0:0:
36,192,287049,1,0,0:0:0:0:
329,192,287132,1,0,0:0:0:0:
402,192,287132,1,0,0:0:0:0:
475,192,287132,1,0,0:0:0:0:
182,192,287216,1,0,0:0:0:0:
109,192,287216,1,0,0:0:0:0:
36,192,287216,1,0,0:0:0:0:
329,192,287299,1,0,0:0:0:0:
402,192,287299,1,0,0:0:0:0:
475,192,287299,1,0,0:0:0:0:
182,192,287382,1,0,0:0:0:0:
109,192,287382,1,0,0:0:0:0:
36,192,287382,1,0,0:0:0:0:
329,192,287466,1,0,0:0:0:0:
402,192,287466,1,0,0:0:0:0:
475,192,287466,1,0,0:0:0:0:
256,192,287549,1,0,0:0:0:0:
36,192,287549,128,0,288049:0:0:0:0:
109,192,287549,128,0,287716:0:0:0:0:
182,192,287549,1,0,0:0:0:0:
182,192,287716,128,0,287882:0:0:0:0:
329,192,287716,1,0,0:0:0:0:
402,192,287716,1,0,0:0:0:0:
256,192,287882,128,0,288049:0:0:0:0:
402,192,287882,1,0,0:0:0:0:
475,192,287882,1,0,0:0:0:0:
182,192,288049,128,0,288549:0:0:0:0:
329,192,288049,128,0,288216:0:0:0:0:
475,192,288049,1,0,0:0:0:0:
109,192,288049,1,0,0:0:0:0:
402,192,288049,1,0,0:0:0:0:
402,192,288216,128,0,288382:0:0:0:0:
256,192,288216,1,0,0:0:0:0:
36,192,288216,1,0,0:0:0:0:
475,192,288382,128,0,288549:0:0:0:0:
329,192,288382,1,0,0:0:0:0:
109,192,288382,1,0,0:0:0:0:
329,192,288549,128,0,289049:0:0:0:0:
36,192,288549,128,0,288716:0:0:0:0:
402,192,288549,1,0,0:0:0:0:
109,192,288549,1,0,0:0:0:0:
256,192,288549,1,0,0:0:0:0:
109,192,288716,128,0,288882:0:0:0:0:
256,192,288716,1,0,0:0:0:0:
402,192,288716,1,0,0:0:0:0:
182,192,288882,128,0,289049:0:0:0:0:
475,192,288882,1,0,0:0:0:0:
36,192,288882,1,0,0:0:0:0:
475,192,289049,128,0,289549:0:0:0:0:
256,192,289049,128,0,289216:0:0:0:0:
36,192,289049,1,0,0:0:0:0:
109,192,289049,1,0,0:0:0:0:
402,192,289049,1,0,0:0:0:0:
329,192,289216,128,0,289382:0:0:0:0:
109,192,289216,1,0,0:0:0:0:
182,192,289216,1,0,0:0:0:0:
402,192,289382,128,0,289549:0:0:0:0:
182,192,289382,1,0,0:0:0:0:
256,192,289382,1,0,0:0:0:0:
36,192,289549,128,0,289882:0:0:0:0:
109,192,289549,128,0,289716:0:0:0:0:
256,192,289549,1,0,0:0:0:0:
329,192,289549,1,0,0:0:0:0:
182,192,289549,1,0,0:0:0:0:
182,192,289716,128,0,289882:0:0:0:0:
475,192,289716,1,0,0:0:0:0:
402,192,289716,1,0,0:0:0:0:
329,192,289799,1,0,0:0:0:0:
475,192,289882,128,0,290216:0:0:0:0:
256,192,289882,128,0,290049:0:0:0:0:
402,192,289882,1,0,0:0:0:0:
109,192,289882,1,0,0:0:0:0:
329,192,290049,128,0,290216:0:0:0:0:
109,192,290049,1,0,0:0:0:0:
182,192,290049,1,0,0:0:0:0:
36,192,290216,128,0,290716:0:0:0:0:
402,192,290216,128,0,290382:0:0:0:0:
109,192,290216,1,0,0:0:0:0:
182,192,290216,1,0,0:0:0:0:
256,192,290216,1,0,0:0:0:0:
475,192,290382,128,0,290549:0:0:0:0:
182,192,290382,1,0,0:0:0:0:
329,192,290382,1,0,0:0:0:0:
109,192,290549,128,0,290716:0:0:0:0:
402,192,290549,1,0,0:0:0:0:
256,192,290549,1,0,0:0:0:0:
182,192,290716,128,0,291216:0:0:0:0:
256,192,290716,128,0,290882:0:0:0:0:
402,192,290716,1,0,0:0:0:0:
475,192,290716,1,0,0:0:0:0:
329,192,290716,1,0,0:0:0:0:
329,192,290882,128,0,291049:0:0:0:0:
475,192,290882,1,0,0:0:0:0:
109,192,290882,1,0,0:0:0:0:
402,192,291049,128,0,291216:0:0:0:0:
109,192,291049,1,0,0:0:0:0:
36,192,291049,1,0,0:0:0:0:
329,192,291216,128,0,291716:0:0:0:0:
475,192,291216,128,0,291382:0:0:0:0:
256,192,291216,1,0,0:0:0:0:
36,192,291216,1,0,0:0:0:0:
109,192,291216,1,0,0:0:0:0:
36,192,291382,128,0,291549:0:0:0:0:
182,192,291382,1,0,0:0:0:0:
402,192,291382,1,0,0:0:0:0:
109,192,291549,128,0,291716:0:0:0:0:
256,192,291549,1,0,0:0:0:0:
475,192,291549,1,0,0:0:0:0:
475,192,291716,128,0,292216:0:0:0:0:
182,192,291716,128,0,291882:0:0:0:0:
402,192,291716,1,0,0:0:0:0:
36,192,291716,1,0,0:0:0:0:
256,192,291716,1,0,0:0:0:0:
256,192,291882,128,0,292049:0:0:0:0:
36,192,291882,1,0,0:0:0:0:
329,192,291882,1,0,0:0:0:0:
329,192,292049,128,0,292216:0:0:0:0:
109,192,292049,1,0,0:0:0:0:
402,192,292049,1,0,0:0:0:0:
36,192,292216,128,0,292549:0:0:0:0:
402,192,292216,128,0,292382:0:0:0:0:
182,192,292216,1,0,0:0:0:0:
109,192,292216,1,0,0:0:0:0:
256,192,292216,1,0,0:0:0:0:
475,192,292382,128,0,292549:0:0:0:0:
329,192,292382,1,0,0:0:0:0:
182,192,292382,1,0,0:0:0:0:
402,192,292549,1,0,0:0:0:0:
329,192,292549,1,0,0:0:0:0:
182,192,292549,1,0,0:0:0:0:
256,192,292549,128,0,292882:0:0:0:0:
402,192,292716,1,0,0:0:0:0:
475,192,292716,1,0,0:0:0:0:
109,192,292716,1,0,0:0:0:0:
182,192,292799,1,0,0:0:0:0:
329,192,292799,1,0,0:0:0:0:
109,192,292882,1,0,0:0:0:0:
36,192,292882,1,0,0:0:0:0:
475,192,292882,128,0,293382:0:0:0:0:
402,192,292882,128,0,293049:0:0:0:0:
329,192,293049,128,0,293216:0:0:0:0:
182,192,293049,1,0,0:0:0:0:
109,192,293049,1,0,0:0:0:0:
256,192,293216,128,0,293382:0:0:0:0:
109,192,293216,1,0,0:0:0:0:
36,192,293216,1,0,0:0:0:0:
329,192,293382,128,0,293882:0:0:0:0:
182,192,293382,128,0,293549:0:0:0:0:
36,192,293382,1,0,0:0:0:0:
402,192,293382,1,0,0:0:0:0:
109,192,293382,1,0,0:0:0:0:
109,192,293549,128,0,293716:0:0:0:0:
475,192,293549,1,0,0:0:0:0:
256,192,293549,1,0,0:0:0:0:
36,192,293716,128,0,293882:0:0:0:0:
402,192,293716,1,0,0:0:0:0:
182,192,293716,1,0,0:0:0:0:
182,192,293882,128,0,294382:0:0:0:0:
475,192,293882,128,0,294049:0:0:0:0:
256,192,293882,1,0,0:0:0:0:
109,192,293882,1,0,0:0:0:0:
402,192,293882,1,0,0:0:0:0:
402,192,294049,128,0,294216:0:0:0:0:
256,192,294049,1,0,0:0:0:0:
109,192,294049,1,0,0:0:0:0:
329,192,294216,128,0,294382:0:0:0:0:
109,192,294216,1,0,0:0:0:0:
36,192,294216,1,0,0:0:0:0:
36,192,294382,128,0,294882:0:0:0:0:
256,192,294382,128,0,294549:0:0:0:0:
475,192,294382,1,0,0:0:0:0:
402,192,294382,1,0,0:0:0:0:
109,192,294382,1,0,0:0:0:0:
182,192,294549,128,0,294716:0:0:0:0:
329,192,294549,1,0,0:0:0:0:
475,192,294549,1,0,0:0:0:0:
109,192,294716,128,0,294882:0:0:0:0:
256,192,294716,1,0,0:0:0:0:
402,192,294716,1,0,0:0:0:0:
475,192,294882,128,0,295216:0:0:0:0:
402,192,294882,128,0,295049:0:0:0:0:
182,192,294882,1,0,0:0:0:0:
329,192,294882,1,0,0:0:0:0:
256,192,294882,1,0,0:0:0:0:
329,192,295049,128,0,295216:0:0:0:0:
182,192,295049,1,0,0:0:0:0:
109,192,295049,1,0,0:0:0:0:
36,192,295216,128,0,295549:0:0:0:0:
256,192,295216,128,0,295382:0:0:0:0:
109,192,295216,1,0,0:0:0:0:
402,192,295216,1,0,0:0:0:0:
182,192,295216,1,0,0:0:0:0:
182,192,295382,128,0,295549:0:0:0:0:
402,192,295382,1,0,0:0:0:0:
475,192,295382,1,0,0:0:0:0:
329,192,295466,1,0,0:0:0:0:
475,192,295549,128,0,296049:0:0:0:0:
109,192,295549,128,0,295716:0:0:0:0:
256,192,295549,1,0,0:0:0:0:
402,192,295549,1,0,0:0:0:0:
36,192,295716,128,0,295882:0:0:0:0:
182,192,295716,1,0,0:0:0:0:
402,192,295716,1,0,0:0:0:0:
329,192,295799,1,0,0:0:0:0:
256,192,295799,1,0,0:0:0:0:
402,192,295882,128,0,296049:0:0:0:0:
182,192,295882,1,0,0:0:0:0:
109,192,295966,1,0,0:0:0:0:
329,192,296049,128,0,296549:0:0:0:0:
256,192,296049,128,0,296216:0:0:0:0:
182,192,296049,1,0,0:0:0:0:
36,192,296049,1,0,0:0:0:0:
182,192,296216,128,0,296382:0:0:0:0:
109,192,296216,1,0,0:0:0:0:
36,192,296216,1,0,0:0:0:0:
402,192,296299,1,0,0:0:0:0:
475,192,296299,1,0,0:0:0:0:
109,192,296382,128,0,296549:0:0:0:0:
256,192,296382,1,0,0:0:0:0:
36,192,296382,1,0,0:0:0:0:
402,192,296466,1,0,0:0:0:0:
182,192,296549,128,0,297049:0:0:0:0:
36,192,296549,128,0,296716:0:0:0:0:
256,192,296549,1,0,0:0:0:0:
475,192,296549,1,0,0:0:0:0:
402,192,296632,1,0,0:0:0:0:
329,192,296632,1,0,0:0:0:0:
475,192,296716,128,0,296882:0:0:0:0:
256,192,296716,1,0,0:0:0:0:
109,192,296716,1,0,0:0:0:0:
36,192,296799,1,0,0:0:0:0:
329,192,296799,1,0,0:0:0:0:
402,192,296882,128,0,297049:0:0:0:0:
109,192,296882,1,0,0:0:0:0:
256,192,296882,1,0,0:0:0:0:
475,192,296966,1,0,0:0:0:0:
36,192,297049,128,0,297549:0:0:0:0:
329,192,297049,128,0,297216:0:0:0:0:
109,192,297049,1,0,0:0:0:0:
256,192,297049,1,0,0:0:0:0:
256,192,297216,128,0,297382:0:0:0:0:
182,192,297216,1,0,0:0:0:0:
109,192,297216,1,0,0:0:0:0:
475,192,297299,1,0,0:0:0:0:
402,192,297299,1,0,0:0:0:0:
182,192,297382,128,0,297549:0:0:0:0:
329,192,297382,1,0,0:0:0:0:
109,192,297382,1,0,0:0:0:0:
402,192,297466,1,0,0:0:0:0:
256,192,297466,1,0,0:0:0:0:
475,192,297549,1,0,0:0:0:0:
109,192,297549,1,0,0:0:0:0:
329,192,297549,1,0,0:0:0:0:
402,192,297632,1,0,0:0:0:0:
256,192,297632,1,0,0:0:0:0:
182,192,297716,1,0,0:0:0:0:
109,192,297716,1,0,0:0:0:0:
36,192,297716,1,0,0:0:0:0:
475,192,297799,1,0,0:0:0:0:
329,192,297799,1,0,0:0:0:0:
402,192,297799,1,0,0:0:0:0:
182,192,297882,1,0,0:0:0:0:
109,192,297882,1,0,0:0:0:0:
36,192,297882,1,0,0:0:0:0:
329,192,297966,1,0,0:0:0:0:
402,192,297966,1,0,0:0:0:0:
475,192,297966,1,0,0:0:0:0:
182,192,298049,1,0,0:0:0:0:
109,192,298049,1,0,0:0:0:0:
36,192,298049,1,0,0:0:0:0:
329,192,298132,1,0,0:0:0:0:
402,192,298132,1,0,0:0:0:0:
475,192,298132,1,0,0:0:0:0:
109,192,298216,1,0,0:0:0:0:
182,192,298216,1,0,0:0:0:0:
256,192,298216,128,0,303549:0:0:0:0:
36,192,298216,1,0,0:0:0:0:
36,192,298549,128,0,298716:0:0:0:0:
109,192,298549,128,0,298716:0:0:0:0:
402,192,299049,128,0,299216:0:0:0:0:
475,192,299049,128,0,299216:0:0:0:0:
402,192,299549,128,0,299716:0:0:0:0:
475,192,299549,128,0,299716:0:0:0:0:
182,192,300049,128,0,300216:0:0:0:0:
329,192,300049,128,0,300216:0:0:0:0:
182,192,300549,128,0,300716:0:0:0:0:
329,192,300549,128,0,300716:0:0:0:0:
475,192,301216,128,0,301382:0:0:0:0:
402,192,301216,128,0,301382:0:0:0:0:
109,192,301716,128,0,301882:0:0:0:0:
36,192,301716,128,0,301882:0:0:0:0:
36,192,302216,128,0,302382:0:0:0:0:
109,192,302216,128,0,302382:0:0:0:0:
182,192,302716,128,0,302882:0:0:0:0:
329,192,302716,128,0,302882:0:0:0:0:
182,192,303216,128,0,303549:0:0:0:0:
329,192,303216,128,0,303549:0:0:0:0:
