osu file format v14

[General]
AudioFilename: audio.mp3
AudioLeadIn: 0
PreviewTime: 54590
Countdown: 0
SampleSet: Soft
StackLeniency: 0.4
Mode: 0
LetterboxInBreaks: 0
WidescreenStoryboard: 0

[Editor]
Bookmarks: 205,6203,16203,26052,35898,45744,55590,65436,75128,80051,89589
DistanceSpacing: 1
BeatDivisor: 2
GridSize: 4
TimelineZoom: 2.699999

[Metadata]
Title:MIIRO
TitleUnicode:海色
Artist:Roselia
ArtistUnicode:Roselia
Creator:lit120
Version:The Great Naval Battle
Source:バンドリ! ガールズバンドパーティ!
Tags:BanG Dream! Girls Band Party bandori garupa ガルパ ロゼリア kantai collection kancolle AKINO from with bless4 艦隊これくしょん -艦これ- cover op opening game size minato yukina 湊友希那 aiba aina 相羽あいな hikawa sayo 氷川紗夜 kudou haruka 工藤晴香 imai lisa 今井リサ nakashima yuki 中島由貴 udagawa ako 宇田川あこ sakuragawa megu 櫻川めぐ shirokane rinko 白金燐子 shizaki kanon 志崎樺音 anime video game japanese tatoe -Hakurei- Moecho eINess lolia Karia Venix Tarrasky HabiHolic Stingy
BeatmapID:2094987
BeatmapSetID:1000885

[Difficulty]
HPDrainRate:6
CircleSize:4.3
OverallDifficulty:9
ApproachRate:9.6
SliderMultiplier:1.85
SliderTickRate:1

[Events]
//Background and Video events
0,0,"miiro.jpg",0,0
//Break Periods
//Storyboard Layer 0 (Background)
//Storyboard Layer 1 (Fail)
//Storyboard Layer 2 (Pass)
//Storyboard Layer 3 (Foreground)
//Storyboard Layer 4 (Overlay)
//Storyboard Sound Samples

[TimingPoints]
205,307.692307692308,4,2,1,50,1,0
205,-166.666666666667,4,2,1,50,0,0
3897,314.13612565445,4,2,1,70,1,0
3897,-133.333333333333,4,2,1,40,0,0
3975,-133.333333333333,4,2,1,5,0,0
4054,-133.333333333333,4,2,1,40,0,0
4132,-133.333333333333,4,2,1,5,0,0
4211,-133.333333333333,4,2,1,40,0,0
4289,-133.333333333333,4,2,1,5,0,0
4368,-133.333333333333,4,2,1,40,0,0
4446,-133.333333333333,4,2,1,5,0,0
4525,-133.333333333333,4,2,1,40,0,0
4603,-133.333333333333,4,2,1,5,0,0
4682,-133.333333333333,4,2,1,40,0,0
4760,-133.333333333333,4,2,1,5,0,0
4839,-133.333333333333,4,2,1,40,0,0
4917,-133.333333333333,4,2,1,5,0,0
4996,-133.333333333333,4,2,1,40,0,0
5075,-133.333333333333,4,2,1,5,0,0
5153,-133.333333333333,4,2,1,40,0,0
5232,-133.333333333333,4,2,1,5,0,0
5310,-133.333333333333,4,2,1,40,0,0
5389,-133.333333333333,4,2,1,5,0,0
5467,-133.333333333333,4,2,1,40,0,0
5546,-133.333333333333,4,2,1,5,0,0
5624,-133.333333333333,4,2,1,40,0,0
5703,-133.333333333333,4,2,1,5,0,0
5742,307.692307692308,4,2,1,40,1,0
5742,-400,4,2,1,40,0,0
6126,-400,4,2,1,5,0,0
6203,-57.1428571428571,4,2,1,90,0,1
6357,307.692307692308,4,2,1,90,1,0
6433,-83.3333333333333,4,2,1,5,0,1
6510,-83.3333333333333,4,2,1,90,0,1
7280,-66.6666666666667,4,2,1,90,0,1
7510,-83.3333333333333,4,2,1,5,0,1
7587,-83.3333333333333,4,2,1,90,0,1
8664,-57.1428571428571,4,2,1,90,0,1
8895,-83.3333333333333,4,2,1,5,0,1
8972,-83.3333333333333,4,2,1,90,0,1
10741,-83.3333333333333,4,2,1,5,0,1
10818,-83.3333333333333,4,2,1,90,0,1
11126,-57.1428571428571,4,2,1,90,0,1
11357,-83.3333333333333,4,2,1,5,0,1
11433,-83.3333333333333,4,2,1,90,0,1
12203,-66.6666666666667,4,2,1,90,0,1
12433,-83.3333333333333,4,2,1,5,0,1
12499,-83.3333333333333,4,2,1,90,0,1
13818,-83.3333333333333,4,2,1,5,0,1
13895,-83.3333333333333,4,2,1,90,0,1
14126,-83.3333333333333,4,2,1,5,0,1
14203,-83.3333333333333,4,2,1,90,0,1
14433,-83.3333333333333,4,2,1,5,0,1
14510,-83.3333333333333,4,2,1,90,0,1
14587,-83.3333333333333,4,2,1,5,0,1
14664,-83.3333333333333,4,2,1,90,0,1
14895,-83.3333333333333,4,2,1,5,0,1
14972,-83.3333333333333,4,2,1,90,0,1
15049,-83.3333333333333,4,2,1,5,0,1
15126,-83.3333333333333,4,2,1,90,0,1
15357,-83.3333333333333,4,2,1,5,0,1
15433,-57.1428571428571,4,2,1,90,0,1
15664,-57.1428571428571,4,2,1,5,0,1
15741,-57.1428571428571,4,2,1,100,0,0
15818,-57.1428571428571,4,2,1,5,0,0
16203,-133.333333333333,4,2,1,60,0,0
24666,324.324324324324,4,2,1,60,1,0
24828,303.030303030303,4,2,1,40,1,0
24828,-76.9230769230769,4,2,1,40,0,0
24903,-100,4,2,1,5,0,0
25055,-76.9230769230769,4,2,1,40,0,0
25131,-100,4,2,1,5,0,0
25282,363.636363636364,4,2,1,40,1,0
25282,-76.9230769230769,4,2,1,40,0,0
25372,-100,4,2,1,5,0,0
25463,294.117647058824,4,2,1,40,1,0
25536,-100,4,2,1,5,0,0
25683,-100,4,2,1,40,0,0
25757,-100,4,2,1,5,0,0
25904,300,4,2,1,40,1,0
25979,-100,4,2,1,5,0,0
26052,307.692307692308,4,2,1,80,1,0
26052,-57.1428571428571,4,2,1,80,0,0
26282,-100,4,2,1,5,0,0
26359,-100,4,2,1,80,0,0
27128,-66.6666666666667,4,2,1,80,0,0
27359,-100,4,2,1,5,0,0
27436,-100,4,2,1,80,0,0
29513,-100,4,2,1,5,0,0
29590,-100,4,2,1,80,0,0
30975,-66.6666666666667,4,2,1,80,0,0
31205,-100,4,2,1,5,0,0
31282,-100,4,2,1,80,0,0
32744,-100,4,2,1,5,0,0
32821,-100,4,2,1,80,0,0
33436,-66.6666666666667,4,2,1,80,0,0
33667,-100,4,2,1,5,0,0
33744,-100,4,2,1,80,0,0
34436,-100,4,2,1,5,0,0
34513,-66.6666666666667,4,2,1,80,0,0
34744,-66.6666666666667,4,2,1,5,0,0
34821,-66.6666666666667,4,2,1,80,0,0
35359,-66.6666666666667,4,2,1,5,0,0
35436,-66.6666666666667,4,2,1,80,0,0
35898,-166.666666666667,4,2,1,40,0,0
40744,-166.666666666667,4,2,1,5,0,0
40821,-166.666666666667,4,2,1,40,0,0
43205,-166.666666666667,4,2,1,5,0,0
43282,-166.666666666667,4,2,1,40,0,0
44513,-166.666666666667,4,2,1,60,0,0
45744,-100,4,2,1,70,0,0
47821,-100,4,2,1,5,0,0
47898,-100,4,2,1,70,0,0
48128,-100,4,2,1,5,0,0
48205,-100,4,2,1,80,0,0
50128,-100,4,2,1,5,0,0
50205,-100,4,2,1,80,0,0
50590,-100,4,2,1,5,0,0
50667,-83.3333333333333,4,2,1,90,0,0
50744,-83.3333333333333,4,2,1,5,0,0
50821,-83.3333333333333,4,2,1,90,0,0
51052,-83.3333333333333,4,2,1,5,0,0
51128,-83.3333333333333,4,2,1,90,0,0
51821,-83.3333333333333,4,2,1,5,0,0
51898,-83.3333333333333,4,2,1,90,0,0
52282,-83.3333333333333,4,2,1,5,0,0
52359,-83.3333333333333,4,2,1,90,0,0
53205,-83.3333333333333,4,2,1,5,0,0
53282,-83.3333333333333,4,2,1,90,0,0
54282,-100,4,2,1,30,0,0
55282,-100,4,2,1,60,0,0
55590,-57.1428571428571,4,2,1,90,0,1
55821,-83.3333333333333,4,2,1,5,0,1
55898,-83.3333333333333,4,2,1,90,0,1
58052,-66.6666666666667,4,2,1,90,0,1
58282,-83.3333333333333,4,2,1,5,0,1
58359,-83.3333333333333,4,2,1,90,0,1
59282,-66.6666666666667,4,2,1,90,0,1
59513,-83.3333333333333,4,2,1,5,0,1
59590,-83.3333333333333,4,2,1,90,0,1
60744,-83.3333333333333,4,2,1,5,0,1
60821,-83.3333333333333,4,2,1,90,0,1
61052,-83.3333333333333,4,2,1,5,0,1
61128,-83.3333333333333,4,2,1,90,0,1
61359,-83.3333333333333,4,2,1,5,0,1
61436,-83.3333333333333,4,2,1,90,0,1
61667,-83.3333333333333,4,2,1,5,0,1
61744,-83.3333333333333,4,2,1,90,0,1
61975,-83.3333333333333,4,2,1,5,0,1
62052,-83.3333333333333,4,2,1,90,0,1
62282,-83.3333333333333,4,2,1,5,0,1
62359,-83.3333333333333,4,2,1,90,0,1
62744,-83.3333333333333,4,2,1,5,0,1
62821,-57.1428571428571,4,2,1,90,0,1
63052,-83.3333333333333,4,2,1,5,0,1
63128,-57.1428571428571,4,2,1,90,0,1
63359,-83.3333333333333,4,2,1,5,0,1
63436,-57.1428571428571,4,2,1,90,0,1
63821,-83.3333333333333,4,2,1,5,0,1
63898,-66.6666666666667,4,2,1,90,0,1
63975,-83.3333333333333,4,2,1,5,0,1
64052,-66.6666666666667,4,2,1,90,0,1
64128,-83.3333333333333,4,2,1,5,0,1
64205,-57.1428571428571,4,2,1,90,0,1
64282,-57.1428571428571,4,2,1,5,0,1
64359,-57.1428571428571,4,2,1,90,0,1
64744,-57.1428571428571,4,2,1,5,0,1
64821,-66.6666666666667,4,2,1,90,0,1
64898,-57.1428571428571,4,2,1,5,0,1
64975,-66.6666666666667,4,2,1,90,0,1
65205,-57.1428571428571,4,2,1,5,0,1
65282,-57.1428571428571,4,2,1,90,0,1
65667,-57.1428571428571,4,2,1,5,0,1
65744,-83.3333333333333,4,2,1,90,0,1
67898,-66.6666666666667,4,2,1,90,0,1
68128,-83.3333333333333,4,2,1,5,0,1
68205,-83.3333333333333,4,2,1,90,0,1
69128,-66.6666666666667,4,2,1,90,0,1
69359,-83.3333333333333,4,2,1,5,0,1
69436,-83.3333333333333,4,2,1,90,0,1
70590,-83.3333333333333,4,2,1,5,0,1
70667,-83.3333333333333,4,2,1,90,0,1
70898,-83.3333333333333,4,2,1,5,0,1
70975,-83.3333333333333,4,2,1,90,0,1
71205,-83.3333333333333,4,2,1,5,0,1
71282,-83.3333333333333,4,2,1,90,0,1
71513,-83.3333333333333,4,2,1,5,0,1
71590,-83.3333333333333,4,2,1,90,0,1
71821,-83.3333333333333,4,2,1,5,0,1
71898,-83.3333333333333,4,2,1,90,0,1
72128,-83.3333333333333,4,2,1,5,0,1
72205,-83.3333333333333,4,2,1,90,0,1
72282,-83.3333333333333,4,2,1,5,0,1
72359,-83.3333333333333,4,2,1,90,0,1
72590,-83.3333333333333,4,2,1,5,0,1
72667,-57.1428571428571,4,2,1,90,0,1
72898,-57.1428571428571,4,2,1,5,0,1
72975,-57.1428571428571,4,2,1,90,0,1
73205,-57.1428571428571,4,2,1,5,0,1
73282,-57.1428571428571,4,2,1,90,0,1
73667,-57.1428571428571,4,2,1,5,0,1
73744,-66.6666666666667,4,2,1,90,0,1
73821,-66.6666666666667,4,2,1,5,0,1
73898,-66.6666666666667,4,2,1,90,0,1
73975,-66.6666666666667,4,2,1,5,0,1
74052,-57.1428571428571,4,2,1,90,0,1
74128,-57.1428571428571,4,2,1,5,0,1
74205,-57.1428571428571,4,2,1,90,0,1
74436,-57.1428571428571,4,2,1,5,0,1
74513,-66.6666666666667,4,2,1,90,0,1
75052,-57.1428571428571,4,2,1,5,0,1
75128,-57.1428571428571,4,2,1,80,0,1
75359,-57.1428571428571,4,2,1,5,0,1
75436,-83.3333333333333,4,2,1,80,0,1
77436,-57.1428571428571,4,2,1,80,0,1
77667,-83.3333333333333,4,2,1,5,0,1
77744,-83.3333333333333,4,2,1,80,0,1
77821,-83.3333333333333,4,2,1,5,0,1
77898,-83.3333333333333,4,2,1,80,0,1
77975,-83.3333333333333,4,2,1,5,0,1
78052,-71.4285714285714,4,2,1,90,0,1
78128,-83.3333333333333,4,2,1,5,0,1
78205,-71.4285714285714,4,2,1,90,0,1
78282,-83.3333333333333,4,2,1,5,0,1
78359,-62.5,4,2,1,90,0,1
78436,-83.3333333333333,4,2,1,5,0,1
78513,-62.5,4,2,1,90,0,1
78590,-83.3333333333333,4,2,1,5,0,1
78667,-55.5555555555556,4,2,1,90,0,1
78744,-83.3333333333333,4,2,1,5,0,1
78821,-55.5555555555556,4,2,1,90,0,1
78898,-83.3333333333333,4,2,1,5,0,1
78975,317.460317460317,4,2,1,60,1,0
78975,-166.666666666667,4,2,1,60,0,0
79590,307.692307692308,4,2,1,80,1,0
79743,-166.666666666667,4,2,1,80,0,0
79974,-166.666666666667,4,2,1,5,0,0
80051,-57.1428571428571,4,2,1,90,0,1
80205,307.692307692308,4,2,1,90,1,0
80281,-83.3333333333333,4,2,1,5,0,1
80358,-83.3333333333333,4,2,1,90,0,1
81128,-66.6666666666667,4,2,1,90,0,1
81358,-83.3333333333333,4,2,1,5,0,1
81435,-83.3333333333333,4,2,1,90,0,1
82512,-57.1428571428571,4,2,1,90,0,1
82743,-83.3333333333333,4,2,1,5,0,1
82820,-83.3333333333333,4,2,1,90,0,1
83589,-66.6666666666667,4,2,1,90,0,1
83820,-83.3333333333333,4,2,1,5,0,1
83897,-83.3333333333333,4,2,1,90,0,1
84974,-57.1428571428571,4,2,1,90,0,1
85205,-83.3333333333333,4,2,1,5,0,1
85281,-83.3333333333333,4,2,1,90,0,1
86051,-66.6666666666667,4,2,1,90,0,1
86281,-83.3333333333333,4,2,1,5,0,1
86358,-83.3333333333333,4,2,1,90,0,1
87666,-83.3333333333333,4,2,1,5,0,1
87743,-83.3333333333333,4,2,1,90,0,1
87974,-83.3333333333333,4,2,1,5,0,1
88051,-83.3333333333333,4,2,1,90,0,1
88281,-83.3333333333333,4,2,1,5,0,1
88358,-83.3333333333333,4,2,1,90,0,1
88435,-83.3333333333333,4,2,1,5,0,1
88512,-83.3333333333333,4,2,1,90,0,1
88743,-83.3333333333333,4,2,1,5,0,1
88820,-83.3333333333333,4,2,1,90,0,1
88897,-83.3333333333333,4,2,1,5,0,1
88974,-83.3333333333333,4,2,1,90,0,1
89205,-83.3333333333333,4,2,1,5,0,1
89281,-57.1428571428571,4,2,1,90,0,1
89512,-83.3333333333333,4,2,1,5,0,1
89589,-57.1428571428571,4,2,1,90,0,0
89666,-83.3333333333333,4,2,1,5,0,0

[Colours]
Combo1 : 184,109,149
Combo2 : 240,58,105
Combo3 : 96,150,249
Combo4 : 206,112,74

[HitObjects]
420,55,205,6,0,B|396:103|421:162|421:162|343:83|343:83|368:142|343:190,1,332.999989837647,2|2,0:0|0:0,0:0:0:0:
77,269,1281,5,2,0:0:0:0:
121,186,1435,1,2,0:0:0:0:
204,179,1589,1,0,0:0:0:0:
257,229,1743,1,0,0:0:0:0:
298,274,1897,1,2,0:0:0:0:
347,286,2051,1,0,0:0:0:0:
384,272,2205,1,0,0:0:0:0:
406,255,2358,2,0,P|422:233|432:207,1,55.4999983062745,2|0,0:0|0:0,0:0:0:0:
349,33,2666,6,0,B|304:115|388:108|343:190,2,166.499994918823,2|2|2,0:0|0:0|0:0,0:0:0:0:
169,132,3897,6,0,L|171:166,1,34.6875013232232,2|0,0:0|0:0,0:0:0:0:
177,237,4054,2,0,L|179:271,1,34.6875013232232,2|0,0:0|0:0,0:0:0:0:
185,342,4211,2,0,L|187:376,1,34.6875013232232,2|0,0:0|0:0,0:0:0:0:
272,283,4368,6,0,L|274:249,1,34.6875013232232,2|0,0:0|0:0,0:0:0:0:
280,178,4525,2,0,L|282:144,1,34.6875013232232,2|0,0:0|0:0,0:0:0:0:
288,73,4682,2,0,L|290:39,1,34.6875013232232,2|0,0:0|0:0,0:0:0:0:
375,132,4839,6,0,L|377:166,1,34.6875013232232,2|0,0:0|0:0,0:0:0:0:
383,237,4996,2,0,L|385:271,1,34.6875013232232,2|0,0:0|0:0,0:0:0:0:
391,342,5153,2,0,L|393:376,1,34.6875013232232,2|0,0:0|0:0,0:0:0:0:
478,283,5310,6,0,L|480:249,1,34.6875013232232,2|0,0:0|0:0,0:0:0:0:
486,178,5467,2,0,L|488:144,1,34.6875013232232,2|0,0:0|0:0,0:0:0:0:
494,73,5624,2,0,L|496:39,1,34.6875013232232,2|0,0:0|0:0,0:0:0:0:
375,132,5742,5,0,0:0:0:0:
375,132,5895,2,0,L|377:166,1,34.6875013232232
436,212,6203,6,0,B|316:146|326:268|207:203,1,242.81250231564,4|0,3:2|0:0,0:0:0:0:
146,131,6510,5,0,3:2:0:0:
28,344,6664,2,0,L|14:233,1,110.999996612549,10|0,0:0|0:0,0:0:0:0:
232,348,6972,1,2,3:2:0:0:
218,97,7126,1,0,3:2:0:0:
436,212,7280,6,0,P|346:234|315:125,1,208.125007939339,10|0,0:0|0:0,0:0:0:0:
360,77,7587,5,2,3:2:0:0:
310,295,7741,1,0,3:2:0:0:
80,128,7895,1,10,0:2:0:0:
130,346,8049,2,0,P|154:298|164:210,1,110.999996612549,2|0,0:0|3:2,0:0:0:0:
195,44,8357,1,2,3:2:0:0:
377,166,8510,1,8,0:0:0:0:
41,134,8664,6,0,B|120:122|120:122|193:160|193:160|272:149,1,242.81250231564,6|0,3:2|0:0,0:0:0:0:
339,65,8972,5,0,3:2:0:0:
403,300,9126,2,0,P|350:287|310:250,1,110.999996612549,8|0,0:0|0:0,0:0:0:0:
158,140,9433,1,0,3:2:0:0:
186,324,9587,1,0,3:2:0:0:
339,65,9741,1,8,0:2:0:0:
309,249,9895,1,2,0:0:0:0:
144,48,10049,5,2,3:2:0:0:
272,149,10203,1,2,3:2:0:0:
30,241,10357,1,10,0:2:0:0:
158,140,10510,1,2,0:2:0:0:
272,333,10664,2,0,L|274:277,1,55.4999983062745,8|0,0:3|0:0,0:0:0:0:
380,82,10818,1,10,0:0:0:0:
381,110,10895,1,8,0:0:0:0:
383,137,10972,1,8,0:0:0:0:
502,343,11126,6,0,B|378:398|398:278|272:333,1,242.81250231564,6|0,3:2|0:0,0:0:0:0:
190,382,11433,5,0,3:2:0:0:
30,241,11587,2,0,P|71:285|100:337,1,110.999996612549,10|0,0:0|0:0,0:0:0:0:
272,149,11895,1,2,3:2:0:0:
107,73,12049,1,0,3:2:0:0:
272,333,12203,6,0,B|298:280|263:235|263:235|207:238|184:290,1,208.125007939339,10|0,0:2|0:0,0:0:0:0:
190,382,12510,5,2,3:2:0:0:
379,280,12664,1,0,3:2:0:0:
113,165,12818,1,10,0:2:0:0:
268,38,12972,2,0,L|272:149,1,110.999996612549,2|0,0:0|3:2,0:0:0:0:
455,239,13280,2,0,L|458:128,1,110.999996612549,2|8,3:2|0:2,0:0:0:0:
291,342,13587,1,2,3:2:0:0:
286,310,13664,1,0,3:2:0:0:
285,277,13741,6,0,L|280:212,1,55.4999983062745,14|0,0:2|0:0,0:0:0:0:
268,38,13895,1,2,3:2:0:0:
114,302,14049,6,0,L|117:246,1,55.4999983062745,14|0,0:2|0:0,0:0:0:0:
131,63,14203,1,2,3:2:0:0:
459,128,14357,6,0,L|394:132,1,55.4999983062745,10|0,0:2|0:0,0:0:0:0:
62,250,14510,2,0,L|118:247,1,55.4999983062745,10|0,0:2|0:0,0:0:0:0:
260,189,14664,1,0,3:2:0:0:
136,7,14818,6,0,L|131:63,1,55.4999983062745,14|0,0:2|0:0,0:0:0:0:
216,348,14972,2,0,L|220:293,1,55.4999983062745,12|0,0:2|0:0,0:0:0:0:
177,179,15126,1,0,3:2:0:0:
357,75,15280,6,0,L|301:79,1,55.4999983062745,4|0,0:3|0:0,0:0:0:0:
30,58,15433,1,2,3:2:0:0:
81,46,15510,1,2,0:0:0:0:
131,63,15587,6,0,B|147:103|147:103|123:160,1,80.9375007718802,10|0,0:0|0:0,0:0:0:0:
46,378,15741,2,0,B|30:338|30:338|45:304,1,80.9375007718802,10|0,0:0|0:0,0:0:0:0:
45,304,16203,6,0,P|77:318|111:323,1,69.3750026464463,2|0,0:2|0:0,0:0:0:0:
176,364,16510,1,2,0:2:0:0:
176,364,16664,2,0,P|204:343|225:316,1,69.3750026464463,2|0,0:2|0:0,0:0:0:0:
292,281,16972,2,0,P|288:246|275:214,1,69.3750026464463,2|0,0:2|0:0,0:0:0:0:
278,139,17280,1,2,0:2:0:0:
148,80,17433,6,0,P|119:100|98:127,2,69.3750026464463,2|0|0,0:2|0:0|0:0,0:0:0:0:
230,72,17895,2,0,P|258:51|279:24,2,69.3750026464463,2|0|0,0:2|0:0|0:0,0:0:0:0:
278,139,18357,1,2,0:2:0:0:
360,131,18510,1,2,0:2:0:0:
459,72,18664,6,0,P|428:59|394:54,1,69.3750026464463,2|0,0:2|0:0,0:0:0:0:
360,131,18972,1,2,0:2:0:0:
360,131,19126,2,0,P|391:144|425:149,1,69.3750026464463,2|0,0:2|0:0,0:0:0:0:
510,248,19433,2,0,P|479:235|445:230,1,69.3750026464463,2|0,0:2|0:0,0:0:0:0:
410,306,19741,2,0,P|441:319|476:325,1,69.3750026464463,2|0,0:2|0:0,0:0:0:0:
362,238,20049,6,0,L|293:245,1,69.3750026464463,2|0,0:2|0:0,0:0:0:0:
225,293,20357,2,0,L|140:284,2,69.3750026464463,2|0|0,0:2|0:0|0:0,0:0:0:0:
300,327,20818,1,2,0:2:0:0:
232,375,20972,1,2,0:2:0:0:
293,245,21126,6,0,P|283:211|266:181,1,69.3750026464463,2|0,0:2|0:0,0:0:0:0:
190,144,21433,1,2,0:2:0:0:
52,183,21587,2,0,P|85:191|120:191,1,69.3750026464463,0|2,0:0|0:2,0:0:0:0:
190,144,21895,1,0,0:0:0:0:
228,5,22049,1,2,0:2:0:0:
228,5,22203,6,0,P|204:30|186:59,1,69.3750026464463,2|0,0:2|0:0,0:0:0:0:
330,106,22510,2,0,P|296:98|261:98,1,69.3750026464463,2|0,0:2|0:0,0:0:0:0:
293,245,22818,2,0,P|283:211|266:181,2,69.3750026464463,2|0|0,0:2|0:0|0:0,0:0:0:0:
234,304,23280,1,2,0:2:0:0:
86,274,23433,6,0,P|121:274|155:283,1,69.3750026464463,2|0,0:2|0:0,0:0:0:0:
255,384,23741,2,0,P|290:384|324:375,1,69.3750026464463,2|0,0:2|0:0,0:0:0:0:
441,286,24049,2,0,P|406:286|373:295,1,69.3750026464463,2|0,0:2|0:0,0:0:0:0:
293,245,24357,2,0,P|315:165|316:81,1,138.750005292893,2|2,0:0|0:2,0:0:0:0:
167,41,24828,6,0,L|173:100,1,60.1249972476961,2|0,0:2|0:0,0:0:0:0:
145,48,25055,2,0,L|151:107,1,60.1249972476961,2|0,0:2|0:0,0:0:0:0:
123,55,25282,2,0,L|129:114,1,60.1249972476961,2|0,0:2|0:0,0:0:0:0:
182,192,25463,6,0,L|175:251,1,46.25,2|0,0:2|0:0,0:0:0:0:
204,199,25683,2,0,L|197:258,1,46.25,2|0,0:0|0:0,0:0:0:0:
226,206,25904,2,0,L|219:265,1,46.25,2|0,0:0|0:0,0:0:0:0:
397,294,26052,6,0,B|261:273|312:384|178:363,1,242.81250231564,6|0,3:2|0:0,0:0:0:0:
94,306,26359,6,0,P|142:325|198:363,1,92.5,2|8,0:2|0:2,0:0:0:0:
308,165,26667,2,0,P|265:182|226:206,1,92.5,2|0,3:2|3:2,0:0:0:0:
129,114,26975,1,2,0:2:0:0:
312,61,27128,6,0,B|382:32|448:74|448:74|437:104|388:121,1,208.125007939339,10|0,0:2|0:0,0:0:0:0:
308,165,27436,6,0,L|198:147,1,92.5,2|8,3:2|0:2,0:0:0:0:
64,255,27744,1,2,0:2:0:0:
64,255,27821,1,2,0:0:0:0:
64,255,27898,1,2,3:2:0:0:
129,114,28052,1,2,3:2:0:0:
205,320,28205,2,0,B|253:331|253:331|307:318,1,92.5,8|2,0:2|0:2,0:0:0:0:
461,210,28513,6,0,P|417:223|379:249,1,92.5,0|2,3:2|0:2,0:0:0:0:
225,126,28821,1,8,0:2:0:0:
352,52,28975,1,2,0:2:0:0:
352,52,29052,1,2,0:0:0:0:
352,52,29128,1,2,3:2:0:0:
285,223,29282,2,0,P|207:211|117:215,1,138.75,2|0,3:2|0:0,0:0:0:0:
49,249,29590,6,0,P|100:250|146:230,1,92.5,10|0,0:2|0:0,0:0:0:0:
225,126,29898,1,0,3:2:0:0:
349,276,30052,2,0,L|342:368,1,92.5,8|0,0:2|0:0,0:0:0:0:
448,198,30359,1,2,3:2:0:0:
285,223,30513,1,0,3:2:0:0:
512,300,30667,1,8,0:2:0:0:
466,65,30821,1,8,0:2:0:0:
463,88,30898,1,8,0:2:0:0:
461,113,30975,6,0,B|347:138|384:40|270:66,1,208.125007939339,6|0,3:2|0:0,0:0:0:0:
199,92,31282,5,0,3:2:0:0:
119,281,31436,2,0,L|125:373,1,92.5,8|2,0:2|0:2,0:0:0:0:
285,223,31744,2,0,B|241:212|241:212|186:224,1,92.5,0|0,3:2|0:0,0:0:0:0:
32,150,32052,6,0,B|76:161|76:161|123:151,1,92.5,8|2,0:2|0:2,0:0:0:0:
199,92,32359,1,0,3:2:0:0:
284,313,32513,2,0,P|346:287|374:225,1,138.75,8|0,0:2|0:0,0:0:0:0:
351,154,32821,1,2,3:2:0:0:
194,222,32975,1,0,3:2:0:0:
356,24,33128,1,8,0:2:0:0:
424,169,33282,1,2,0:2:0:0:
126,77,33436,6,0,B|193:67|193:67|255:101|255:101|322:92,1,208.125007939339,6|0,3:2|0:0,0:0:0:0:
445,10,33744,6,0,P|399:9|355:24,1,92.5,8|0,0:2|0:0,0:0:0:0:
265,169,34052,1,0,3:2:0:0:
432,261,34205,1,8,0:2:0:0:
430,238,34282,1,8,0:2:0:0:
428,215,34359,2,0,L|424:169,1,46.25,8|0,0:2|0:0,0:0:0:0:
158,278,34513,6,0,B|272:252|235:349|348:324,1,208.125007939339,2|0,3:2|0:0,0:0:0:0:
315,246,34821,5,2,3:2:0:0:
142,372,34975,1,8,0:2:0:0:
48,150,35128,6,0,B|12:65|51:3|121:3|145:56,1,208.125007939339,6|0,3:2|0:0,0:0:0:0:
168,131,35436,5,8,0:3:0:0:
216,170,35513,1,8,0:3:0:0:
270,177,35590,1,8,0:3:0:0:
315,160,35667,1,8,0:3:0:0:
344,130,35744,1,4,0:3:0:0:
368,104,35821,1,4,0:3:0:0:
391,90,35898,6,0,P|446:90|511:99,1,110.999996612549,4|0,3:2|0:0,0:0:0:0:
512,252,36513,2,0,P|457:252|392:243,1,110.999996612549,2|2,0:2|0:2,0:0:0:0:
270,177,37128,5,2,0:2:0:0:
270,177,37282,2,0,P|227:173|209:177,1,55.4999983062745,0|0,0:0|0:0,0:0:0:0:
159,231,37590,2,0,P|171:177|147:129,1,110.999996612549,2|0,0:2|0:0,0:0:0:0:
39,187,38052,2,0,P|66:191|94:189,1,55.4999983062745,2|0,0:2|0:0,0:0:0:0:
176,83,38359,6,0,P|159:105|147:130,2,55.4999983062745,2|0|0,0:2|0:0|0:0,0:0:0:0:
250,58,38821,2,0,L|377:66,1,110.999996612549,2|0,0:2|0:0,0:0:0:0:
428,102,39282,1,2,0:2:0:0:
362,283,39590,5,2,0:2:0:0:
362,283,39744,2,0,P|358:213|348:124,2,110.999996612549,0|2|0,0:0|0:2|0:0,0:0:0:0:
303,334,40513,2,0,L|215:328,1,83.2499974594117,2|0,0:2|0:0,0:0:0:0:
181,338,40821,6,0,P|206:303|181:235,1,110.999996612549,2|2,0:2|0:2,0:0:0:0:
116,81,41436,2,0,P|91:116|116:184,1,110.999996612549,2|2,0:2|0:2,0:0:0:0:
266,79,42052,5,2,0:2:0:0:
266,79,42205,2,0,L|262:23,1,55.4999983062745,0|0,0:0|0:0,0:0:0:0:
218,140,42513,2,0,B|273:120|273:120|349:138,1,110.999996612549,2|0,0:2|0:0,0:0:0:0:
382,184,42975,2,0,P|442:183|468:174,1,83.2499974594117,2|0,0:2|0:0,0:0:0:0:
485,143,43282,6,0,B|493:212|493:212|474:250|474:250|496:308,2,166.499994918823,2|2|2,0:2|0:2|0:2,0:0:0:0:
382,184,44359,1,8,0:3:0:0:
382,184,44436,1,8,0:3:0:0:
382,184,44513,2,0,B|374:253|374:253|393:291|393:291|371:349,2,166.499994918823,8|8|4,0:3|0:3|0:3,0:0:0:0:
95,71,45744,5,6,3:2:0:0:
197,206,45898,1,2,0:2:0:0:
263,51,46052,1,2,3:2:0:0:
185,109,46205,1,2,0:2:0:0:
287,244,46359,2,0,L|281:347,1,92.5,2|0,3:2|0:0,0:0:0:0:
382,184,46667,2,0,L|376:91,1,92.5,0|2,3:2|0:2,0:0:0:0:
481,236,46975,5,2,3:2:0:0:
386,296,47128,1,2,0:2:0:0:
197,240,47282,2,0,B|243:231|243:231|287:244,1,92.5,2|0,3:2|0:0,0:0:0:0:
131,355,47590,5,2,3:2:0:0:
64,239,47744,2,0,L|69:175,1,46.25,8|2,0:2|0:2,0:0:0:0:
264,126,47898,5,0,3:2:0:0:
197,240,48052,2,0,L|202:304,1,46.25,10|0,0:2|0:0,0:0:0:0:
397,353,48205,5,0,3:2:0:0:
462,197,48359,1,2,0:2:0:0:
295,219,48513,1,2,3:2:0:0:
384,256,48667,1,2,0:2:0:0:
439,35,48821,2,0,L|450:131,1,92.5,2|0,3:2|0:0,0:0:0:0:
295,219,49128,2,0,L|305:127,1,92.5,0|2,3:2|0:2,0:0:0:0:
172,22,49436,5,2,3:2:0:0:
210,114,49590,1,2,0:2:0:0:
64,239,49744,2,0,L|53:147,1,92.5,2|0,3:2|0:0,0:0:0:0:
200,206,50052,2,0,L|194:251,1,46.25,2|0,3:2|0:0,0:0:0:0:
122,310,50205,1,8,0:3:0:0:
154,297,50282,1,8,0:3:0:0:
189,291,50359,1,8,0:3:0:0:
223,293,50436,1,8,0:3:0:0:
257,302,50513,2,0,L|302:296,1,46.25,4|0,0:3|0:0,0:0:0:0:
444,176,50667,6,0,L|438:259,1,55.4999983062745,12|0,0:2|0:0,0:0:0:0:
428,383,50821,1,2,3:2:0:0:
349,132,50975,6,0,L|355:215,1,55.4999983062745,14|0,0:2|0:0,0:0:0:0:
365,339,51128,1,2,3:2:0:0:
434,71,51282,5,10,0:2:0:0:
353,187,51436,1,4,0:3:0:0:
292,59,51590,1,4,0:3:0:0:
59,191,51744,6,0,L|115:196,1,55.4999983062745,14|0,0:2|0:0,0:0:0:0:
302,296,51898,1,2,3:2:0:0:
258,153,52052,1,2,3:2:0:0:
71,339,52205,6,0,L|66:283,1,55.4999983062745,14|0,0:2|0:0,0:0:0:0:
168,52,52359,1,10,0:2:0:0:
165,79,52436,1,8,0:2:0:0:
163,107,52513,5,10,0:2:0:0:
115,196,52667,1,8,0:3:0:0:
26,148,52821,1,4,0:3:0:0:
74,59,52975,1,2,3:2:0:0:
258,153,53128,6,0,L|314:148,1,55.4999983062745,14|0,0:2|0:0,0:0:0:0:
433,30,53282,1,8,0:2:0:0:
400,68,53359,1,8,0:2:0:0:
391,117,53436,1,8,0:2:0:0:
406,164,53513,1,8,0:2:0:0:
442,197,53590,1,8,0:2:0:0:
478,231,53667,1,8,0:2:0:0:
492,278,53744,5,8,0:2:0:0:
482,327,53821,1,8,0:2:0:0:
449,365,53898,1,8,0:2:0:0:
401,381,53975,1,8,0:2:0:0:
351,371,54052,1,8,0:2:0:0:
314,338,54128,1,8,0:2:0:0:
298,290,54205,6,0,P|299:262|308:236,1,55.4999983062745,2|0,3:2|0:0,0:0:0:0:
309,236,55282,5,2,0:2:0:0:
289,237,55359,1,2,0:2:0:0:
269,238,55436,1,2,0:2:0:0:
250,240,55513,1,2,0:2:0:0:
201,283,55590,6,0,B|256:157|136:177|191:53,1,242.81250231564,6|0,3:2|0:0,0:0:0:0:
244,3,55898,5,10,0:2:0:0:
377,104,56052,2,0,B|325:120|325:120|270:107,1,110.999996612549,2|0,0:2|3:2,0:0:0:0:
123,230,56359,1,2,0:2:0:0:
90,42,56513,1,8,0:2:0:0:
128,254,56667,6,0,P|131:318|126:375,1,110.999996612549,2|0,0:2|3:2,0:0:0:0:
269,217,56975,2,0,P|266:162|270:107,1,110.999996612549,2|8,0:2|0:2,0:0:0:0:
411,254,57282,1,2,0:2:0:0:
243,347,57436,1,2,3:2:0:0:
269,217,57590,1,0,0:0:0:0:
437,384,57744,1,8,0:2:0:0:
385,124,57898,1,0,0:0:0:0:
186,300,58052,6,0,B|116:329|50:287|50:287|61:257|110:240,1,208.125007939339,2|0,3:2|0:0,0:0:0:0:
189,195,58359,5,10,0:2:0:0:
340,365,58513,2,0,L|348:250,1,110.999996612549,2|0,0:2|3:2,0:0:0:0:
181,84,58821,2,0,L|189:195,1,110.999996612549,2|8,0:2|0:2,0:0:0:0:
476,107,59128,1,2,0:2:0:0:
476,107,59205,1,2,0:0:0:0:
476,107,59282,6,0,B|366:70|392:171|282:134,1,208.125007939339,2|0,3:2|0:0,0:0:0:0:
323,52,59590,5,8,0:2:0:0:
435,189,59744,1,0,0:0:0:0:
266,355,59898,2,0,L|274:245,1,110.999996612549,2|0,3:2|0:0,0:0:0:0:
108,94,60205,1,10,0:2:0:0:
60,216,60359,1,8,0:2:0:0:
61,243,60436,1,8,0:2:0:0:
63,271,60513,5,0,3:2:0:0:
166,285,60667,2,0,L|169:229,1,55.4999983062745,2|0,0:3|0:0,0:0:0:0:
124,98,60821,5,10,0:2:0:0:
227,84,60975,2,0,L|231:140,1,55.4999983062745,2|0,0:3|0:0,0:0:0:0:
166,285,61128,5,2,3:2:0:0:
270,300,61282,2,0,L|274:245,1,55.4999983062745,2|0,0:3|0:0,0:0:0:0:
227,84,61436,5,10,0:2:0:0:
330,70,61590,2,0,L|333:125,1,55.4999983062745,2|0,0:3|0:0,0:0:0:0:
270,300,61744,5,2,3:2:0:0:
374,315,61898,2,0,L|377:259,1,55.4999983062745,2|0,0:3|0:0,0:0:0:0:
330,70,62052,5,10,0:2:0:0:
433,56,62205,2,0,L|436:111,1,55.4999983062745,2|0,0:3|0:0,0:0:0:0:
374,315,62359,5,8,0:3:0:0:
228,196,62513,1,8,0:2:0:0:
229,168,62590,1,8,0:2:0:0:
231,140,62667,2,0,L|234:84,1,55.4999983062745,8|0,0:2|0:0,0:0:0:0:
39,285,62821,6,0,B|118:273|118:273|191:311|191:311|270:300,1,242.81250231564,6|0,3:2|0:0,0:0:0:0:
377,259,63128,1,2,3:2:0:0:
238,3,63282,6,0,L|234:84,1,80.9375007718802,14|0,0:2|0:0,0:0:0:0:
118,273,63436,1,0,3:2:0:0:
505,160,63590,2,0,B|379:105|399:225|275:170,1,242.81250231564,14|0,0:2|0:0,0:0:0:0:
325,21,63898,6,0,L|329:91,1,69.3750026464463,2|0,3:2|0:0,0:0:0:0:
452,238,64052,2,0,L|448:307,1,69.3750026464463,2|0,3:2|0:0,0:0:0:0:
96,183,64205,6,0,L|177:179,1,80.9375007718802,14|0,0:2|0:0,0:0:0:0:
416,77,64359,1,0,3:2:0:0:
292,360,64513,2,0,B|237:234|357:254|302:130,1,242.81250231564,14|0,0:2|0:0,0:0:0:0:
233,81,64821,6,0,L|152:85,1,69.3750026464463,4|0,0:3|0:0,0:0:0:0:
379,228,64975,1,10,0:2:0:0:
344,226,65052,1,8,0:2:0:0:
309,224,65128,2,0,L|239:220,1,69.3750026464463,8|0,0:2|0:0,0:0:0:0:
505,58,65282,1,10,0:2:0:0:
470,60,65359,1,8,0:2:0:0:
435,62,65436,6,0,B|380:188|500:168|445:292,1,242.81250231564,6|0,3:2|0:0,0:0:0:0:
393,343,65744,5,10,0:2:0:0:
240,221,65898,2,0,L|250:110,1,110.999996612549,2|0,0:2|3:2,0:0:0:0:
139,268,66205,1,2,0:2:0:0:
298,378,66359,1,8,0:2:0:0:
115,272,66513,6,0,B|61:260|61:260|2:278,1,110.999996612549,2|0,0:2|3:2,0:0:0:0:
240,221,66821,2,0,B|294:233|294:233|353:215,1,110.999996612549,2|8,0:2|0:2,0:0:0:0:
250,110,67128,1,2,0:2:0:0:
115,272,67282,1,2,3:2:0:0:
48,19,67436,2,0,L|35:145,1,110.999996612549,2|8,0:2|0:2,0:0:0:0:
115,318,67744,1,2,0:2:0:0:
438,208,67898,6,0,B|371:198|371:198|308:231|308:231|240:221,1,208.125007939339,2|0,3:2|0:0,0:0:0:0:
172,171,68205,5,8,0:2:0:0:
362,33,68359,2,0,P|338:83|323:137,1,110.999996612549,2|0,0:2|3:2,0:0:0:0:
279,324,68667,2,0,P|262:270|239:220,1,110.999996612549,2|8,0:2|0:2,0:0:0:0:
5,131,68975,1,2,0:2:0:0:
5,131,69052,1,2,0:0:0:0:
5,131,69128,6,0,P|28:226|126:241,1,208.125007939339,2|0,3:2|0:0,0:0:0:0:
195,154,69436,6,0,B|143:145|143:145|88:161,1,110.999996612549,8|0,0:2|0:0,0:0:0:0:
140,329,69744,1,2,3:2:0:0:
341,251,69898,1,8,0:3:0:0:
88,161,70052,1,10,0:2:0:0:
393,83,70205,1,8,0:2:0:0:
393,110,70282,1,8,0:2:0:0:
393,138,70359,5,4,3:2:0:0:
298,180,70513,2,0,L|296:105,1,55.4999983062745,2|0,0:3|0:0,0:0:0:0:
258,55,70667,5,10,0:2:0:0:
163,13,70821,2,0,L|161:88,1,55.4999983062745,2|0,0:3|0:0,0:0:0:0:
123,138,70975,5,2,3:2:0:0:
28,180,71128,2,0,L|26:105,1,55.4999983062745,2|0,0:3|0:0,0:0:0:0:
112,242,71282,5,10,0:2:0:0:
207,284,71436,2,0,L|209:209,1,55.4999983062745,2|0,0:3|0:0,0:0:0:0:
247,159,71590,5,2,3:2:0:0:
342,117,71744,2,0,L|344:192,1,55.4999983062745,2|0,0:3|0:0,0:0:0:0:
382,242,71898,5,10,0:2:0:0:
477,284,72052,2,0,L|479:209,1,55.4999983062745,2|0,0:3|0:0,0:0:0:0:
342,117,72205,6,0,L|343:172,1,55.4999983062745,0|0,3:2|0:0,0:0:0:0:
208,339,72359,1,8,0:2:0:0:
207,311,72436,1,8,0:2:0:0:
207,284,72513,2,0,L|209:209,1,55.4999983062745,8|0,0:2|0:0,0:0:0:0:
25,80,72667,6,0,B|-11:138|25:195|25:195|91:197|123:138,1,242.81250231564,6|0,3:2|0:0,0:0:0:0:
173,57,72975,1,2,3:2:0:0:
423,177,73128,6,0,L|343:172,1,80.9375007718802,14|0,0:2|0:0,0:0:0:0:
105,249,73282,1,0,3:2:0:0:
354,349,73436,2,0,B|427:379|510:336|510:336|497:303|448:290,1,242.81250231564,14|0,0:2|0:0,0:0:0:0:
349,261,73744,6,0,L|262:270,1,69.3750026464463,2|0,3:2|0:0,0:0:0:0:
183,346,73898,2,0,L|96:337,1,69.3750026464463,2|0,3:2|0:0,0:0:0:0:
1,156,74052,6,0,L|86:160,1,80.9375007718802,14|0,0:2|0:0,0:0:0:0:
343,172,74205,1,0,3:2:0:0:
2,278,74359,6,0,L|82:274,1,80.9375007718802,14|0,0:2|0:0,0:0:0:0:
349,261,74513,1,0,3:2:0:0:
195,51,74667,5,8,0:3:0:0:
193,85,74744,1,8,0:3:0:0:
192,120,74821,1,4,0:3:0:0:
190,154,74898,1,4,0:3:0:0:
189,188,74975,2,0,L|192:258,1,69.3750026464463,8|0,0:2|0:0,0:0:0:0:
429,174,75128,6,0,B|464:154|478:127|478:127|399:84|311:124,1,242.81250231564,4|0,3:2|0:0,0:0:0:0:
274,198,75436,5,0,3:2:0:0:
453,329,75590,2,0,P|389:300|336:300,1,110.999996612549,10|0,0:2|0:0,0:0:0:0:
120,343,75898,2,0,P|175:338|224:313,1,110.999996612549,2|0,3:2|0:0,0:0:0:0:
89,104,76205,1,10,0:2:0:0:
44,257,76359,1,2,0:2:0:0:
311,124,76513,6,0,B|294:64|235:53|235:53|191:96|211:155,1,221.999993225098,2|8,3:2|0:2,0:0:0:0:
287,226,76975,1,2,0:2:0:0:
458,56,77128,2,0,P|427:102|411:155,1,110.999996612549,0|0,3:2|0:0,0:0:0:0:
481,370,77436,6,0,B|350:406|386:290|256:326,1,242.81250231564,14|0,0:2|0:0,0:0:0:0:
169,361,77744,6,0,L|127:278,1,55.4999983062745,14|0,0:2|0:0,0:0:0:0:
85,195,77898,2,0,L|110:244,1,55.4999983062745,8|0,0:2|0:0,0:0:0:0:
256,326,78052,6,0,L|236:264,1,64.7499980239869,8|0,0:2|0:0,0:0:0:0:
182,93,78205,2,0,L|201:154,1,64.7499980239869,10|0,0:2|0:0,0:0:0:0:
349,322,78359,6,0,L|335:231,1,74,8|0,0:2|0:0,0:0:0:0:
307,32,78513,2,0,L|317:105,1,74,8|0,0:2|0:0,0:0:0:0:
437,350,78667,6,0,L|439:266,1,83.2499974594117,10|0,0:2|0:0,0:0:0:0:
444,16,78821,2,0,L|442:99,1,83.2499974594117,8|0,0:2|0:0,0:0:0:0:
414,183,78975,6,0,L|469:184,2,55.4999983062745,2|2|2,0:2|0:2|0:2,0:0:0:0:
330,180,79451,1,2,0:2:0:0:
236,264,79590,5,2,0:2:0:0:
236,264,79743,2,0,P|245:206|231:159,1,83.2499974594117,2|2,0:2|0:2,0:0:0:0:
162,139,80051,6,0,P|250:153|187:41,1,242.81250231564,6|0,3:2|0:0,0:0:0:0:
146,53,80358,5,0,3:2:0:0:
77,256,80512,2,0,L|88:380,1,110.999996612549,14|0,0:2|0:0,0:0:0:0:
236,264,80820,1,2,3:2:0:0:
67,145,80974,1,0,3:2:0:0:
399,100,81128,6,0,B|289:63|315:164|205:127,1,208.125007939339,14|0,0:2|0:0,0:0:0:0:
146,53,81435,5,2,3:2:0:0:
236,264,81589,1,0,3:2:0:0:
489,131,81743,1,14,0:2:0:0:
399,342,81897,2,0,L|389:231,1,110.999996612549,2|0,0:2|3:2,0:0:0:0:
315,73,82205,1,2,3:2:0:0:
227,294,82358,1,8,0:2:0:0:
8,115,82512,6,0,B|-8:48|43:5|43:5|106:24|119:90,1,242.81250231564,6|0,3:2|0:0,0:0:0:0:
80,178,82820,5,0,3:2:0:0:
315,73,82974,2,0,P|281:112|253:171,1,110.999996612549,12|0,0:2|0:0,0:0:0:0:
218,324,83281,1,0,3:2:0:0:
389,231,83435,1,0,3:2:0:0:
37,229,83589,6,0,B|104:219|104:219|166:253|166:253|236:244,1,208.125007939339,12|0,0:2|0:0,0:0:0:0:
315,220,83897,5,2,3:2:0:0:
139,348,84051,1,2,3:2:0:0:
79,87,84205,1,14,0:2:0:0:
236,244,84358,1,2,3:2:0:0:
409,24,84512,1,8,0:2:0:0:
410,58,84589,1,8,0:2:0:0:
412,95,84666,1,10,0:2:0:0:
414,133,84743,1,8,0:2:0:0:
418,169,84820,1,8,0:2:0:0:
420,206,84897,1,8,0:2:0:0:
465,253,84974,6,0,B|345:187|355:309|236:244,1,242.81250231564,6|0,3:2|0:0,0:0:0:0:
172,189,85281,5,0,3:2:0:0:
17,382,85435,2,0,L|3:233,1,110.999996612549,14|0,0:2|0:0,0:0:0:0:
123,127,85743,1,2,3:2:0:0:
209,353,85897,1,0,3:2:0:0:
345,77,86051,6,0,B|332:33|305:24|305:24|251:79|281:158,1,208.125007939339,14|0,0:2|0:0,0:0:0:0:
311,246,86358,5,2,3:2:0:0:
431,116,86512,1,0,3:2:0:0:
172,189,86666,1,14,0:2:0:0:
343,339,86820,2,0,B|396:354|396:354|470:329,1,110.999996612549,2|0,0:2|3:2,0:0:0:0:
320,136,87128,2,0,L|311:247,1,110.999996612549,2|12,3:2|0:2,0:0:0:0:
150,382,87435,1,2,3:2:0:0:
147,354,87512,1,0,3:2:0:0:
145,326,87589,6,0,L|140:270,1,55.4999983062745,14|0,0:2|0:0,0:0:0:0:
125,90,87743,1,2,3:2:0:0:
301,372,87897,6,0,L|305:316,1,55.4999983062745,14|0,0:2|0:0,0:0:0:0:
320,136,88051,1,2,3:2:0:0:
39,186,88205,6,0,L|107:191,1,55.4999983062745,14|0,0:2|0:0,0:0:0:0:
421,220,88358,2,0,L|352:214,1,55.4999983062745,14|0,0:2|0:0,0:0:0:0:
230,203,88512,1,0,3:2:0:0:
422,59,88666,6,0,L|426:114,1,55.4999983062745,14|0,0:2|0:0,0:0:0:0:
309,371,88820,2,0,L|305:316,1,55.4999983062745,14|0,0:2|0:0,0:0:0:0:
365,215,88974,1,0,3:2:0:0:
202,12,89128,6,0,L|207:68,1,55.4999983062745,14|0,0:2|0:2,0:0:0:0:
22,281,89281,1,2,3:2:0:0:
10,230,89358,1,2,0:2:0:0:
39,186,89435,6,0,B|76:176|76:176|118:181,1,80.9375007718802,10|0,0:2|0:0,0:0:0:0:
388,366,89589,2,0,B|352:377|352:377|309:371,1,80.9375007718802,10|0,0:2|0:0,0:0:0:0:
