osu file format v14

[General]
AudioFilename: audio.mp3
AudioLeadIn: 0
PreviewTime: 54590
Countdown: 0
SampleSet: Soft
StackLeniency: 0.4
Mode: 0
LetterboxInBreaks: 0
WidescreenStoryboard: 0

[Editor]
Bookmarks: 205,6203,16203,26052,35898,45744,55590,65436,75128,80051,89589
DistanceSpacing: 1
BeatDivisor: 4
GridSize: 4
TimelineZoom: 2.899999

[Metadata]
Title:MIIRO
TitleUnicode:海色
Artist:Roselia
ArtistUnicode:Roselia
Creator:lit120
Version:Hard
Source:バンドリ! ガールズバンドパーティ!
Tags:BanG Dream! Girls Band Party bandori garupa ガルパ ロゼリア kantai collection kancolle AKINO from with bless4 艦隊これくしょん -艦これ- cover op opening game size minato yukina 湊友希那 aiba aina 相羽あいな hikawa sayo 氷川紗夜 kudou haruka 工藤晴香 imai lisa 今井リサ nakashima yuki 中島由貴 udagawa ako 宇田川あこ sakuragawa megu 櫻川めぐ shirokane rinko 白金燐子 shizaki kanon 志崎樺音 anime video game japanese tatoe -Hakurei- Moecho eINess lolia Karia Venix Tarrasky HabiHolic Stingy
BeatmapID:2094984
BeatmapSetID:1000885

[Difficulty]
HPDrainRate:6
CircleSize:4
OverallDifficulty:6
ApproachRate:8
SliderMultiplier:1.4
SliderTickRate:1

[Events]
//Background and Video events
0,0,"miiro.jpg",0,0
//Break Periods
//Storyboard Layer 0 (Background)
//Storyboard Layer 1 (Fail)
//Storyboard Layer 2 (Pass)
//Storyboard Layer 3 (Foreground)
//Storyboard Layer 4 (Overlay)
//Storyboard Sound Samples

[TimingPoints]
205,307.692307692308,4,2,1,50,1,0
205,-133.333333333333,4,2,1,50,0,0
1281,-133.333333333333,4,2,1,70,0,0
2666,-133.333333333333,4,2,1,50,0,0
3897,314.13612565445,4,2,1,70,1,0
3897,-133.333333333333,4,2,1,40,0,0
5742,307.692307692308,4,2,1,40,1,0
6203,-100,4,2,1,90,0,1
6357,307.692307692308,4,2,1,90,1,1
15741,-100,4,2,1,100,0,0
16203,-133.333333333333,4,2,1,60,0,0
24666,324.324324324324,4,2,1,60,1,0
24828,303.030303030303,4,2,1,40,1,0
25282,363.636363636364,4,2,1,40,1,0
25463,294.117647058824,4,2,1,40,1,0
25904,300,4,2,1,40,1,0
26052,307.692307692308,4,2,1,80,1,0
35898,-133.333333333333,4,2,1,40,0,0
44513,-133.333333333333,4,2,1,60,0,0
45744,-100,4,2,1,70,0,0
48205,-100,4,2,1,80,0,0
50667,-100,4,2,1,90,0,0
55282,-100,4,2,1,60,0,0
55590,-100,4,2,1,90,0,1
75128,-100,4,2,1,80,0,1
78052,-100,4,2,1,90,0,1
78975,317.460317460317,4,2,1,60,1,0
78975,-133.333333333333,4,2,1,60,0,0
79590,307.692307692308,4,2,1,80,1,0
79590,-133.333333333333,4,2,1,80,0,0
80051,-100,4,2,1,90,0,1
80205,307.692307692308,4,2,1,90,1,1
89589,-100,4,2,1,90,0,0

[Colours]
Combo1 : 184,109,149
Combo2 : 240,58,105
Combo3 : 96,150,249
Combo4 : 206,112,74

[HitObjects]
147,171,205,5,2,0:0:0:0:
147,171,512,2,0,L|161:55,2,105.000004005432,2|2|2,0:0|0:0|0:0,0:0:0:0:
181,247,1281,1,2,0:0:0:0:
257,213,1435,2,0,P|325:207|396:222,1,105.000004005432,2|0,0:0|0:0,0:0:0:0:
416,275,1897,2,0,P|387:336|338:390,1,105.000004005432,2|0,0:0|0:0,0:0:0:0:
282,381,2358,2,0,L|197:373,1,52.5000020027161,2|0,0:0|0:0,0:0:0:0:
163,323,2666,6,0,B|106:315|106:315|68:343|68:343|-8:343,2,157.500006008148,2|2|2,0:0|0:0|0:0,0:0:0:0:
320,263,3897,6,0,L|420:268,2,52.5000020027161,2|2|2,0:0|0:0|0:0,0:0:0:0:
260,203,4368,2,0,L|160:198,2,52.5000020027161,2|2|2,0:0|0:0|0:0,0:0:0:0:
320,143,4839,2,0,L|420:148,2,52.5000020027161,2|2|2,0:0|0:0|0:0,0:0:0:0:
260,83,5310,2,0,L|160:78,2,52.5000020027161,2|2|2,0:0|0:0|0:0,0:0:0:0:
260,83,6203,6,0,P|341:52|436:73,1,140,4|0,3:2|3:2,0:0:0:0:
451,116,6664,2,0,L|458:203,1,70,10|0,0:2|0:0,0:0:0:0:
510,251,6972,2,0,L|503:338,1,70,2|0,3:2|3:2,0:0:0:0:
436,370,7280,2,0,P|369:363|337:346,1,70,10|0,0:2|0:0,0:0:0:0:
313,296,7587,6,0,P|246:303|214:320,1,70,2|0,3:2|3:2,0:0:0:0:
183,362,7895,1,10,0:2:0:0:
124,300,8049,2,0,L|134:213,1,70,2|0,0:2|3:2,0:0:0:0:
191,172,8357,2,0,L|181:84,1,70,2|8,3:2|0:2,0:0:0:0:
216,24,8664,6,0,P|160:60|78:48,1,140,6|0,3:2|3:2,0:0:0:0:
5,40,9126,2,0,P|55:88|67:156,1,140,8|0,0:2|3:2,0:0:0:0:
6,212,9587,1,0,3:2:0:0:
62,275,9741,2,0,L|58:361,1,70,8|2,0:2|0:2,0:0:0:0:
134,382,10049,6,0,P|191:380|216:373,1,70,2|2,3:2|3:2,0:0:0:0:
284,354,10357,1,10,0:2:0:0:
286,270,10510,2,0,L|281:173,1,70,2|8,0:2|0:3,0:0:0:0:
238,127,10818,1,10,0:2:0:0:
238,127,10895,1,8,0:2:0:0:
238,127,10972,1,8,0:2:0:0:
162,165,11126,6,0,P|214:208|282:200,1,140,6|0,3:2|3:2,0:0:0:0:
322,125,11587,2,0,L|321:41,1,70,10|0,0:2|0:0,0:0:0:0:
401,26,11895,2,0,L|402:95,1,70,2|0,3:2|3:2,0:0:0:0:
452,164,12203,2,0,L|453:233,1,70,10|0,0:2|0:0,0:0:0:0:
396,295,12510,6,0,P|355:284|319:252,1,70,2|0,3:2|3:2,0:0:0:0:
282,200,12818,1,10,0:2:0:0:
231,268,12972,2,0,P|201:287|168:295,1,70,2|0,0:2|3:2,0:0:0:0:
93,256,13280,2,0,P|73:226|66:192,1,70,2|8,3:2|0:2,0:0:0:0:
105,117,13587,1,2,3:2:0:0:
105,117,13664,1,0,3:2:0:0:
105,117,13741,6,0,P|134:97|168:90,1,70,14|2,0:2|3:2,0:0:0:0:
244,129,14049,2,0,P|277:121|307:102,1,70,14|2,0:2|3:2,0:0:0:0:
350,30,14357,1,10,0:2:0:0:
422,72,14510,2,0,L|424:163,1,70,10|0,0:2|3:2,0:0:0:0:
454,220,14818,1,14,0:2:0:0:
376,251,14972,6,0,P|342:240|308:237,1,70,14|0,0:2|3:2,0:0:0:0:
237,282,15280,1,4,0:3:0:0:
312,323,15433,1,2,3:2:0:0:
312,323,15510,1,2,0:2:0:0:
312,323,15587,1,10,0:2:0:0:
308,237,15741,1,10,0:2:0:0:
308,237,16203,6,0,L|304:110,1,105.000004005432,2|2,0:2|0:2,0:0:0:0:
236,84,16664,2,0,P|200:107|176:113,1,52.5000020027161,2|0,0:2|0:0,0:0:0:0:
106,113,16972,2,0,P|81:123|60:138,1,52.5000020027161,2|0,0:2|0:0,0:0:0:0:
35,219,17280,1,2,0:2:0:0:
103,268,17433,6,0,P|41:272|6:317,1,105.000004005432,2|0,0:2|0:0,0:0:0:0:
61,369,17895,2,0,L|209:356,1,105.000004005432,2|0,0:2|0:0,0:0:0:0:
214,291,18357,1,2,0:2:0:0:
298,291,18510,1,2,0:2:0:0:
346,359,18664,6,0,L|451:369,1,105.000004005432,2|2,0:2|0:2,0:0:0:0:
499,300,19126,2,0,P|497:263|492:237,1,52.5000020027161,2|0,0:2|0:0,0:0:0:0:
420,208,19433,2,0,P|422:170|427:144,1,52.5000020027161,2|0,0:2|0:0,0:0:0:0:
500,117,19741,2,0,P|497:79|492:53,1,52.5000020027161,2|0,0:2|0:0,0:0:0:0:
421,24,20049,6,0,L|341:32,1,52.5000020027161,2|0,0:2|0:0,0:0:0:0:
305,85,20357,2,0,L|200:74,1,105.000004005432,2|0,0:2|0:0,0:0:0:0:
137,17,20818,1,2,0:2:0:0:
80,80,20972,6,0,P|76:139|80:218,1,105.000004005432,2|0,0:2|0:0,0:0:0:0:
137,242,21433,2,0,P|178:239|194:234,1,52.5000020027161,2|0,0:2|0:0,0:0:0:0:
250,177,21741,2,0,P|291:180|307:185,1,52.5000020027161,2|0,0:2|0:0,0:0:0:0:
357,246,22049,1,2,0:2:0:0:
294,301,22203,6,0,L|294:366,1,52.5000020027161,2|0,0:2|0:0,0:0:0:0:
214,381,22510,2,0,P|190:369|164:363,1,52.5000020027161,2|0,0:2|0:0,0:0:0:0:
80,370,22818,2,0,P|39:356|13:290,1,105.000004005432,2|0,0:2|0:0,0:0:0:0:
0,220,23280,1,2,0:2:0:0:
77,184,23433,6,0,L|149:190,1,52.5000020027161,2|0,0:2|0:0,0:0:0:0:
205,225,23741,2,0,L|276:219,1,52.5000020027161,2|0,0:2|0:0,0:0:0:0:
326,173,24049,2,0,P|362:219|427:237,1,105.000004005432,2|0,0:2|0:0,0:0:0:0:
476,193,24510,2,0,P|475:122|471:107,1,52.5000020027161,2|2,0:2|0:2,0:0:0:0:
416,82,24828,6,0,B|469:85|469:85|518:64,2,105,2|2|2,0:2|0:2|0:2,0:0:0:0:
349,35,25463,2,0,B|296:32|296:32|247:53,2,105,2|2|2,0:2|0:2|0:2,0:0:0:0:
342,117,26052,6,0,P|264:138|176:108,1,140,6|2,3:2|0:2,0:0:0:0:
153,61,26513,1,8,0:2:0:0:
87,115,26667,2,0,B|88:201,1,70,2|0,3:2|3:2,0:0:0:0:
116,264,26975,1,2,0:2:0:0:
192,229,27128,6,0,P|246:228|276:239,1,70,10|0,0:2|0:0,0:0:0:0:
324,288,27436,2,0,P|325:342|314:372,1,70,2|8,3:2|0:2,0:0:0:0:
240,382,27744,2,0,L|156:374,1,70,2|0,0:2|3:2,0:0:0:0:
90,345,28052,2,0,L|20:351,1,70,2|8,3:2|0:2,0:0:0:0:
46,270,28359,6,0,L|116:264,1,70,2|0,0:2|3:2,0:0:0:0:
192,229,28667,2,0,P|198:194|195:160,1,70,2|8,0:2|0:2,0:0:0:0:
125,111,28975,2,0,P|121:76|128:42,1,70,2|0,0:2|3:2,0:0:0:0:
204,7,29282,2,0,L|273:0,1,70,2|0,3:2|0:0,0:0:0:0:
326,66,29590,6,0,P|395:68|454:32,1,140,10|0,0:2|3:2,0:0:0:0:
505,99,30052,2,0,P|480:137|471:192,1,70,8|0,0:2|0:0,0:0:0:0:
496,240,30359,2,0,P|437:203|368:203,1,140,2|8,3:2|0:2,0:0:0:0:
289,234,30821,1,8,0:2:0:0:
289,234,30898,1,8,0:2:0:0:
289,234,30975,6,0,L|123:227,1,140,6|0,3:2|3:2,0:0:0:0:
83,175,31436,1,8,0:2:0:0:
16,227,31590,2,0,P|4:306|26:381,1,140,2|0,0:2|0:0,0:0:0:0:
100,383,32052,1,8,0:2:0:0:
158,322,32205,6,0,L|227:324,1,70,2|0,0:2|3:2,0:0:0:0:
290,381,32513,2,0,L|359:378,1,70,8|0,0:2|0:0,0:0:0:0:
420,319,32821,1,2,3:2:0:0:
360,258,32975,1,0,3:2:0:0:
421,199,33128,2,0,P|421:133|409:91,1,70,8|2,0:2|0:2,0:0:0:0:
359,70,33436,6,0,L|274:80,1,70,6|0,3:2|0:0,0:0:0:0:
221,128,33744,2,0,L|136:118,1,70,8|0,0:2|0:0,0:0:0:0:
94,57,34052,1,0,3:2:0:0:
31,114,34205,1,8,0:2:0:0:
31,114,34282,1,8,0:2:0:0:
31,114,34359,1,8,0:2:0:0:
88,176,34513,6,0,P|92:232|88:277,1,70,2|0,3:2|0:0,0:0:0:0:
38,312,34821,1,2,3:2:0:0:
103,365,34975,1,8,0:2:0:0:
157,300,35128,2,0,P|212:296|257:300,1,70,6|0,3:2|0:0,0:0:0:0:
311,304,35436,1,8,0:3:0:0:
311,304,35513,1,8,0:3:0:0:
311,304,35590,2,0,L|348:343,2,35,8|8|4,0:3|0:3|0:3,0:0:0:0:
342,226,35898,6,0,L|346:122,1,105.000004005432,4|0,3:2|0:0,0:0:0:0:
211,19,36513,2,0,L|207:123,1,105.000004005432,2|2,0:2|0:2,0:0:0:0:
91,245,37128,1,2,0:2:0:0:
91,245,37282,2,0,P|146:227|205:223,2,105.000004005432,0|2|0,0:0|0:2|0:0,0:0:0:0:
12,216,38052,2,0,P|42:186|58:155,1,52.5000020027161,2|0,0:2|0:0,0:0:0:0:
41,93,38359,6,0,P|91:139|161:140,1,105.000004005432,2|0,0:2|0:0,0:0:0:0:
207,124,38821,2,0,P|256:138|291:177,1,105.000004005432,2|0,0:2|0:0,0:0:0:0:
301,260,39282,2,0,L|301:325,1,52.5000020027161,2|0,0:2|0:0,0:0:0:0:
254,382,39590,5,2,0:2:0:0:
254,382,39744,2,0,P|320:363|377:371,1,105.000004005432,0|2,0:0|0:2,0:0:0:0:
473,245,40359,1,0,0:0:0:0:
473,245,40513,2,0,L|471:172,1,52.5000020027161,2|0,0:2|0:0,0:0:0:0:
435,116,40821,5,2,0:2:0:0:
289,32,41128,1,2,0:2:0:0:
205,178,41436,1,2,0:2:0:0:
351,262,41744,1,2,0:2:0:0:
206,347,42052,5,2,0:2:0:0:
206,347,42205,2,0,L|112:337,1,52.5000020027161,0|0,0:0|0:0,0:0:0:0:
73,367,42513,2,0,P|114:292|100:238,1,105.000004005432,2|0,0:2|0:0,0:0:0:0:
70,202,42975,2,0,P|64:163|66:141,1,52.5000020027161,2|0,0:2|0:0,0:0:0:0:
133,101,43282,6,0,B|70:112|70:112|32:96|32:96|-27:133,2,157.500006008148,2|2|2,0:2|0:2|0:2,0:0:0:0:
208,63,44359,1,8,0:3:0:0:
208,63,44436,1,8,0:3:0:0:
208,63,44513,2,0,B|271:74|271:74|309:58|309:58|368:95,2,157.500006008148,8|8|4,0:3|0:3|0:3,0:0:0:0:
199,230,45744,5,6,3:2:0:0:
256,291,45898,2,0,L|256:361,2,70,2|2|2,0:2|3:2|0:2,0:0:0:0:
313,230,46359,2,0,P|380:227|433:291,1,140,2|0,3:2|3:2,0:0:0:0:
450,356,46821,1,2,0:2:0:0:
510,298,46975,6,0,L|510:213,1,70,2|2,3:2|0:2,0:0:0:0:
455,163,47282,2,0,L|455:78,1,70,2|0,3:2|0:0,0:0:0:0:
400,28,47590,2,0,P|455:42|517:12,2,105,2|2|10,3:2|0:2|0:2,0:0:0:0:
339,86,48205,5,0,3:2:0:0:
281,25,48359,2,0,L|200:18,2,70,2|2|2,0:2|3:2|0:2,0:0:0:0:
339,86,48821,2,0,P|267:123|199:108,1,140,2|0,3:2|3:2,0:0:0:0:
140,68,49282,1,2,0:2:0:0:
93,139,49436,6,0,L|97:217,1,70,2|2,3:2|0:2,0:0:0:0:
178,229,49744,2,0,L|174:306,1,70,2|0,3:2|0:0,0:0:0:0:
136,374,50052,1,2,3:2:0:0:
90,305,50205,1,8,0:3:0:0:
90,305,50282,1,8,0:3:0:0:
90,305,50359,2,0,L|61:273,2,35,8|8|4,0:3|0:3|0:3,0:0:0:0:
136,374,50667,6,0,P|169:382|203:377,1,70,12|2,0:2|3:2,0:0:0:0:
257,312,50975,2,0,P|291:306|324:315,1,70,14|2,0:2|3:2,0:0:0:0:
384,374,51282,2,0,L|473:370,2,70,10|4|4,0:2|0:3|0:3,0:0:0:0:
406,295,51744,6,0,L|495:291,2,70,14|2|2,0:2|3:2|3:2,0:0:0:0:
324,315,52205,1,14,0:2:0:0:
280,245,52359,1,10,0:2:0:0:
280,245,52436,1,8,0:2:0:0:
280,245,52513,1,10,0:2:0:0:
333,180,52667,2,0,P|334:122|328:90,1,70,8|4,0:3|0:3,0:0:0:0:
273,49,52975,1,2,3:2:0:0:
211,108,53128,6,0,P|176:111|142:109,1,70,14|8,0:2|0:2,0:0:0:0:
63,76,53436,2,0,P|66:110|63:145,1,70,8|8,0:2|0:2,0:0:0:0:
30,224,53744,1,8,0:2:0:0:
93,281,53898,1,8,0:2:0:0:
167,238,54052,1,8,0:2:0:0:
167,238,54128,1,8,0:2:0:0:
167,238,54205,1,2,3:2:0:0:
167,238,55282,6,0,L|166:203,3,35,2|2|2|2,0:2|0:2|0:2|0:2,0:0:0:0:
193,271,55590,6,0,P|252:271|309:186,1,140,6|10,3:2|0:2,0:0:0:0:
281,133,56052,2,0,P|281:90|293:53,1,70,2|0,0:2|3:2,0:0:0:0:
361,23,56359,2,0,L|449:35,1,70,2|8,0:2|0:2,0:0:0:0:
481,99,56667,6,0,L|393:111,1,70,2|0,0:2|3:2,0:0:0:0:
373,183,56975,2,0,L|461:195,1,70,2|8,0:2|0:2,0:0:0:0:
493,259,57282,1,2,0:2:0:0:
461,337,57436,2,0,L|391:327,1,70,2|0,3:2|0:0,0:0:0:0:
330,269,57744,2,0,L|260:278,1,70,8|0,0:2|0:0,0:0:0:0:
201,339,58052,6,0,P|216:267|180:212,1,140,2|10,3:2|0:2,0:0:0:0:
99,199,58513,2,0,L|10:208,1,70,2|0,0:2|3:2,0:0:0:0:
1,127,58821,2,0,L|71:120,1,70,2|8,0:2|0:2,0:0:0:0:
124,57,59128,1,2,0:2:0:0:
124,57,59205,1,2,0:0:0:0:
124,57,59282,6,0,P|159:94|270:94,1,140,2|8,3:2|0:2,0:0:0:0:
316,61,59744,1,0,0:0:0:0:
360,132,59898,2,0,L|362:292,1,140,2|10,3:2|0:2,0:0:0:0:
317,343,60359,1,8,0:2:0:0:
317,343,60436,1,8,0:2:0:0:
317,343,60513,5,0,3:2:0:0:
278,269,60667,2,0,P|240:265|201:265,2,70,2|10|2,0:3|0:2|0:3,0:0:0:0:
316,343,61128,2,0,P|340:353|392:351,1,70,2|2,3:2|0:3,0:0:0:0:
443,294,61436,2,0,L|442:224,1,70,10|2,0:2|0:3,0:0:0:0:
379,166,61744,6,0,P|457:164|456:79,1,140,2|10,3:2|0:2,0:0:0:0:
402,70,62205,2,0,L|297:76,1,70,2|8,0:3|0:3,0:0:0:0:
256,111,62513,1,8,0:2:0:0:
256,111,62590,1,8,0:2:0:0:
256,111,62667,1,8,0:2:0:0:
179,73,62821,6,0,B|110:70|110:70|32:117,1,140,6|2,3:2|3:2,0:0:0:0:
16,183,63282,2,0,L|21:260,1,70,14|0,0:2|3:2,0:0:0:0:
71,320,63590,2,0,P|102:295|214:284,1,140,14|2,0:2|3:2,0:0:0:0:
256,341,64052,1,2,3:2:0:0:
313,279,64205,6,0,L|312:193,1,70,14|0,0:2|3:2,0:0:0:0:
373,149,64513,2,0,P|305:155|254:109,1,140,14|4,0:2|0:3,0:0:0:0:
271,26,64975,1,10,0:2:0:0:
271,26,65052,1,8,0:2:0:0:
271,26,65128,1,8,0:2:0:0:
355,43,65282,1,10,0:2:0:0:
355,43,65359,1,8,0:2:0:0:
355,43,65436,6,0,P|419:50|502:54,1,140,6|10,3:2|0:2,0:0:0:0:
511,136,65898,2,0,P|489:172|476:203,1,70,2|0,0:2|3:2,0:0:0:0:
500,278,66205,2,0,P|457:276|424:281,1,70,2|8,0:2|0:2,0:0:0:0:
371,339,66513,6,0,P|350:301|330:275,1,70,2|0,0:2|3:2,0:0:0:0:
253,258,66821,2,0,P|275:222|288:191,1,70,2|8,0:2|0:2,0:0:0:0:
264,115,67128,1,2,0:2:0:0:
183,94,67282,1,2,3:2:0:0:
123,153,67436,2,0,L|126:306,1,140,2|2,0:2|0:2,0:0:0:0:
176,360,67898,6,0,P|113:330|30:336,1,140,2|8,3:2|0:2,0:0:0:0:
1,258,68359,2,0,P|27:229|41:193,1,70,2|0,0:2|3:2,0:0:0:0:
46,116,68667,2,0,L|45:40,1,70,2|8,0:2|0:2,0:0:0:0:
117,2,68975,6,0,P|156:44|253:56,1,140,2|0,0:2|0:0,0:0:0:0:
317,45,69436,2,0,P|354:46|392:58,1,70,8|0,0:2|0:0,0:0:0:0:
434,124,69744,2,0,L|431:223,1,70,2|8,3:2|0:3,0:0:0:0:
401,273,70052,1,10,0:2:0:0:
348,206,70205,1,8,0:2:0:0:
348,206,70282,1,8,0:2:0:0:
348,206,70359,5,4,3:2:0:0:
318,286,70513,2,0,L|320:355,2,70,2|10|2,0:3|0:2|0:3,0:0:0:0:
265,219,70975,2,0,P|220:215|182:227,1,70,2|2,3:2|0:3,0:0:0:0:
135,278,71282,2,0,P|100:284|66:279,1,70,10|2,0:2|0:3,0:0:0:0:
14,212,71590,6,0,L|21:52,1,140,2|10,3:2|0:2,0:0:0:0:
85,18,72052,2,0,P|127:26|160:46,1,70,2|0,0:3|3:2,0:0:0:0:
187,114,72359,1,8,0:2:0:0:
187,114,72436,1,8,0:2:0:0:
187,114,72513,1,8,0:2:0:0:
271,121,72667,6,0,P|352:115|411:69,1,140,6|2,3:2|3:2,0:0:0:0:
473,44,73128,2,0,L|482:123,1,70,14|0,0:2|3:2,0:0:0:0:
511,192,73436,2,0,P|430:198|371:244,1,140,14|2,0:2|3:2,0:0:0:0:
336,300,73898,1,2,3:2:0:0:
289,370,74052,6,0,P|235:372|201:359,1,70,14|0,0:2|3:2,0:0:0:0:
197,286,74359,2,0,P|162:279|128:283,1,70,14|0,0:2|3:2,0:0:0:0:
80,353,74667,1,8,0:3:0:0:
10,304,74821,1,4,0:3:0:0:
10,304,74898,1,4,0:3:0:0:
10,304,74975,1,8,0:2:0:0:
58,234,75128,6,0,P|64:147|58:65,1,140,4|0,3:2|3:2,0:0:0:0:
124,37,75590,2,0,P|150:69|176:86,1,70,10|0,0:2|0:0,0:0:0:0:
254,110,75898,2,0,P|282:130|303:157,1,70,2|0,3:2|0:0,0:0:0:0:
324,239,76205,1,10,0:2:0:0:
264,298,76359,1,2,0:2:0:0:
285,379,76513,6,0,P|350:358|383:298,1,140,2|8,3:2|0:2,0:0:0:0:
324,239,76975,2,0,P|390:253|449:218,1,140,2|0,0:2|0:0,0:0:0:0:
427,137,77436,2,0,P|425:100|433:58,1,70,14|0,0:2|0:0,0:0:0:0:
369,8,77744,6,0,P|337:28|297:42,1,70,14|8,0:2|0:2,0:0:0:0:
223,47,78052,2,0,L|150:42,1,70,8|10,0:2|0:2,0:0:0:0:
69,47,78359,1,8,0:2:0:0:
48,129,78513,1,8,0:2:0:0:
119,175,78667,1,10,0:2:0:0:
185,121,78821,1,8,0:2:0:0:
255,166,78975,6,0,L|322:163,3,52.5000020027161,2|2|2|0,0:2|0:2|0:2|0:0,0:0:0:0:
285,243,79590,2,0,L|233:246,1,52.5000020027161,2|2,0:2|0:2,0:0:0:0:
150,253,79897,1,2,0:2:0:0:
150,253,79974,1,2,0:2:0:0:
150,253,80051,6,0,P|136:309|186:378,1,140,6|0,3:2|3:2,0:0:0:0:
262,381,80512,2,0,L|337:376,1,70,14|0,0:2|0:0,0:0:0:0:
373,302,80820,2,0,L|448:307,1,70,2|0,3:2|3:2,0:0:0:0:
505,250,81128,2,0,P|510:204|491:155,1,70,14|0,0:2|0:0,0:0:0:0:
439,127,81435,6,0,L|369:131,1,70,2|0,3:2|3:2,0:0:0:0:
303,185,81743,1,14,0:2:0:0:
236,131,81897,2,0,L|167:127,1,70,2|0,0:2|3:2,0:0:0:0:
154,211,82205,2,0,L|224:216,1,70,2|8,3:2|0:2,0:0:0:0:
211,300,82512,6,0,L|71:290,1,140,6|0,3:2|3:2,0:0:0:0:
31,215,82974,2,0,P|27:158|48:59,1,140,12|0,0:2|3:2,0:0:0:0:
102,18,83435,1,0,3:2:0:0:
160,78,83589,2,0,P|214:80|246:73,1,70,12|2,0:2|0:2,0:0:0:0:
289,16,83897,6,0,P|342:14|374:21,1,70,2|2,3:2|3:2,0:0:0:0:
399,90,84205,2,0,L|394:174,1,70,14|2,0:2|3:2,0:0:0:0:
351,232,84512,1,8,0:2:0:0:
351,232,84589,1,8,0:2:0:0:
351,232,84666,2,0,L|353:266,3,35,10|8|8|8,0:2|0:2|0:2|0:2,0:0:0:0:
317,205,84974,6,0,P|247:191|169:213,1,140,6|0,3:2|3:2,0:0:0:0:
122,267,85435,2,0,L|128:364,1,70,14|0,0:2|0:0,0:0:0:0:
198,380,85743,2,0,P|232:380|267:374,1,70,2|0,3:2|3:2,0:0:0:0:
345,340,86051,2,0,P|379:339|414:345,1,70,14|0,0:2|0:0,0:0:0:0:
471,284,86358,6,0,P|453:254|441:221,1,70,2|0,3:2|3:2,0:0:0:0:
425,138,86666,1,14,0:2:0:0:
344,110,86820,2,0,P|309:103|274:104,1,70,2|0,0:2|3:2,0:0:0:0:
203,149,87128,2,0,P|168:149|133:143,1,70,2|12,3:2|0:2,0:0:0:0:
57,105,87435,1,2,3:2:0:0:
57,105,87512,1,0,3:2:0:0:
57,105,87589,6,0,L|54:178,1,70,14|2,0:2|3:2,0:0:0:0:
4,243,87897,2,0,L|7:316,1,70,14|2,0:2|3:2,0:0:0:0:
69,369,88205,1,14,0:2:0:0:
130,311,88358,2,0,P|164:309|199:316,1,70,14|0,0:2|3:2,0:0:0:0:
256,377,88666,5,14,0:2:0:0:
312,316,88820,2,0,P|347:309|382:311,1,70,14|0,0:2|3:2,0:0:0:0:
455,351,89128,1,14,0:2:0:0:
495,278,89281,1,2,3:2:0:0:
495,278,89358,1,2,0:2:0:0:
495,278,89435,1,10,0:2:0:0:
422,238,89589,1,10,0:2:0:0:
