osu file format v14

[General]
AudioFilename: audio.mp3
AudioLeadIn: 0
PreviewTime: 54672
Countdown: 0
SampleSet: Soft
StackLeniency: 0.7
Mode: 0
LetterboxInBreaks: 0
WidescreenStoryboard: 0

[Editor]
DistanceSpacing: 0.9
BeatDivisor: 4
GridSize: 4
TimelineZoom: 1.8

[Metadata]
Title:MIIRO
TitleUnicode:海色
Artist:Roselia
ArtistUnicode:Roselia
Creator:Ascaveth
Version:Special
Source:バンドリ! ガールズバンドパーティ!
Tags:BanG Dream! Girls Band Party bandori garupa ガルパ ロゼリア kantai collection kancolle AKINO from with bless4 艦隊これくしょん -艦これ- cover opening game size minato yukina 湊友希那 aiba aina 相羽あいな hikawa sayo 氷川紗夜 kudou haruka 工藤晴香 imai lisa 今井リサ nakashima yuki 中島由貴 udagawa ako 宇田川あこ sakuragawa megu 櫻川めぐ shirokane rinko 白金燐子 shizaki kanon 志崎樺音 anime video game japanese tatoe
BeatmapID:2101594
BeatmapSetID:1004133

[Difficulty]
HPDrainRate:7
CircleSize:4
OverallDifficulty:9
ApproachRate:9.3
SliderMultiplier:2
SliderTickRate:1

[Events]
//Background and Video events
0,0,"987Lisa-Imai-Pure-GL4a8I.png",0,0
//Break Periods
//Storyboard Layer 0 (Background)
//Storyboard Layer 1 (Fail)
//Storyboard Layer 2 (Pass)
//Storyboard Layer 3 (Foreground)
//Storyboard Sound Samples

[TimingPoints]
57,307.692307692308,4,2,0,75,1,0
57,-142.857142857143,4,2,0,75,0,0
3133,-200,4,2,0,75,0,0
6210,-100,4,2,0,75,0,0
16210,-166.666666666667,4,2,0,75,0,0
24826,-125,4,2,0,75,0,0
26057,-100,4,2,0,75,0,0
36518,-142.857142857143,4,2,0,75,0,0
45749,-100,4,2,0,75,0,0
55595,-83.3333333333333,4,2,0,75,0,1
78980,-100,4,2,0,75,0,1
80057,-100,4,2,0,75,0,0

[Colours]
Combo1 : 50,130,190
Combo2 : 230,25,25
Combo3 : 35,60,250
Combo4 : 255,100,130

[HitObjects]
96,325,57,6,0,L|105:309,7,19.2499994125366
130,74,518,2,0,P|134:107|128:148,1,69.9999978637696
280,290,825,2,0,P|237:226|270:182,1,139.999995727539
392,146,1286,1,0,0:0:0:0:
392,146,1441,6,0,P|370:181|334:209,1,69.9999978637696
207,115,1748,2,0,P|247:117|291:147,1,69.9999978637696
105,222,2057,1,0,0:0:0:0:
105,222,2133,1,0,0:0:0:0:
105,222,2210,2,0,P|114:170|100:134,1,69.9999978637696
61,313,2518,1,0,0:0:0:0:
61,313,2672,6,0,P|118:340|207:305,1,139.999995727539
287,172,3133,2,0,P|289:221|275:269,1,100
94,184,3595,2,0,L|201:213,1,100
467,179,4057,1,0,0:0:0:0:
269,169,4210,1,0,0:0:0:0:
339,330,4364,1,0,0:0:0:0:
447,133,4518,5,0,0:0:0:0:
253,174,4671,1,0,0:0:0:0:
363,312,4825,1,0,0:0:0:0:
417,93,4980,5,0,0:0:0:0:
240,184,5133,1,0,0:0:0:0:
381,288,5287,1,0,0:0:0:0:
377,62,5441,5,0,0:0:0:0:
229,196,5594,1,0,0:0:0:0:
392,260,5749,1,0,0:0:0:0:
45,229,5903,2,0,P|74:253|83:304,1,75
75,316,6210,6,0,P|157:278|285:327,1,200
343,38,6671,2,0,L|359:136,1,100
391,334,6979,1,0,0:0:0:0:
181,246,7133,1,0,0:0:0:0:
468,159,7286,2,0,P|419:168|376:194,1,100,0|0,0:0|0:0,3:0:0:0:
226,327,7594,5,0,0:0:0:0:
279,85,7748,1,0,0:0:0:0:
363,372,7902,1,0,0:0:0:0:
62,263,8056,2,0,L|181:249,1,100
383,156,8363,2,0,L|266:137,1,100
34,37,8672,2,0,P|83:119|183:88,1,200
199,330,9133,6,0,L|237:237,1,100
237,237,9363,1,0,0:0:0:0:
237,237,9440,1,0,0:0:0:0:
213,50,9594,1,0,0:0:0:0:
390,187,9748,1,0,0:0:0:0:
114,294,9902,1,0,0:0:0:0:
331,373,10056,5,0,0:0:0:0:
50,190,10210,1,0,0:0:0:0:
317,40,10363,1,0,0:0:0:0:
208,292,10517,2,0,P|194:249|199:183,1,100
316,218,10825,1,0,0:0:0:0:
319,169,10903,1,0,0:0:0:0:
350,131,10980,1,0,0:0:0:0:
402,131,11057,1,0,0:0:0:0:
410,181,11133,6,0,L|187:152,1,200,0|0,0:2|0:0,0:0:0:0:
63,290,11594,2,0,P|94:257|121:205,1,100
83,22,11902,1,0,0:0:0:0:
224,195,12056,1,0,0:0:0:0:
15,136,12210,2,0,L|122:113,1,100
407,79,12517,5,0,0:0:0:0:
224,195,12671,1,0,0:0:0:0:
422,337,12825,1,0,0:0:0:0:
224,195,12979,2,0,L|105:222,1,100
31,360,13286,2,0,L|142:331,1,100
422,337,13594,1,0,0:0:0:0:
422,337,13671,1,0,0:0:0:0:
422,337,13748,5,0,0:2:0:0:
339,87,13902,1,0,0:0:0:0:
215,328,14056,1,0,0:2:0:0:
337,48,14210,1,0,0:2:0:0:
501,206,14363,5,0,0:2:0:0:
227,175,14517,2,0,L|108:158,1,100,0|0,0:2|0:2,0:0:0:0:
342,23,14825,1,0,0:2:0:0:
342,23,14902,1,0,0:0:0:0:
342,23,14979,5,0,0:2:0:0:
392,328,15133,1,0,0:2:0:0:
100,156,15286,1,0,0:2:0:0:
392,344,15440,1,0,0:2:0:0:
392,344,15517,1,0,0:2:0:0:
392,344,15594,5,0,0:0:0:0:
342,48,15748,1,0,0:0:0:0:
64,122,15903,2,0,L|166:98,1,100
248,26,16210,6,0,P|285:93|270:143,1,119.999996337891
315,253,16672,2,0,L|380:245,1,59.9999981689454
256,344,16979,2,0,L|192:336,1,59.9999981689454
33,305,17287,6,0,P|69:249|141:247,1,119.999996337891
256,344,17748,1,0,0:0:0:0:
256,344,17902,2,0,P|253:273|259:215,1,119.999996337891
361,128,18363,1,0,0:0:0:0:
438,203,18517,1,0,0:0:0:0:
461,70,18671,6,0,P|399:47|335:64,1,119.999996337891
227,106,19133,2,0,P|215:72|217:25,1,59.9999981689454
146,157,19440,2,0,P|114:140|81:105,1,59.9999981689454
126,249,19748,2,0,P|91:259|50:258,1,59.9999981689454
178,327,20056,6,0,P|212:316|245:318,1,59.9999981689454
397,368,20363,2,0,P|420:300|375:263,1,119.999996337891
286,142,20825,2,0,L|279:213,1,59.9999981689454
296,55,21133,5,0,0:0:0:0:
296,54,21440,2,0,P|327:37|359:34,1,59.9999981689454
455,132,21748,2,0,P|423:149|392:156,1,59.9999981689454
279,213,22056,1,0,0:0:0:0:
423,264,22210,6,0,P|445:321|414:367,1,119.999996337891
223,281,22671,1,0,0:0:0:0:
223,281,22825,2,0,P|282:286|339:304,1,119.999996337891
140,351,23286,1,0,0:0:0:0:
59,246,23440,6,0,L|54:187,1,59.9999981689454
165,184,23748,2,0,L|168:123,1,59.9999981689454
38,48,24056,2,0,P|99:23|160:57,1,119.999996337891
313,76,24517,1,0,0:0:0:0:
163,159,24671,1,0,0:0:0:0:
257,209,24826,6,0,P|266:265|263:338,2,120
171,126,25441,2,0,P|162:72|165:0,2,120
80,240,26057,6,0,B|143:219|143:219|220:226|220:226|296:203,1,200,0|0,0:2|0:0,0:0:0:0:
436,103,26518,1,0,0:0:0:0:
391,344,26672,2,0,P|400:295|382:249,1,100
273,209,26980,1,0,0:0:0:0:
436,103,27133,6,0,P|340:101|293:211,1,200,0|0,0:2|0:0,0:0:0:0:
221,20,27595,1,0,0:0:0:0:
312,125,27749,2,0,P|374:135|433:110,1,100
250,194,28057,2,0,P|195:183|137:211,1,100
257,347,28364,5,0,0:0:0:0:
257,347,28518,2,0,P|219:312|207:260,1,100,0|0,3:0|3:0,3:0:0:0:
399,233,28826,1,0,0:0:0:0:
199,122,28980,1,0,0:0:0:0:
199,122,29057,1,0,0:0:0:0:
199,122,29133,1,0,0:0:0:0:
348,332,29287,1,0,0:0:0:0:
320,90,29441,1,0,0:0:0:0:
348,332,29595,6,0,P|236:355|134:300,1,200,0|0,0:2|0:0,0:0:0:0:
69,210,30057,2,0,L|189:221,1,100
333,38,30364,1,0,0:0:0:0:
296,233,30518,1,0,0:0:0:0:
217,117,30672,1,0,0:0:0:0:
434,149,30826,1,0,0:0:0:0:
434,149,30903,1,0,0:2:0:0:
434,149,30980,6,0,P|470:94|471:48,1,100,0|0,0:2|0:0,0:0:0:0:
296,233,31287,1,0,0:0:0:0:
486,324,31441,1,0,0:0:0:0:
486,324,31518,1,0,0:0:0:0:
486,324,31595,2,0,L|373:340,1,100
199,208,31903,2,0,L|313:237,1,100,0|0,0:0|0:2,0:0:0:0:
67,322,32210,5,0,0:0:0:0:
199,208,32364,1,0,0:0:0:0:
47,83,32518,1,0,0:0:0:0:
295,232,32672,1,0,0:0:0:0:
67,322,32826,2,0,P|47:279|54:219,1,100
163,77,33133,1,0,0:0:0:0:
133,104,33210,1,0,0:0:0:0:
123,144,33287,1,0,0:0:0:0:
129,176,33364,1,0,0:0:0:0:
149,203,33441,6,0,P|243:232|343:167,1,200,0|0,0:2|0:0,0:0:0:0:
160,344,33903,1,0,0:0:0:0:
326,32,34057,2,0,L|306:80,1,50
212,361,34210,2,0,L|245:287,1,50
196,37,34364,2,0,L|219:111,1,50
324,350,34518,5,0,0:2:0:0:
327,170,34826,1,0,0:0:0:0:
197,121,34980,1,0,0:0:0:0:
434,81,35133,2,0,P|469:109|478:168,1,100,0|0,0:2|0:0,0:0:0:0:
356,352,35441,2,0,L|366:288,1,50
264,280,35595,2,0,L|256:222,1,50
387,196,35749,2,0,L|397:132,1,50
255,60,35903,5,0,0:0:0:0:
43,254,36518,2,0,P|29:189|72:116,1,139.999995727539
146,52,36980,1,0,0:0:0:0:
146,52,37057,1,0,0:0:0:0:
146,52,37133,2,0,P|249:105|322:25,2,209.999993591309
342,339,38364,6,0,P|320:272|320:202,1,139.999995727539
416,197,38826,2,0,P|437:130|438:61,1,139.999995727539
253,255,39287,2,0,P|295:245|327:243,1,69.9999978637696
185,313,39595,6,0,P|139:355|62:341,1,139.999995727539
56,149,40057,2,0,P|50:207|112:267,1,139.999995727539,0|0,3:0|0:0,3:0:0:0:
151,116,40518,2,0,P|115:63|29:48,1,139.999995727539
318,243,41133,5,0,0:0:0:0:
181,156,41441,2,0,P|215:154|254:169,1,69.9999978637696
217,344,41749,2,0,P|228:296|228:262,1,69.9999978637696
317,243,42057,2,0,P|408:220|462:313,2,209.999993591309
228,342,43287,6,0,L|210:192,1,139.999995727539
115,136,43749,2,0,P|67:177|94:239,1,139.999995727539
247,91,44210,1,0,0:0:0:0:
257,216,44364,1,0,0:0:0:0:
257,216,44441,1,0,0:0:0:0:
257,216,44518,2,0,P|218:197|172:201,2,69.9999978637696
334,357,44980,2,0,L|340:274,2,69.9999978637696
458,167,45441,2,0,P|422:178|367:174,1,69.9999978637696
340,288,45749,6,0,P|388:274|452:268,1,100,0|0,0:2|0:0,0:0:0:0:
150,237,46057,1,0,0:0:0:0:
245,361,46210,1,0,0:0:0:0:
275,109,46364,2,0,P|347:83|382:186,1,200
215,63,46826,5,0,0:0:0:0:
390,36,46980,2,0,P|442:32|495:58,1,100
304,162,47287,2,0,P|256:166|185:147,1,100
427,267,47595,1,0,0:0:0:0:
255,361,47749,2,0,P|237:321|245:262,1,100
364,90,48057,2,0,P|387:141|385:185,1,100
347,72,48364,5,0,0:0:0:0:
370,252,48518,1,0,0:0:0:0:
165,124,48672,1,0,0:0:0:0:
95,319,48826,2,0,P|158:268|164:136,1,200
56,33,49287,1,0,0:0:0:0:
314,31,49441,6,0,B|327:80|312:140,1,100
188,240,49749,2,0,B|174:191|193:131,1,100
411,212,50057,1,0,0:3:0:0:
206,47,50210,1,0,0:3:0:0:
174,54,50287,1,0,0:3:0:0:
146,62,50364,1,0,0:0:0:0:
112,74,50441,1,0,0:0:0:0:
85,85,50518,1,0,0:3:0:0:
239,299,50672,5,0,0:0:0:0:
337,130,50826,1,0,0:0:0:0:
201,32,50980,5,0,0:2:0:0:
63,216,51133,1,0,0:0:0:0:
292,243,51287,5,0,0:3:0:0:
78,84,51441,1,0,0:0:0:0:
160,360,51595,5,0,0:0:0:0:
307,111,51749,1,0,0:2:0:0:
81,214,51903,6,0,L|182:224,1,100
411,137,52210,1,0,0:2:0:0:
321,340,52364,1,0,0:3:0:0:
321,340,52441,1,0,0:3:0:0:
321,340,52518,5,0,0:3:0:0:
206,47,52672,1,0,0:3:0:0:
219,266,52826,1,0,0:3:0:0:
277,120,52980,1,0,0:0:0:0:
219,266,53133,5,0,0:2:0:0:
194,298,53210,1,0,0:0:0:0:
158,314,53287,1,0,0:0:0:0:
118,310,53364,1,0,0:0:0:0:
84,288,53441,1,0,0:0:0:0:
65,252,53518,1,0,0:0:0:0:
65,212,53595,1,0,0:0:0:0:
85,177,53672,1,0,0:0:0:0:
118,155,53749,6,0,L|167:166,1,50
337,260,53903,2,0,L|321:208,1,50
386,23,54057,2,0,L|360:68,1,50
219,266,54210,5,0,0:0:0:0:
67,142,54518,1,0,0:0:0:0:
67,142,54595,1,0,0:0:0:0:
67,142,54672,2,0,P|120:134|184:152,1,100
399,163,54980,1,0,0:0:0:0:
210,349,55133,1,0,0:0:0:0:
240,212,55287,1,0,0:0:0:0:
224,172,55364,1,0,0:0:0:0:
217,137,55441,1,0,0:0:0:0:
218,97,55518,1,0,0:0:0:0:
232,55,55595,6,0,P|249:105|251:182,1,119.999996337891
85,304,55903,1,0,0:0:0:0:
378,203,56057,2,0,P|431:200|503:209,1,119.999996337891
205,309,56364,2,0,P|151:311|85:304,1,119.999996337891
367,167,56672,5,0,0:0:0:0:
425,359,56826,1,0,0:0:0:0:
160,218,56980,5,0,0:0:0:0:
416,92,57133,1,0,0:0:0:0:
265,342,57287,5,0,0:0:0:0:
154,72,57441,1,0,0:0:0:0:
362,202,57595,1,0,0:0:0:0:
362,202,57672,1,0,0:0:0:0:
362,202,57749,1,0,0:0:0:0:
78,255,57903,1,0,0:0:0:0:
230,19,58057,6,0,B|268:138|256:267,1,239.999992675781
47,134,58518,2,0,P|97:111|163:103,1,119.999996337891
456,126,58826,2,0,P|403:160|334:165,1,119.999996337891
233,31,59133,1,0,0:0:0:0:
348,261,59287,2,0,P|257:216|138:275,1,239.999992675781
45,338,59749,1,0,0:0:0:0:
232,164,59903,2,0,P|248:232|241:285,1,119.999996337891
6,149,60210,1,0,0:0:0:0:
233,31,60364,1,0,0:0:0:0:
233,31,60441,1,0,0:2:0:0:
233,31,60518,1,0,0:2:0:0:
346,254,60672,5,0,0:0:0:0:
100,144,60826,1,0,0:0:0:0:
402,73,60980,5,0,0:0:0:0:
234,305,61133,2,0,P|217:254|236:190,1,119.999996337891
233,31,61441,1,0,0:0:0:0:
411,172,61595,1,0,0:0:0:0:
234,305,61749,6,0,P|180:305|119:280,1,119.999996337891
62,197,62057,1,0,0:0:0:0:
17,365,62210,1,0,0:0:0:0:
153,80,62364,1,0,0:0:0:0:
153,80,62441,1,0,0:0:0:0:
153,80,62518,2,0,P|169:109|179:138,1,59.9999981689454
136,252,62672,1,0,0:0:0:0:
136,252,62749,1,0,0:0:0:0:
136,252,62826,6,0,P|208:256|266:215,1,119.999996337891,0|0,0:2|0:0,0:0:0:0:
458,219,63133,5,0,0:0:0:0:
224,339,63287,1,0,0:2:0:0:
343,104,63441,5,0,0:2:0:0:
384,365,63595,1,0,0:2:0:0:
198,178,63749,5,0,0:0:0:0:
479,215,63903,1,0,0:2:0:0:
178,168,64057,5,0,0:2:0:0:
393,383,64210,1,0,0:2:0:0:
346,82,64364,5,0,0:2:0:0:
211,347,64518,2,0,P|160:363|95:354,1,119.999996337891,0|0,0:2|0:2,0:0:0:0:
95,54,64826,1,0,0:0:0:0:
95,54,64903,1,0,0:0:0:0:
95,54,64980,2,0,P|111:88|117:128,1,59.9999981689454
149,290,65133,1,0,0:0:0:0:
149,290,65210,1,0,0:0:0:0:
149,290,65287,2,0,P|155:253|164:226,1,59.9999981689454
446,200,65441,6,0,P|367:141|217:143,1,239.999992675781,0|0,0:2|0:0,0:0:0:0:
326,339,65903,2,0,P|324:273|311:221,1,119.999996337891
317,38,66210,1,0,0:0:0:0:
149,153,66364,1,0,0:0:0:0:
362,252,66518,6,0,P|312:215|246:204,1,119.999996337891
119,21,66826,2,0,P|122:71|147:144,1,119.999996337891
283,83,67133,1,0,0:0:0:0:
283,83,67210,1,0,0:0:0:0:
283,83,67287,5,0,0:0:0:0:
199,276,67441,1,0,0:0:0:0:
408,253,67595,1,0,0:0:0:0:
257,47,67749,1,0,0:0:0:0:
129,336,67903,6,0,P|61:284|55:128,1,239.999992675781
243,101,68364,2,0,P|212:158|160:203,1,119.999996337891
308,342,68672,2,0,P|297:274|275:221,1,119.999996337891,0|0,3:0|3:0,3:0:0:0:
455,100,68980,1,0,0:0:0:0:
455,100,69057,1,0,0:0:0:0:
455,100,69133,6,0,B|397:128|332:90|332:90|272:56|216:75,1,239.999992675781
273,347,69595,1,0,0:0:0:0:
202,68,69749,1,0,0:0:0:0:
115,352,69903,1,0,0:0:0:0:
201,49,70057,1,0,0:0:0:0:
453,234,70210,1,0,0:0:0:0:
477,282,70287,1,0,0:0:0:0:
448,327,70364,1,0,0:2:0:0:
128,153,70518,5,0,0:0:0:0:
309,360,70672,1,0,0:0:0:0:
394,97,70826,1,0,0:0:0:0:
153,261,70980,2,0,P|121:205|128:152,1,119.999996337891
240,12,71287,2,0,P|263:59|249:125,1,119.999996337891
0,63,71595,6,0,L|129:71,1,119.999996337891
284,301,71903,1,0,0:0:0:0:
143,120,72057,1,0,0:0:0:0:
273,47,72210,1,0,0:0:0:0:
273,47,72287,1,0,0:0:0:0:
273,47,72364,2,0,P|272:82|279:122,1,59.9999981689454
361,194,72518,1,0,0:0:0:0:
361,194,72595,1,0,0:0:0:0:
361,194,72672,6,0,P|269:226|181:172,1,179.999994506836,0|0,0:2|0:0,0:0:0:0:
162,177,72980,1,0,0:0:0:0:
102,339,73133,5,0,0:2:0:0:
323,71,73287,1,0,0:0:0:0:
316,334,73441,5,0,0:2:0:0:
109,37,73595,1,0,0:0:0:0:
401,187,73749,5,0,0:2:0:0:
2,201,73903,1,0,0:0:0:0:
229,9,74057,5,0,0:2:0:0:
179,362,74210,1,0,0:0:0:0:
127,55,74364,5,0,0:2:0:0:
271,306,74518,1,0,0:0:0:0:
443,116,74672,1,0,0:0:0:0:
392,100,74749,1,0,0:0:0:0:
344,120,74826,1,0,0:0:0:0:
319,153,74903,1,0,0:0:0:0:
314,204,74980,1,0,0:0:0:0:
327,248,75057,1,0,0:0:0:0:
361,273,75133,6,0,P|368:116|340:32,1,239.999992675781,0|0,0:2|0:0,0:0:0:0:
260,334,75595,2,0,P|203:294|124:284,1,119.999996337891
37,216,75903,2,0,P|93:176|172:166,1,119.999996337891
57,346,76210,1,0,0:0:0:0:
239,303,76364,1,0,0:0:0:0:
37,352,76518,6,0,P|29:226|56:106,1,239.999992675781
144,39,76980,2,0,P|190:66|262:81,1,119.999996337891
292,270,77287,1,0,0:0:0:0:
426,123,77441,2,0,P|373:135|312:176,1,119.999996337891
81,344,77749,2,0,B|100:299|92:240|51:177|51:177|92:164|123:180|106:245|106:245|131:270|179:287,2,359.999989013672
212,49,78826,1,0,0:0:0:0:
212,49,78903,1,0,0:0:0:0:
212,49,78980,2,0,P|229:98|229:180,2,100,0|0|0,0:3|0:0|0:0,0:0:0:0:
294,232,79441,2,0,P|271:289|281:355,2,100,0|0|0,0:3|0:0|0:0,0:0:0:0:
484,114,79903,1,0,0:0:0:0:
484,114,80057,6,0,P|443:34|348:56,1,200
171,121,80518,2,0,L|279:131,1,100
435,216,80826,2,0,L|334:229,1,100
240,361,81133,2,0,P|226:318|233:258,1,100
400,32,81441,5,0,0:2:0:0:
156,78,81595,1,0,0:0:0:0:
335,228,81749,1,0,0:0:0:0:
36,164,81903,1,0,0:0:0:0:
71,194,81980,1,0,0:0:0:0:
81,237,82057,1,0,0:0:0:0:
81,281,82133,1,0,0:0:0:0:
53,317,82210,1,0,0:0:0:0:
302,123,82364,1,0,0:0:0:0:
0,248,82518,6,0,B|51:228|104:250|104:250|155:269|203:244,1,200,0|0,0:2|0:0,0:0:0:0:
302,123,82980,2,0,L|287:19,1,100
316,361,83287,1,0,0:2:0:0:
111,42,83441,1,0,0:0:0:0:
464,165,83595,1,0,0:0:0:0:
91,298,83749,1,0,0:0:0:0:
316,361,83903,5,0,0:2:0:0:
160,98,84057,1,0,0:0:0:0:
316,361,84210,1,0,0:0:0:0:
470,95,84364,2,0,L|380:85,1,90
243,168,84672,1,0,0:0:0:0:
205,193,84749,1,0,0:0:0:0:
190,240,84826,1,0,0:0:0:0:
192,290,84903,1,0,0:0:0:0:
219,326,84980,6,0,P|232:233|207:130,1,200,0|0,0:2|0:0,0:0:0:0:
368,60,85441,2,0,P|311:58|273:81,1,100
260,347,85749,1,0,0:2:0:0:
86,233,85903,1,0,0:0:0:0:
276,80,86057,2,0,L|284:184,1,100
428,352,86364,6,0,P|445:276|385:151,1,200,0|0,0:2|0:0,0:0:0:0:
190,275,86826,2,0,P|244:292|289:290,1,100,0|0,0:0|0:2,0:0:0:0:
468,139,87133,2,0,P|425:125|364:134,1,100
174,109,87441,1,0,0:0:0:0:
202,144,87518,1,0,0:0:0:0:
195,188,87595,5,0,0:2:0:0:
215,352,87749,1,0,0:0:0:0:
96,30,87903,5,0,0:2:0:0:
29,336,88057,1,0,0:0:0:0:
279,29,88210,5,0,0:2:0:0:
359,298,88364,2,0,P|401:312|460:314,1,100,0|0,0:2|0:0,0:0:0:0:
125,31,88672,1,0,0:2:0:0:
87,55,88749,1,0,0:0:0:0:
76,98,88826,5,0,0:2:0:0:
471,120,88980,1,0,0:0:0:0:
132,335,89133,5,0,0:2:0:0:
356,33,89287,1,0,0:0:0:0:
314,50,89364,1,0,0:0:0:0:
270,40,89441,5,0,0:0:0:0:
434,348,89595,1,0,0:0:0:0:
