osu file format v14

[General]
AudioFilename: audio.mp3
AudioLeadIn: 0
PreviewTime: 54590
Countdown: 0
SampleSet: Normal
StackLeniency: 0.2
Mode: 1
LetterboxInBreaks: 0
WidescreenStoryboard: 1

[Editor]
Bookmarks: 6144,16144,25990,35836,45682,54144,65374,78913,89528
DistanceSpacing: 2.1
BeatDivisor: 4
GridSize: 32
TimelineZoom: 3.299999

[Metadata]
Title:MIIRO
TitleUnicode:海色
Artist:Roselia
ArtistUnicode:Roselia
Creator:-Mikan
Version:bbj's MUZUKASHII
Source:バンドリ! ガールズバンドパーティ!
Tags:Natteke Desu Nelly Imai Lisa Xetopia Lacrima myle Kanon Matsubara Shinitagari Hinsvar bbj0920 [Shana Lesus] [Shana_Lesus] Virtue- toybot Jounzan evilElvis Cami Gaia Left island newton- iljaaz adioni tatoe BanG Dream! Girls Band Party! Garupa Bandori! ガルパ!anime opening op japanese 艦隊これくしょん -艦これ- kantai collection みいろ ロゼリア minato yukina 湊友希那 aiba aina 相羽あいな hikawa sayo 氷川紗夜 kudou haruka 工藤晴香 imai lisa 今井リサ endou yurika 遠藤ゆりか nakashima yuki 中島由貴 udagawa ako 宇田川あこ sakuragawa megu 櫻川めぐ shirokane rinko 白金燐子 akesaka satomi 明坂聡美 video game AKINO from bless4 Fleet Girls Collection KanColle Animation Sequence game ver
BeatmapID:2122513
BeatmapSetID:1002819

[Difficulty]
HPDrainRate:5
CircleSize:4
OverallDifficulty:5
ApproachRate:9.3
SliderMultiplier:1.4
SliderTickRate:1

[Events]
//Background and Video events
0,0,"862dbcbf412f6ebefe0e6910a55c11c4d95f16f8_s2_n2.jpg",0,0
Video,-1200,"TATOE.mp4"
//Break Periods
//Storyboard Layer 0 (Background)
//Storyboard Layer 1 (Fail)
//Storyboard Layer 2 (Pass)
//Storyboard Layer 3 (Foreground)
//Storyboard Layer 4 (Overlay)
//Storyboard Sound Samples

[TimingPoints]
67,368.098159509202,4,1,0,75,1,8
205,307.692307692308,4,1,0,75,1,0
205,-133.333333333333,4,1,0,75,0,0
3897,314.13612565445,4,1,0,75,1,0
3897,-133.333333333333,4,1,0,75,0,0
5742,307.692307692308,4,1,0,75,1,8
6203,-100,4,1,0,75,0,1
6357,307.692307692308,4,1,0,75,1,1
15741,-100,4,1,0,75,0,0
16203,-120.481927710843,4,1,0,75,0,0
24666,324.324324324324,4,1,0,75,1,8
24828,303.030303030303,4,1,0,75,1,0
24828,-121.951219512195,4,1,0,75,0,0
25282,363.636363636364,4,1,0,75,1,8
25463,294.117647058824,4,1,0,75,1,8
25904,300,4,1,0,75,1,8
26052,307.692307692308,4,1,0,75,1,0
26359,-100,4,1,0,75,0,0
36205,-149.253731343284,4,1,0,55,0,0
43282,-120.481927710843,4,1,0,65,0,0
45744,-100,4,1,0,75,0,0
55590,-100,4,1,0,75,0,1
78975,317.460317460317,4,1,0,75,1,0
79590,307.692307692308,4,1,0,75,1,8
80051,-100,4,1,0,75,0,1
80205,307.692307692308,4,1,0,75,1,1
89589,-100,4,1,0,75,0,0

[Colours]
Combo1 : 162,255,255
Combo2 : 167,167,211
Combo3 : 106,181,255
Combo4 : 254,156,249

[HitObjects]
256,192,205,5,8,0:0:0:0:
256,192,1435,1,8,0:0:0:0:
256,192,1897,1,8,0:0:0:0:
256,192,2358,1,8,0:0:0:0:
256,192,2666,12,0,3897,0:0:0:0:
256,192,6203,5,4,0:0:0:0:
256,192,6510,1,0,0:0:0:0:
256,192,6664,1,8,0:0:0:0:
256,192,6972,1,0,0:0:0:0:
256,192,7126,1,0,0:0:0:0:
256,192,7280,1,8,0:0:0:0:
256,192,7587,1,8,0:0:0:0:
256,192,7895,1,8,0:0:0:0:
256,192,8049,1,0,0:0:0:0:
256,192,8357,1,0,0:0:0:0:
256,192,8510,1,8,0:0:0:0:
256,192,8664,1,4,0:0:0:0:
256,192,8972,1,0,0:0:0:0:
256,192,9126,1,8,0:0:0:0:
256,192,9433,1,0,0:0:0:0:
256,192,9587,1,0,0:0:0:0:
256,192,9741,1,8,0:0:0:0:
256,192,10049,1,0,0:0:0:0:
256,192,10203,1,0,0:0:0:0:
256,192,10357,1,8,0:0:0:0:
256,192,10510,1,8,0:0:0:0:
256,192,10818,1,8,0:0:0:0:
256,192,10895,1,8,0:0:0:0:
256,192,10972,1,8,0:0:0:0:
256,192,11126,1,4,0:0:0:0:
256,192,11587,1,8,0:0:0:0:
256,192,11895,1,0,0:0:0:0:
256,192,12049,1,0,0:0:0:0:
256,192,12203,1,8,0:0:0:0:
256,192,12510,1,8,0:0:0:0:
256,192,12818,1,8,0:0:0:0:
256,192,12972,1,0,0:0:0:0:
256,192,13280,1,8,0:0:0:0:
256,192,13587,1,8,0:0:0:0:
256,192,13741,1,8,0:0:0:0:
256,192,13895,1,0,0:0:0:0:
256,192,14049,1,8,0:0:0:0:
256,192,14357,1,0,0:0:0:0:
256,192,14510,1,0,0:0:0:0:
256,192,14818,1,8,0:0:0:0:
256,192,14972,1,8,0:0:0:0:
256,192,15126,1,0,0:0:0:0:
256,192,15280,1,0,0:0:0:0:
256,192,15357,1,0,0:0:0:0:
256,192,15433,1,0,0:0:0:0:
256,192,15587,1,12,0:0:0:0:
256,192,15741,1,12,0:0:0:0:
256,192,16203,1,8,0:0:0:0:
256,192,16664,1,0,0:0:0:0:
256,192,16972,1,0,0:0:0:0:
256,192,17280,1,0,0:0:0:0:
256,192,17433,1,8,0:0:0:0:
256,192,17895,1,0,0:0:0:0:
256,192,18203,1,0,0:0:0:0:
256,192,18357,1,0,0:0:0:0:
256,192,18510,1,0,0:0:0:0:
256,192,18664,1,8,0:0:0:0:
256,192,19126,1,0,0:0:0:0:
256,192,19433,1,0,0:0:0:0:
256,192,19741,1,0,0:0:0:0:
256,192,19895,1,8,0:0:0:0:
256,192,20357,1,0,0:0:0:0:
256,192,20664,1,0,0:0:0:0:
256,192,20818,1,8,0:0:0:0:
256,192,20972,1,0,0:0:0:0:
256,192,21126,1,8,0:0:0:0:
256,192,21587,1,8,0:0:0:0:
256,192,22049,1,8,0:0:0:0:
256,192,22203,1,0,0:0:0:0:
256,192,22357,1,8,0:0:0:0:
256,192,22818,1,8,0:0:0:0:
256,192,23280,1,0,0:0:0:0:
256,192,23433,1,0,0:0:0:0:
256,192,23587,1,8,0:0:0:0:
256,192,24049,1,8,0:0:0:0:
256,192,24357,1,8,0:0:0:0:
256,192,24510,1,8,0:0:0:0:
256,192,24828,1,8,0:0:0:0:
256,192,26052,1,4,0:0:0:0:
256,192,26513,1,8,0:0:0:0:
256,192,26667,1,0,0:0:0:0:
256,192,26975,1,0,0:0:0:0:
256,192,27128,1,8,0:0:0:0:
256,192,27436,1,8,0:0:0:0:
256,192,27590,1,8,0:0:0:0:
256,192,27744,1,0,0:0:0:0:
256,192,28052,1,0,0:0:0:0:
256,192,28205,1,8,0:0:0:0:
256,192,28359,1,0,0:0:0:0:
256,192,28513,1,0,0:0:0:0:
256,192,28667,1,8,0:0:0:0:
256,192,28821,1,8,0:0:0:0:
256,192,28975,1,0,0:0:0:0:
256,192,29282,1,0,0:0:0:0:
256,192,29436,1,0,0:0:0:0:
256,192,29590,1,8,0:0:0:0:
256,192,29898,1,0,0:0:0:0:
256,192,30052,1,8,0:0:0:0:
256,192,30359,1,0,0:0:0:0:
256,192,30513,1,0,0:0:0:0:
256,192,30667,1,8,0:0:0:0:
256,192,30975,1,0,0:0:0:0:
256,192,31436,1,8,0:0:0:0:
256,192,31590,1,0,0:0:0:0:
256,192,31744,1,0,0:0:0:0:
256,192,32052,1,8,0:0:0:0:
256,192,32205,1,0,0:0:0:0:
256,192,32359,1,0,0:0:0:0:
256,192,32513,1,8,0:0:0:0:
256,192,32821,1,0,0:0:0:0:
256,192,32975,1,0,0:0:0:0:
256,192,33128,1,8,0:0:0:0:
256,192,33282,1,8,0:0:0:0:
256,192,33436,1,0,0:0:0:0:
256,192,33744,1,8,0:0:0:0:
256,192,34052,1,0,0:0:0:0:
256,192,34205,1,8,0:0:0:0:
256,192,34282,1,8,0:0:0:0:
256,192,34359,1,8,0:0:0:0:
256,192,34513,1,0,0:0:0:0:
256,192,34821,1,8,0:0:0:0:
256,192,34975,1,8,0:0:0:0:
256,192,35128,1,0,0:0:0:0:
256,192,35436,1,8,0:0:0:0:
256,192,35590,1,0,0:0:0:0:
256,192,35667,1,0,0:0:0:0:
256,192,35744,1,0,0:0:0:0:
256,192,35898,1,4,0:0:0:0:
256,192,37128,1,8,0:0:0:0:
256,192,38359,1,8,0:0:0:0:
256,192,39590,1,8,0:0:0:0:
256,192,40052,1,8,0:0:0:0:
256,192,40513,1,8,0:0:0:0:
256,192,40821,1,0,0:0:0:0:
256,192,41744,1,8,0:0:0:0:
256,192,42052,1,8,0:0:0:0:
256,192,42513,1,8,0:0:0:0:
256,192,43282,1,8,0:0:0:0:
256,192,43744,1,8,0:0:0:0:
256,192,44205,1,8,0:0:0:0:
256,192,44513,1,8,0:0:0:0:
256,192,44975,1,0,0:0:0:0:
256,192,45436,1,0,0:0:0:0:
256,192,45744,1,4,0:0:0:0:
256,192,46052,1,0,0:0:0:0:
256,192,46359,1,0,0:0:0:0:
256,192,46667,1,0,0:0:0:0:
256,192,46975,1,0,0:0:0:0:
256,192,47282,1,0,0:0:0:0:
256,192,47590,1,0,0:0:0:0:
256,192,47744,1,8,0:0:0:0:
256,192,47898,1,0,0:0:0:0:
256,192,48052,1,8,0:0:0:0:
256,192,48205,1,0,0:0:0:0:
256,192,48513,1,0,0:0:0:0:
256,192,48821,1,0,0:0:0:0:
256,192,49128,1,0,0:0:0:0:
256,192,49436,1,8,0:0:0:0:
256,192,49590,1,0,0:0:0:0:
256,192,49744,1,8,0:0:0:0:
256,192,50052,1,8,0:0:0:0:
256,192,50205,1,8,0:0:0:0:
256,192,50359,1,0,0:0:0:0:
256,192,50436,1,0,0:0:0:0:
256,192,50513,1,0,0:0:0:0:
256,192,50667,1,12,0:0:0:0:
256,192,50975,1,8,0:0:0:0:
256,192,51128,1,0,0:0:0:0:
256,192,51282,1,8,0:0:0:0:
256,192,51436,1,0,0:0:0:0:
256,192,51744,1,8,0:0:0:0:
256,192,51898,1,0,0:0:0:0:
256,192,52052,1,0,0:0:0:0:
256,192,52205,1,8,0:0:0:0:
256,192,52359,1,8,0:0:0:0:
256,192,52436,1,8,0:0:0:0:
256,192,52513,1,8,0:0:0:0:
256,192,52667,1,0,0:0:0:0:
256,192,52975,1,0,0:0:0:0:
256,192,53128,2,0,P|224:64|0:192,1,490
256,192,55436,1,0,0:0:0:0:
256,192,55590,1,4,0:0:0:0:
256,192,55898,1,8,0:0:0:0:
256,192,56052,1,8,0:0:0:0:
256,192,56359,1,0,0:0:0:0:
256,192,56513,1,8,0:0:0:0:
256,192,56667,1,0,0:0:0:0:
256,192,56975,1,0,0:0:0:0:
256,192,57128,1,8,0:0:0:0:
256,192,57282,1,0,0:0:0:0:
256,192,57436,1,0,0:0:0:0:
256,192,57641,1,8,0:0:0:0:
256,192,57846,1,8,0:0:0:0:
256,192,58052,1,12,0:0:0:0:
256,192,58359,1,8,0:0:0:0:
256,192,58513,1,8,0:0:0:0:
256,192,58821,1,0,0:0:0:0:
256,192,58975,1,8,0:0:0:0:
256,192,59128,1,8,0:0:0:0:
256,192,59282,1,0,0:0:0:0:
256,192,59590,1,0,0:0:0:0:
256,192,59898,1,8,0:0:0:0:
256,192,60205,1,8,0:0:0:0:
256,192,60359,1,0,0:0:0:0:
256,192,60436,1,0,0:0:0:0:
256,192,60513,1,0,0:0:0:0:
256,192,60667,1,8,0:0:0:0:
256,192,60821,1,8,0:0:0:0:
256,192,60975,1,0,0:0:0:0:
256,192,61128,1,8,0:0:0:0:
256,192,61436,1,8,0:0:0:0:
256,192,61590,1,0,0:0:0:0:
256,192,61744,1,8,0:0:0:0:
256,192,62052,1,8,0:0:0:0:
256,192,62205,1,8,0:0:0:0:
256,192,62513,1,8,0:0:0:0:
256,192,62590,1,8,0:0:0:0:
256,192,62667,1,8,0:0:0:0:
256,192,62821,1,4,0:0:0:0:
256,192,63128,1,0,0:0:0:0:
256,192,63282,1,12,0:0:0:0:
256,192,63590,1,12,0:0:0:0:
256,192,63898,1,0,0:0:0:0:
256,192,63975,1,0,0:0:0:0:
256,192,64052,1,0,0:0:0:0:
256,192,64205,1,12,0:0:0:0:
256,192,64513,1,12,0:0:0:0:
256,192,64821,1,0,0:0:0:0:
256,192,64975,1,0,0:0:0:0:
256,192,65128,1,8,0:0:0:0:
256,192,65205,1,8,0:0:0:0:
256,192,65282,1,8,0:0:0:0:
256,192,65436,1,4,0:0:0:0:
256,192,65744,1,8,0:0:0:0:
256,192,65898,1,0,0:0:0:0:
256,192,66205,1,0,0:0:0:0:
256,192,66359,1,8,0:0:0:0:
256,192,66513,1,0,0:0:0:0:
256,192,66821,1,0,0:0:0:0:
256,192,66975,1,8,0:0:0:0:
256,192,67128,1,0,0:0:0:0:
256,192,67436,1,8,0:0:0:0:
256,192,67744,1,8,0:0:0:0:
256,192,67898,1,8,0:0:0:0:
256,192,68205,1,8,0:0:0:0:
256,192,68359,1,0,0:0:0:0:
256,192,68667,1,0,0:0:0:0:
256,192,68821,1,8,0:0:0:0:
256,192,68975,1,0,0:0:0:0:
256,192,69128,1,0,0:0:0:0:
256,192,69436,1,0,0:0:0:0:
256,192,69744,1,8,0:0:0:0:
256,192,70052,1,8,0:0:0:0:
256,192,70205,1,0,0:0:0:0:
256,192,70282,1,0,0:0:0:0:
256,192,70359,1,0,0:0:0:0:
256,192,70513,1,8,0:0:0:0:
256,192,70667,1,8,0:0:0:0:
256,192,70821,1,0,0:0:0:0:
256,192,70975,1,8,0:0:0:0:
256,192,71282,1,0,0:0:0:0:
256,192,71436,1,0,0:0:0:0:
256,192,71590,1,8,0:0:0:0:
256,192,71898,1,0,0:0:0:0:
256,192,72052,1,8,0:0:0:0:
256,192,72359,1,8,0:0:0:0:
256,192,72436,1,8,0:0:0:0:
256,192,72513,1,8,0:0:0:0:
256,192,72667,1,4,0:0:0:0:
256,192,72975,1,0,0:0:0:0:
256,192,73128,1,12,0:0:0:0:
256,192,73436,1,12,0:0:0:0:
256,192,73744,1,8,0:0:0:0:
256,192,73898,1,0,0:0:0:0:
256,192,74052,1,12,0:0:0:0:
256,192,74359,1,12,0:0:0:0:
256,192,74667,1,0,0:0:0:0:
256,192,74821,1,0,0:0:0:0:
256,192,74898,1,0,0:0:0:0:
256,192,74975,1,0,0:0:0:0:
256,192,75128,1,4,0:0:0:0:
256,192,75590,1,8,0:0:0:0:
256,192,75898,1,0,0:0:0:0:
256,192,76052,1,0,0:0:0:0:
256,192,76206,1,8,0:0:0:0:
256,192,76359,1,8,0:0:0:0:
256,192,76513,1,0,0:0:0:0:
256,192,76821,1,8,0:0:0:0:
256,192,76975,1,8,0:0:0:0:
256,192,77282,1,0,0:0:0:0:
256,192,77436,1,8,0:0:0:0:
256,192,77744,1,0,0:0:0:0:
256,192,78052,1,0,0:0:0:0:
256,192,78205,1,0,0:0:0:0:
256,192,78359,1,0,0:0:0:0:
256,192,78513,1,0,0:0:0:0:
256,192,78667,1,8,0:0:0:0:
256,192,78821,1,8,0:0:0:0:
256,192,80051,1,4,0:0:0:0:
256,192,80358,1,0,0:0:0:0:
256,192,80512,1,8,0:0:0:0:
256,192,80820,1,0,0:0:0:0:
256,192,80974,1,0,0:0:0:0:
256,192,81128,1,8,0:0:0:0:
256,192,81435,1,8,0:0:0:0:
256,192,81743,1,8,0:0:0:0:
256,192,81897,1,0,0:0:0:0:
256,192,82205,1,8,0:0:0:0:
256,192,82358,1,8,0:0:0:0:
256,192,82512,1,4,0:0:0:0:
256,192,82820,1,0,0:0:0:0:
256,192,82974,1,8,0:0:0:0:
256,192,83128,1,0,0:0:0:0:
256,192,83282,1,0,0:0:0:0:
256,192,83589,1,8,0:0:0:0:
256,192,83897,1,0,0:0:0:0:
256,192,84051,1,0,0:0:0:0:
256,192,84205,1,8,0:0:0:0:
256,192,84358,1,8,0:0:0:0:
256,192,84666,1,8,0:0:0:0:
256,192,84743,1,8,0:0:0:0:
256,192,84820,1,8,0:0:0:0:
256,192,84974,1,4,0:0:0:0:
256,192,85281,1,0,0:0:0:0:
256,192,85435,1,8,0:0:0:0:
256,192,85743,1,8,0:0:0:0:
256,192,85897,1,0,0:0:0:0:
256,192,86051,1,8,0:0:0:0:
256,192,86358,1,8,0:0:0:0:
256,192,86666,1,8,0:0:0:0:
256,192,86820,1,8,0:0:0:0:
256,192,86974,1,0,0:0:0:0:
256,192,87128,1,8,0:0:0:0:
256,192,87435,1,8,0:0:0:0:
256,192,87589,1,8,0:0:0:0:
256,192,87743,1,0,0:0:0:0:
256,192,87897,1,8,0:0:0:0:
256,192,88051,1,0,0:0:0:0:
256,192,88205,1,0,0:0:0:0:
256,192,88358,1,8,0:0:0:0:
256,192,88666,1,8,0:0:0:0:
256,192,88820,1,8,0:0:0:0:
256,192,88974,1,0,0:0:0:0:
256,192,89128,1,0,0:0:0:0:
256,192,89205,1,0,0:0:0:0:
256,192,89281,1,0,0:0:0:0:
256,192,89435,1,12,0:0:0:0:
256,192,89589,1,12,0:0:0:0:
