osu file format v14

[General]
AudioFilename: audio.mp3
AudioLeadIn: 0
PreviewTime: 54590
Countdown: 0
SampleSet: Soft
StackLeniency: 0.3
Mode: 0
LetterboxInBreaks: 0
WidescreenStoryboard: 0

[Editor]
Bookmarks: 6144,16144,25990,35836,45682,54144,65374,78913,89528
DistanceSpacing: 2.1
BeatDivisor: 4
GridSize: 4
TimelineZoom: 3.499999

[Metadata]
Title:MIIRO
TitleUnicode:海色
Artist:Roselia
ArtistUnicode:Roselia
Creator:-Mikan
Version:WARSHIP
Source:バンドリ! ガールズバンドパーティ!
Tags:Natteke Desu Nelly Imai Lisa Xetopia Lacrima myle Kanon Matsubara Shinitagari Hinsvar bbj0920 [Shana Lesus] [Shana_Lesus] Virtue- toybot Jounzan evilElvis Cami Gaia Left island newton- iljaaz adioni tatoe BanG Dream! Girls Band Party! Garupa Bandori! ガルパ!anime opening op japanese 艦隊これくしょん -艦これ- kantai collection みいろ ロゼリア minato yukina 湊友希那 aiba aina 相羽あいな hikawa sayo 氷川紗夜 kudou haruka 工藤晴香 imai lisa 今井リサ endou yurika 遠藤ゆりか nakashima yuki 中島由貴 udagawa ako 宇田川あこ sakuragawa megu 櫻川めぐ shirokane rinko 白金燐子 akesaka satomi 明坂聡美 video game AKINO from bless4 Fleet Girls Collection KanColle Animation Sequence game ver
BeatmapID:2098940
BeatmapSetID:1002819

[Difficulty]
HPDrainRate:6
CircleSize:4
OverallDifficulty:9.2
ApproachRate:9.3
SliderMultiplier:1.9
SliderTickRate:1

[Events]
//Background and Video events
0,0,"862dbcbf412f6ebefe0e6910a55c11c4d95f16f8_s2_n2.jpg",0,0
Video,-1200,"TATOE.mp4"
//Break Periods
//Storyboard Layer 0 (Background)
//Storyboard Layer 1 (Fail)
//Storyboard Layer 2 (Pass)
//Storyboard Layer 3 (Foreground)
//Storyboard Layer 4 (Overlay)
//Storyboard Sound Samples

[TimingPoints]
67,368.098159509202,4,2,1,100,1,0
205,307.692307692308,4,2,1,70,1,0
205,-133.333333333333,4,2,1,60,0,0
2666,-153.846153846153,4,2,1,65,0,0
3051,-153.846153846153,4,2,1,5,0,0
3128,-117.647058823529,4,2,1,65,0,0
3512,-117.647058823529,4,2,1,5,0,0
3589,-333.333333333333,4,2,1,55,0,0
3820,-333.333333333333,4,2,1,5,0,0
3897,314.13612565445,4,2,1,70,1,0
3897,-333.333333333333,4,2,1,70,0,0
5742,307.692307692308,4,2,1,70,1,0
5742,-90.9090909090909,4,2,1,50,0,0
5818,-90.9090909090909,4,2,1,5,0,0
5895,-666.666666666667,4,2,1,50,0,0
6126,-1000,4,2,1,5,0,0
6203,-66.6666666666667,4,2,1,80,0,1
6357,307.692307692308,4,2,1,70,1,1
6664,-86.9565217391304,4,2,1,80,0,1
8664,-76.9230769230769,4,2,1,80,0,1
9126,-86.9565217391304,4,2,1,80,0,1
11126,-76.9230769230769,4,2,1,80,0,1
11587,-86.9565217391304,4,2,1,80,0,1
13741,-86.9565217391304,4,2,1,90,0,1
15587,-86.9565217391304,4,2,1,100,0,1
15741,-86.9565217391304,4,2,1,100,0,0
15895,-333.333333333333,4,2,1,40,0,0
16126,-333.333333333333,4,2,1,5,0,0
16203,-166.666666666667,4,2,1,55,0,0
20049,-133.333333333333,4,2,1,55,0,0
20972,-166.666666666667,4,2,1,55,0,0
23280,-142.857142857143,4,2,1,55,0,0
24666,324.324324324324,4,2,1,60,1,0
24828,303.030303030303,4,2,1,40,1,0
24828,-76.9230769230769,4,2,1,65,0,0
24979,-76.9230769230769,4,2,1,5,0,0
25055,-76.9230769230769,4,2,1,65,0,0
25206,-76.9230769230769,4,2,1,5,0,0
25282,363.636363636364,4,2,1,40,1,0
25282,-76.9230769230769,4,2,1,65,0,0
25372,-76.9230769230769,4,2,1,5,0,0
25463,294.117647058824,4,2,1,40,1,0
25463,-76.9230769230769,4,2,1,65,0,0
25610,-76.9230769230769,4,2,1,5,0,0
25683,-76.9230769230769,4,2,1,65,0,0
25830,-76.9230769230769,4,2,1,5,0,0
25904,300,4,2,1,40,1,0
25904,-76.9230769230769,4,2,1,65,0,0
25979,-76.9230769230769,4,2,1,5,0,0
26052,307.692307692308,4,2,1,80,1,0
26052,-83.3333333333333,4,2,1,70,0,0
26359,-100,4,2,1,70,0,0
33436,-76.9230769230769,4,2,1,70,0,0
34052,-90.9090909090909,4,2,1,70,0,0
34513,-71.4285714285714,4,2,1,70,0,0
35128,-86.9565217391304,4,2,1,70,0,0
35898,-181.818181818181,4,2,1,60,0,0
43282,-142.857142857143,4,2,1,60,0,0
44205,-117.647058823529,4,2,1,60,0,0
44513,-200,4,2,1,65,0,0
45744,-100,4,2,1,70,0,0
50667,-100,4,2,1,80,0,0
53282,-100,4,2,1,55,0,0
53436,-100,4,2,1,65,0,0
53590,-100,4,2,1,75,0,0
53744,-100,4,2,1,85,0,0
53898,-71.4285714285714,4,2,1,95,0,0
54052,-71.4285714285714,4,2,1,100,0,0
55282,-71.4285714285714,4,2,1,60,0,0
55590,-66.6666666666667,4,2,1,85,0,1
55898,-86.9565217391304,4,2,1,85,0,1
58052,-74.0740740740741,4,2,1,85,0,1
58359,-86.9565217391304,4,2,1,85,0,1
59282,-80,4,2,1,85,0,1
59590,-86.9565217391304,4,2,1,85,0,1
62821,-71.4285714285714,4,2,1,95,0,1
63590,-83.3333333333333,4,2,1,95,0,1
65436,-71.4285714285714,4,2,1,85,0,1
65744,-86.9565217391304,4,2,1,85,0,1
67898,-71.4285714285714,4,2,1,85,0,1
68205,-86.9565217391304,4,2,1,85,0,1
72667,-76.9230769230769,4,2,1,95,0,1
73282,-86.9565217391304,4,2,1,95,0,1
75128,-71.4285714285714,4,2,1,85,0,1
75590,-90.9090909090909,4,2,1,85,0,1
77744,-90.9090909090909,4,2,1,65,0,1
78052,-90.9090909090909,4,2,1,75,0,1
78359,-90.9090909090909,4,2,1,85,0,1
78667,-90.9090909090909,4,2,1,95,0,1
78975,317.460317460317,4,2,1,80,1,0
78975,-181.818181818181,4,2,1,65,0,0
79590,307.692307692308,4,2,1,80,1,0
79590,-100,4,2,1,65,0,0
79666,-100,4,2,1,5,0,0
79743,-370.37037037037,4,2,1,65,0,0
79974,-370.37037037037,4,2,1,5,0,0
80051,-66.6666666666667,4,2,1,80,0,1
80205,307.692307692308,4,2,1,80,1,1
80512,-86.9565217391304,4,2,1,80,0,1
82512,-71.4285714285714,4,2,1,80,0,1
82974,-86.9565217391304,4,2,1,80,0,1
84974,-71.4285714285714,4,2,1,80,0,1
85435,-86.9565217391304,4,2,1,80,0,1
87589,-86.9565217391304,4,2,1,90,0,1
89127,-86.9565217391304,4,2,1,80,0,1
89204,-74.0740740740741,4,2,1,85,0,1
89281,-64.5161290322581,4,2,1,90,0,1
89358,-57.1428571428571,4,2,1,95,0,1
89435,-50,4,2,1,100,0,1
89512,-50,4,2,1,5,0,1
89589,-86.9565217391304,4,2,1,100,0,0

[Colours]
Combo1 : 162,255,255
Combo2 : 167,167,211
Combo3 : 106,181,255
Combo4 : 254,156,249

[HitObjects]
325,264,205,6,0,B|354:308|322:330|278:328|267:248|301:191|358:141|496:154|520:286|466:352|398:365,1,427.500016307831,2|0,0:0|0:0,0:0:0:0:
420,357,1281,1,2,0:0:0:0:
325,264,1435,5,2,0:0:0:0:
454,189,1589,1,2,0:0:0:0:
334,289,1743,1,2,0:0:0:0:
295,114,1897,1,2,0:0:0:0:
316,312,2051,1,2,0:0:0:0:
163,237,2205,1,2,0:0:0:0:
328,336,2358,1,2,0:0:0:0:
219,366,2512,1,2,0:0:0:0:
454,189,2666,6,0,B|476:92|413:131|428:24,1,154.374992933274,2|0,0:0|0:0,0:0:0:0:
447,25,3128,2,0,B|494:66|494:66|343:102,1,201.87500385046,2|0,0:0|0:0,0:0:0:0:
334,79,3589,2,0,L|346:35,1,42.7499986953736,2|0,0:0|0:0,0:0:0:0:
365,20,3897,5,2,0:1:0:0:
366,190,4054,1,0,0:0:0:0:
224,101,4211,1,0,0:0:0:0:
276,17,4368,5,2,0:1:0:0:
270,184,4525,1,0,0:0:0:0:
417,99,4682,1,0,0:0:0:0:
369,11,4839,5,2,0:1:0:0:
370,198,4996,1,0,0:0:0:0:
214,100,5153,1,0,0:0:0:0:
271,8,5310,5,2,0:1:0:0:
265,192,5467,1,0,0:0:0:0:
426,98,5624,1,0,0:0:0:0:
495,257,5743,6,0,L|432:253,1,52.2500015945435,2|0,0:0|0:0,0:0:0:0:
143,221,5895,2,0,L|169:222,1,21.3749993476868,2|0,0:0|0:0,0:0:0:0:
256,307,6203,6,0,B|226:359|226:359|133:379|91:304|96:213|192:202,1,285.000010871888,6|0,1:2|3:0,0:0:0:0:
426,98,6664,2,0,B|362:114|383:72|317:84,1,109.250002083778,10|0,0:0|0:0,0:0:0:0:
265,192,6972,1,2,3:2:0:0:
214,12,7126,1,2,3:2:0:0:
400,259,7279,2,0,P|412:162|436:56,1,163.875003125668,10|0,0:0|0:0,0:0:0:0:
475,36,7587,5,2,3:2:0:0:
197,89,7741,1,0,3:0:0:0:
493,184,7895,1,10,0:0:0:0:
265,192,8049,2,0,P|300:137|372:157,1,109.250002083778,2|0,0:0|3:0,0:0:0:0:
400,259,8356,5,2,3:2:0:0:
287,50,8510,1,10,0:0:0:0:
26,271,8664,6,0,B|86:246|181:259|108:320|214:335|268:298,1,246.999988693238,6|0,1:2|3:0,0:0:0:0:
460,146,9126,2,0,B|462:114|436:88|367:74|335:141,1,163.875003125668,8|0,0:0|0:0,0:0:0:0:
336,211,9433,5,2,3:2:0:0:
396,16,9587,1,2,3:2:0:0:
400,259,9741,1,8,0:0:0:0:
158,79,9895,1,2,0:0:0:0:
338,133,10049,5,2,3:2:0:0:
212,237,10203,1,2,3:2:0:0:
226,23,10356,1,8,0:0:0:0:
328,286,10510,1,2,0:0:0:0:
426,52,10664,6,0,L|361:58,1,54.6250010418892,4|0,3:0|3:0,0:0:0:0:
145,177,10818,1,8,0:3:0:0:
151,128,10895,1,8,0:3:0:0:
158,79,10972,1,8,3:3:0:0:
463,293,11126,6,0,B|478:312|510:315|510:315|484:255|387:265|363:354|417:399,1,246.999988693238,6|0,1:2|3:0,0:0:0:0:
145,177,11587,2,0,L|266:163,1,109.250002083778,10|0,0:0|0:0,0:0:0:0:
426,52,11895,1,2,3:2:0:0:
329,284,12049,1,2,3:2:0:0:
73,67,12203,2,0,B|126:88|126:88|99:219,1,163.875003125668,10|0,0:0|0:0,0:0:0:0:
47,244,12510,5,2,3:2:0:0:
226,23,12664,1,0,3:0:0:0:
347,178,12818,2,0,L|327:285,1,109.250002083778,10|2,0:0|0:0,0:0:0:0:
104,192,13126,5,0,3:2:0:0:
272,120,13279,1,2,3:2:0:0:
29,130,13433,1,8,0:0:0:0:
237,246,13587,1,2,3:2:0:0:
233,267,13664,1,2,3:2:0:0:
229,288,13741,5,10,0:0:0:0:
135,6,13895,1,0,3:0:0:0:
82,322,14049,1,10,0:0:0:0:
306,45,14203,1,2,3:2:0:0:
29,130,14356,6,0,L|118:142,1,54.6250010418892,4|0,0:3|0:0,0:0:0:0:
347,178,14510,1,8,0:3:0:0:
343,156,14587,1,0,3:3:0:0:
338,134,14664,1,0,3:3:0:0:
171,344,14818,5,0,1:0:0:0:
306,45,14972,2,0,L|185:65,1,109.250002083778,0|0,1:0|3:0,0:0:0:0:
0,272,15279,5,4,3:0:0:0:
55,290,15356,1,2,3:2:0:0:
116,266,15433,1,2,3:2:0:0:
136,194,15510,1,2,3:2:0:0:
83,137,15587,5,4,1:0:0:0:
488,264,15741,1,2,1:2:0:0:
409,312,15895,6,0,P|398:290|395:267,1,42.7499986953736,2|0,0:0|0:0,0:0:0:0:
432,202,16203,6,0,P|455:165|456:140,1,56.9999982604981,2|0,0:0|0:0,0:0:0:0:
361,73,16510,1,2,0:0:0:0:
271,141,16664,2,0,B|342:121|318:165|395:142,1,113.999996520996,2|0,0:0|0:0,0:0:0:0:
440,73,17126,1,2,0:0:0:0:
507,151,17279,6,0,P|489:253|486:284,1,113.999996520996,2|0,0:0|0:0,0:0:0:0:
512,363,17741,2,0,P|506:340|489:363,1,56.9999982604981,0|2,0:0|0:0,0:0:0:0:
389,311,18049,2,0,P|395:288|412:311,1,56.9999982604981
487,263,18356,1,2,0:0:0:0:
487,263,18510,1,2,0:0:0:0:
296,334,18664,6,0,B|250:331|250:331|225:349|225:349|178:345,1,113.999996520996,2|0,0:0|0:0,0:0:0:0:
67,338,19126,2,0,P|100:310|113:256,1,85.4999973907472,2|0,0:0|0:0,0:0:0:0:
65,212,19433,2,0,P|41:220|65:218,1,56.9999982604981,2|0,0:0|0:0,0:0:0:0:
209,216,19741,2,0,P|177:178|172:160,1,56.9999982604981,2|0,0:0|0:0,0:0:0:0:
84,24,20049,6,0,B|73:86|118:69|96:152,1,106.875004076958,2|0,0:0|0:0,0:0:0:0:
91,136,20357,2,0,B|74:108|74:108|89:72|144:63|176:98,1,142.500005435944,2|0,0:0|0:0,0:0:0:0:
174,171,20818,1,2,0:0:0:0:
267,78,20972,1,2,0:0:0:0:
383,144,21126,6,0,P|355:157|327:156,1,56.9999982604981
449,280,21433,2,0,P|451:249|466:225,1,56.9999982604981,2|2,0:0|0:0,0:0:0:0:
293,262,21741,2,0,P|318:279|331:304,1,56.9999982604981,2|0,0:0|0:0,0:0:0:0:
376,231,22049,1,2,0:0:0:0:
330,302,22203,6,0,P|304:284|291:259,1,56.9999982604981,2|0,0:0|0:0,0:0:0:0:
465,227,22510,2,0,P|462:257|447:281,1,56.9999982604981,2|0,0:0|0:0,0:0:0:0:
329,156,22818,2,0,P|357:143|385:144,1,56.9999982604981,2|0,0:0|0:0,0:0:0:0:
376,231,23126,1,0,0:0:0:0:
169,168,23280,5,2,0:0:0:0:
303,73,23433,2,0,B|309:36|309:36|286:16,1,66.4999979705811,2|0,0:0|0:0,0:0:0:0:
202,41,23741,2,0,B|195:77|195:77|218:97,1,66.4999979705811,2|0,0:0|0:0,0:0:0:0:
322,93,24049,2,0,B|331:43|331:43|286:-14,1,99.7499969558717,2|0,0:0|0:0,0:0:0:0:
286,16,24356,5,2,0:1:0:0:
251,169,24510,1,2,0:0:0:0:
218,97,24664,1,2,0:0:0:0:
490,186,24828,6,0,L|355:157,1,123.499994346619,2|0,0:1|0:0,0:0:0:0:
352,171,25055,2,0,L|488:202,1,123.499994346619,2|0,0:1|0:0,0:0:0:0:
486,221,25282,2,0,L|422:206,1,61.7499971733095,2|0,0:1|0:0,0:0:0:0:
258,305,25463,6,0,L|393:276,1,123.499994346619,2|0,0:1|0:0,0:0:0:0:
396,290,25683,2,0,L|260:321,1,123.499994346619,2|0,0:1|0:0,0:0:0:0:
262,340,25904,2,0,L|326:325,1,61.7499971733095,2|0,0:1|0:0,0:0:0:0:
322,93,26052,6,0,B|278:75|278:75|227:82|199:142|233:178,1,170.999994781494,4|0,1:2|0:0,0:0:0:0:
248,194,26359,1,2,0:0:0:0:
198,34,26513,1,8,0:0:0:0:
112,252,26667,1,2,3:2:0:0:
41,105,26821,2,0,P|108:97|138:89,1,95,0|2,3:0|0:0,0:0:0:0:
425,206,27128,6,0,P|362:194|331:191,1,95,10|0,0:0|0:0,0:0:0:0:
134,90,27436,1,2,3:2:0:0:
266,0,27590,2,0,P|321:32|319:123,1,142.5,8|0,0:0|0:0,0:0:0:0:
305,120,27898,1,2,3:2:0:0:
112,252,28052,1,0,3:0:0:0:
51,199,28205,2,0,P|45:129|36:89,1,95,8|2,0:0|0:0,0:0:0:0:
268,284,28513,6,0,B|208:289|208:289|170:334|170:334|74:339,1,190,0|10,3:2|0:0,0:0:0:0:
145,159,28975,1,2,0:0:0:0:
149,172,29052,1,2,0:0:0:0:
153,185,29128,1,2,3:2:0:0:
341,356,29282,2,0,P|346:305|355:248,1,95,2|0,3:2|0:0,0:0:0:0:
238,95,29590,6,0,P|239:153|312:183,1,142.5,10|0,0:0|0:0,0:0:0:0:
325,163,29898,1,0,3:0:0:0:
471,55,30052,2,0,P|394:42|347:20,1,95,8|0,0:0|0:0,0:0:0:0:
352,261,30359,1,2,3:2:0:0:
491,217,30513,1,0,3:0:0:0:
238,95,30667,5,8,0:0:0:0:
218,98,30744,1,8,0:0:0:0:
200,104,30821,1,8,0:0:0:0:
182,109,30898,1,8,0:0:0:0:
163,114,30975,2,0,P|183:189|199:284,1,142.5,2|0,3:2|0:0,0:0:0:0:
183,282,31282,1,0,3:0:0:0:
8,274,31436,2,0,P|42:233|95:234,1,95,8|2,0:0|0:0,0:0:0:0:
333,366,31744,6,0,P|264:352|215:354,1,95,0|2,3:0|0:0,0:0:0:0:
126,375,31975,1,2,0:0:0:0:
108,367,32052,2,0,P|134:287|206:295,1,142.5,10|0,0:0|0:0,0:0:0:0:
192,292,32359,1,2,3:2:0:0:
52,138,32513,2,0,P|72:193|84:245,1,95,8|0,0:0|0:0,0:0:0:0:
313,73,32821,5,2,3:2:0:0:
149,32,32975,1,0,3:0:0:0:
261,190,33128,2,0,P|295:199|330:200,1,47.5,8|0,0:0|0:0,0:0:0:0:
475,24,33282,1,2,0:0:0:0:
472,42,33359,1,2,0:0:0:0:
468,60,33436,6,0,B|421:45|361:74|413:87|344:141|262:88,1,185.249991519928,2|0,3:2|0:0,0:0:0:0:
277,88,33744,1,8,0:0:0:0:
463,239,33898,1,2,0:0:0:0:
339,343,34052,6,0,P|367:348|417:362,1,52.2500015945435,0|0,3:0|0:0,0:0:0:0:
488,162,34205,1,8,0:0:0:0:
440,160,34282,1,8,0:0:0:0:
403,189,34359,1,8,0:0:0:0:
219,384,34513,6,0,P|206:292|178:162,1,199.499993911743,4|0,3:2|0:0,0:0:0:0:
169,163,34821,1,2,3:0:0:0:
373,268,34975,1,8,0:0:0:0:
324,15,35128,6,0,P|305:88|292:187,1,163.875003125668,4|0,3:2|0:0,0:0:0:0:
299,248,35436,1,8,3:0:0:0:
259,293,35513,1,8,3:0:0:0:
199,295,35590,1,8,3:0:0:0:
160,254,35667,1,8,3:0:0:0:
115,229,35744,1,4,3:0:0:0:
71,233,35821,1,4,3:0:0:0:
43,269,35898,6,0,P|59:314|65:338,3,52.2500015945435,4|0|0|0,3:1|0:0|0:0|0:0,0:0:0:0:
169,163,36513,2,0,P|185:118|191:94,3,52.2500015945435,2|0|2|0,0:0|0:0|0:0|0:0,0:0:0:0:
259,293,37128,6,0,P|298:327|355:317,1,104.500003189087,2|0,0:0|0:0,0:0:0:0:
463,239,37590,2,0,P|452:303|448:363,1,104.500003189087,2|0,0:0|0:0,0:0:0:0:
372,243,38052,2,0,P|365:198|356:173,1,52.2500015945435,2|0,0:0|0:0,0:0:0:0:
445,14,38359,6,0,P|485:41|486:97,1,104.500003189087,2|0,0:0|0:0,0:0:0:0:
408,152,38821,2,0,B|350:143|371:186|296:174,1,104.500003189087,2|0,0:0|0:0,0:0:0:0:
217,100,39282,2,0,P|263:93|277:89,1,52.2500015945435,2|0,0:0|0:0,0:0:0:0:
211,284,39590,6,0,P|173:240|110:244,1,104.500003189087,2|0,0:0|0:0,0:0:0:0:
7,342,40052,2,0,P|60:340|118:355,1,104.500003189087,2|0,0:0|0:0,0:0:0:0:
41,207,40513,2,0,P|51:245|53:276,1,52.2500015945435,2|0,0:0|0:0,0:0:0:0:
205,150,40821,6,0,P|208:124|216:99,3,52.2500015945435,2|0|2|0,0:0|0:0|0:0|0:0,0:0:0:0:
91,77,41436,2,0,P|87:51|79:26,3,52.2500015945435,2|0|2|0,0:0|0:0|0:0|0:0,0:0:0:0:
41,207,42052,6,0,P|63:175|129:176,1,104.500003189087,2|0,0:0|0:0,0:0:0:0:
211,284,42513,2,0,P|216:225|225:178,1,104.500003189087,2|0,0:0|0:0,0:0:0:0:
153,69,42975,2,0,P|172:103|197:112,1,52.2500015945435,2|2,0:0|0:0,0:0:0:0:
262,103,43205,5,2,0:0:0:0:
279,81,43282,2,0,B|368:68|324:126|434:106,1,132.999995941162,2|0,0:0|0:0,0:0:0:0:
492,43,43744,1,2,0:0:0:0:
487,33,43898,6,0,P|471:90|475:103,2,44.3333319803874,2|2|2,0:0|0:0|0:0,0:0:0:0:
431,178,44205,2,0,P|448:227|445:243,1,40.375000770092,2|0,0:0|0:0,0:0:0:0:
468,341,44359,5,4,0:3:0:0:
472,318,44436,1,4,0:3:0:0:
485,298,44513,2,0,P|431:291|386:373,2,142.5,4|8|8,0:3|0:3|0:3,0:0:0:0:
44,308,45744,6,0,P|109:292|144:289,1,95,4|2,3:2|0:0,0:0:0:0:
224,207,46052,1,2,3:2:0:0:
78,99,46205,1,2,0:0:0:0:
166,49,46359,2,0,P|146:150|138:223,1,142.5,2|0,3:2|0:0,0:0:0:0:
147,205,46667,1,0,3:0:0:0:
310,295,46821,5,2,0:0:0:0:
253,125,46975,1,2,3:2:0:0:
196,347,47128,1,2,0:0:0:0:
431,206,47282,2,0,P|363:200|329:193,1,95,2|0,3:2|0:0,0:0:0:0:
147,205,47590,5,2,3:2:0:0:
373,88,47744,2,0,P|361:58|355:29,1,47.5,2|0,1:3|0:0,0:0:0:0:
470,276,47898,5,2,3:2:0:0:
222,98,48052,2,0,P|234:68|240:39,1,47.5,2|0,1:3|0:0,0:0:0:0:
231,275,48205,5,0,3:2:0:0:
231,275,48359,2,0,P|159:288|124:290,1,95,2|2,0:0|3:2,0:0:0:0:
22,166,48667,1,2,0:0:0:0:
100,20,48821,2,0,B|142:61|142:61|118:149,1,142.5,2|0,3:2|0:0,0:0:0:0:
104,156,49128,1,0,3:0:0:0:
326,224,49282,5,2,0:0:0:0:
222,98,49436,1,2,3:2:0:0:
137,289,49590,1,2,0:0:0:0:
369,61,49744,6,0,P|410:66|443:152,1,142.5,6|0,3:2|0:0,0:0:0:0:
428,168,50052,2,0,P|383:155|368:154,1,47.5,2|0,3:2|0:0,0:0:0:0:
137,289,50205,5,8,3:0:0:0:
179,309,50282,1,8,3:0:0:0:
227,301,50359,1,8,3:0:0:0:
258,265,50436,1,8,3:0:0:0:
255,217,50513,2,0,L|240:154,1,47.5,4|0,3:0|0:0,0:0:0:0:
380,35,50667,5,4,1:2:0:0:
339,278,50821,5,2,3:2:0:0:
206,81,50975,1,4,1:2:0:0:
501,137,51128,1,2,3:2:0:0:
458,214,51282,2,0,P|405:196|357:188,1,95,8|2,0:3|3:2,0:0:0:0:
111,253,51590,5,2,3:2:0:0:
213,363,51744,1,4,1:2:0:0:
268,143,51898,1,2,3:2:0:0:
97,366,52052,1,8,3:0:0:0:
9,155,52205,2,0,L|71:136,1,47.5,4|0,1:2|0:0,0:0:0:0:
339,278,52359,5,8,3:0:0:0:
329,314,52436,1,8,3:0:0:0:
319,350,52513,1,8,3:0:0:0:
178,182,52667,1,4,3:0:0:0:
345,42,52821,1,4,3:0:0:0:
486,209,52975,1,2,3:2:0:0:
332,195,53128,5,4,1:2:0:0:
336,208,53282,1,8,0:0:0:0:
312,223,53359,5,8,0:0:0:0:
276,202,53436,5,8,0:0:0:0:
276,150,53513,5,8,0:0:0:0:
326,120,53590,5,8,0:0:0:0:
389,138,53667,5,8,0:0:0:0:
415,212,53744,5,8,0:0:0:0:
370,279,53821,5,8,0:0:0:0:
395,353,53898,5,8,0:0:0:0:
481,360,53975,5,8,0:0:0:0:
512,274,54052,6,0,P|481:283|438:285,1,66.4999979705811,8|8,0:0|0:0,0:0:0:0:
54,141,54205,5,4,3:2:0:0:
48,149,55282,5,2,0:0:0:0:
67,166,55359,1,2,0:0:0:0:
92,173,55436,1,2,0:0:0:0:
118,171,55513,1,2,0:0:0:0:
171,116,55590,6,0,B|141:114|121:102|121:102|66:168|121:243|179:232,1,213.750008153916,6|0,1:2|0:0,0:0:0:0:
221,200,55898,6,0,B|281:195|268:233|331:222,1,109.250002083778,10|2,0:0|0:0,0:0:0:0:
430,21,56205,1,0,3:0:0:0:
343,36,56359,2,0,P|329:100|320:153,1,109.250002083778,2|8,0:0|0:0,0:0:0:0:
504,324,56667,6,0,P|441:304|421:203,1,163.875003125668,2|0,0:0|0:0,0:0:0:0:
432,198,56975,1,2,0:0:0:0:
309,340,57128,2,0,P|228:321|181:318,1,109.250002083778,8|2,0:0|0:0,0:0:0:0:
50,120,57436,5,0,3:2:0:0:
50,120,57513,1,2,0:0:0:0:
223,193,57667,1,2,0:0:0:0:
223,193,57744,1,8,0:0:0:0:
83,324,57898,2,0,P|76:290|62:250,1,54.6250010418892,2|0,0:0|0:0,0:0:0:0:
177,28,58052,6,0,P|228:17|292:121,1,192.375000733852,6|0,1:2|0:0,0:0:0:0:
277,135,58359,6,0,P|252:119|203:116,1,54.6250010418892,10|0,0:0|0:0,0:0:0:0:
70,270,58513,2,0,P|154:261|188:244,1,109.250002083778,8|0,0:3|3:0,0:0:0:0:
502,324,58821,2,0,P|437:297|382:290,1,109.250002083778,2|8,0:0|0:0,0:0:0:0:
246,366,59128,5,2,0:0:0:0:
264,375,59205,1,2,0:0:0:0:
281,384,59282,2,0,P|288:259|301:138,1,237.5,2|8,3:2|0:0,0:0:0:0:
177,28,59744,1,0,0:0:0:0:
131,120,59898,2,0,P|191:105|245:101,1,109.250002083778,2|0,3:2|0:0,0:0:0:0:
425,197,60205,1,10,0:0:0:0:
430,0,60359,5,8,0:0:0:0:
392,0,60436,1,8,0:0:0:0:
358,16,60513,2,0,P|372:98|377:148,1,109.250002083778,4|2,3:2|0:0,0:0:0:0:
158,280,60821,1,10,0:0:0:0:
238,101,60975,1,2,0:0:0:0:
418,305,61128,2,0,P|422:213|430:174,1,109.250002083778,2|0,3:2|0:0,0:0:0:0:
475,85,61436,5,10,0:0:0:0:
285,218,61590,1,2,0:0:0:0:
110,71,61744,2,0,B|156:51|156:51|218:95|182:176,1,163.875003125668,2|0,3:2|0:0,0:0:0:0:
175,169,62052,6,0,P|121:156|102:154,1,54.6250010418892,10|0,0:0|0:0,0:0:0:0:
304,28,62205,2,0,P|330:22|357:15,1,54.6250010418892,2|0,0:0|0:0,0:0:0:0:
424,196,62359,5,8,3:0:0:0:
273,260,62513,1,8,3:2:0:0:
279,239,62590,1,8,3:2:0:0:
285,218,62667,1,8,3:2:0:0:
512,350,62821,6,0,B|441:345|441:345|407:382|407:382|302:377,1,199.499993911743,6|0,1:2|0:0,0:0:0:0:
304,362,63128,1,2,3:2:0:0:
191,150,63282,1,10,0:0:0:0:
106,345,63436,1,2,3:2:0:0:
365,104,63590,2,0,P|292:91|241:79,1,113.999996520996,10|0,0:0|0:0,0:0:0:0:
57,234,63898,5,6,1:2:0:0:
432,167,64052,1,2,3:2:0:0:
140,28,64205,2,0,P|150:90|158:166,1,113.999996520996,10|2,0:0|3:2,0:0:0:0:
369,384,64513,2,0,P|358:321|351:246,1,113.999996520996,10|2,0:0|3:2,0:0:0:0:
434,52,64821,5,6,1:2:0:0:
264,248,64975,1,8,0:0:0:0:
255,232,65052,1,8,0:0:0:0:
245,217,65128,2,0,P|253:173|255:156,1,56.9999982604981,0|0,3:0|0:0,0:0:0:0:
60,34,65282,1,8,0:0:0:0:
51,50,65359,1,8,0:0:0:0:
41,65,65436,2,0,P|55:138|73:261,1,199.499993911743,6|0,1:2|0:0,0:0:0:0:
37,343,65744,6,0,P|67:290|119:301,1,109.250002083778,8|2,0:0|0:0,0:0:0:0:
353,272,66052,1,0,3:2:0:0:
276,139,66205,2,0,P|264:240|262:261,1,109.250002083778,2|8,0:0|0:0,0:0:0:0:
501,158,66513,6,0,P|514:110|421:56,1,163.875003125668,2|0,0:0|0:0,0:0:0:0:
412,71,66821,2,0,P|424:162|426:193,1,109.250002083778,2|8,0:0|0:0,0:0:0:0:
285,337,67128,1,2,0:0:0:0:
155,140,67282,1,0,3:0:0:0:
37,343,67436,2,0,P|113:319|153:315,1,109.250002083778,2|8,0:0|0:0,0:0:0:0:
262,112,67744,5,2,0:0:0:0:
269,91,67821,1,2,0:0:0:0:
278,69,67898,2,0,B|234:48|157:65|208:103|137:130|76:90,1,199.499993911743,6|0,1:2|0:0,0:0:0:0:
27,41,68205,6,0,P|43:111|45:135,1,54.6250010418892,8|0,0:0|0:0,0:0:0:0:
285,337,68359,2,0,P|291:282|304:229,1,109.250002083778,2|0,0:0|3:0,0:0:0:0:
500,100,68667,2,0,P|423:64|394:92,1,109.250002083778,2|8,0:0|0:0,0:0:0:0:
202,209,68975,5,2,0:0:0:0:
117,159,69128,2,0,P|137:93|252:112,1,163.875003125668,0|0,3:0|0:0,0:0:0:0:
236,103,69436,1,8,0:0:0:0:
442,208,69590,1,0,0:0:0:0:
500,100,69744,2,0,P|433:106|370:106,1,109.250002083778,2|8,3:2|0:3,0:0:0:0:
306,157,69975,5,8,0:3:0:0:
291,180,70052,1,8,0:2:0:0:
290,206,70128,1,0,3:0:0:0:
306,234,70205,1,0,3:0:0:0:
313,265,70282,1,0,3:0:0:0:
307,297,70359,6,0,P|388:289|435:290,1,109.250002083778,4|2,1:2|0:0,0:0:0:0:
236,103,70667,1,10,0:0:0:0:
148,322,70821,1,2,0:0:0:0:
27,41,70975,2,0,P|48:115|51:174,1,109.250002083778,2|0,3:2|0:0,0:0:0:0:
306,234,71282,1,10,0:0:0:0:
45,285,71436,1,0,0:0:0:0:
273,28,71590,6,0,P|250:109|238:200,1,163.875003125668,2|0,3:2|0:0,0:0:0:0:
211,218,71898,2,0,P|169:198|134:193,1,54.6250010418892,10|0,0:0|0:0,0:0:0:0:
388,105,72052,2,0,P|430:85|465:80,1,54.6250010418892,2|0,0:0|0:0,0:0:0:0:
307,297,72205,5,4,3:0:0:0:
113,70,72359,1,8,3:2:0:0:
152,67,72436,1,8,3:2:0:0:
185,64,72513,1,8,3:2:0:0:
424,371,72667,6,0,B|390:376|357:352|357:352|312:381|312:381|290:357|230:358,1,185.249991519928,6|0,1:2|0:0,0:0:0:0:
228,371,72975,1,2,3:2:0:0:
288,61,73128,1,10,0:0:0:0:
415,289,73282,1,2,3:2:0:0:
61,107,73436,2,0,P|115:112|169:114,1,109.250002083778,10|0,0:0|0:0,0:0:0:0:
459,182,73744,5,6,1:2:0:0:
40,239,73898,1,2,3:2:0:0:
378,20,74052,2,0,P|369:97|366:149,1,109.250002083778,10|2,0:0|3:2,0:0:0:0:
148,380,74359,2,0,P|157:303|160:251,1,109.250002083778,10|2,0:0|3:2,0:0:0:0:
0,11,74667,5,6,1:2:0:0:
17,139,74821,1,2,3:2:0:0:
67,155,74898,1,2,3:2:0:0:
118,129,74975,1,10,0:2:0:0:
161,79,75052,1,2,3:2:0:0:
238,75,75128,6,0,P|244:171|257:277,1,199.499993911743,4|0,1:2|0:0,0:0:0:0:
280,290,75436,2,0,P|293:253|274:225,1,66.4999979705811,0|0,3:2|0:0,0:0:0:0:
17,139,75590,2,0,P|99:181|125:165,1,104.500003189087,10|0,0:0|0:0,0:0:0:0:
437,83,75898,2,0,P|364:78|317:72,1,104.500003189087,2|0,3:2|0:0,0:0:0:0:
162,281,76205,1,10,0:0:0:0:
87,62,76359,1,2,0:0:0:0:
314,351,76513,6,0,P|258:298|283:229,1,156.750004783631,2|0,3:2|0:0,0:0:0:0:
303,233,76821,1,8,0:0:0:0:
193,33,76975,2,0,P|207:101|213:160,1,104.500003189087,2|0,0:2|3:0,0:0:0:0:
454,269,77282,1,0,0:0:0:0:
418,185,77436,2,0,P|424:133|436:82,1,104.500003189087,10|2,0:0|0:0,0:0:0:0:
487,29,77667,1,2,0:0:0:0:
500,38,77744,5,6,1:2:0:0:
294,152,77898,1,4,0:3:0:0:
356,17,78052,5,4,0:3:0:0:
454,269,78205,1,4,0:3:0:0:
87,62,78359,5,4,0:3:0:0:
198,354,78513,1,4,0:3:0:0:
436,82,78667,5,4,0:3:0:0:
58,226,78821,1,4,0:3:0:0:
133,260,78975,6,0,P|139:230|144:209,2,52.2500015945435,2|2|2,0:0|0:0|0:0,0:0:0:0:
62,308,79451,1,2,0:0:0:0:
0,152,79590,6,0,P|37:146|53:142,1,47.5,2|0,0:0|0:0,0:0:0:0:
418,183,79743,2,0,P|392:187|378:191,1,38.4750009393311,2|0,0:0|0:0,0:0:0:0:
259,142,80051,6,0,B|239:121|244:77|292:40|368:47|408:107|416:155|374:198,1,285.000010871888,6|0,1:2|3:0,0:0:0:0:
238,284,80512,2,0,B|174:289|191:248|109:262,1,109.250002083778,10|0,0:0|0:0,0:0:0:0:
17,343,80820,1,2,3:2:0:0:
335,272,80974,1,2,3:2:0:0:
95,99,81127,2,0,P|116:174|136:277,1,163.875003125668,10|0,0:0|0:0,0:0:0:0:
120,282,81435,5,2,3:2:0:0:
380,191,81589,1,0,3:2:0:0:
153,154,81743,1,10,0:0:0:0:
413,369,81897,2,0,P|428:289|438:253,1,109.250002083778,2|0,0:0|3:0,0:0:0:0:
267,113,82204,5,2,3:2:0:0:
342,287,82358,1,8,0:0:0:0:
479,87,82512,6,0,B|476:67|492:44|492:44|437:7|369:29|319:111|367:172|412:193,1,265.999991882324,6|0,1:2|3:0,0:0:0:0:
120,282,82974,2,0,P|134:189|217:176,1,163.875003125668,8|0,0:0|0:0,0:0:0:0:
204,187,83281,1,2,3:2:0:0:
171,352,83435,1,2,3:2:0:0:
21,112,83589,1,8,0:0:0:0:
0,279,83743,5,2,0:0:0:0:
218,195,83897,1,2,3:2:0:0:
7,116,84051,1,2,3:2:0:0:
224,14,84204,6,0,P|302:28|355:30,1,109.250002083778,10|0,0:0|3:0,0:0:0:0:
499,243,84512,1,10,0:0:0:0:
471,244,84588,1,8,0:0:0:0:
444,248,84666,1,10,0:0:0:0:
418,254,84742,1,8,0:0:0:0:
391,262,84819,1,10,0:0:0:0:
366,272,84896,1,8,0:0:0:0:
343,287,84974,6,0,P|293:212|423:177,1,265.999991882324,6|0,1:2|3:0,0:0:0:0:
266,348,85435,2,0,P|188:334|135:332,1,109.250002083778,10|0,0:0|0:0,0:0:0:0:
95,99,85743,1,2,3:2:0:0:
39,252,85897,1,2,3:2:0:0:
248,36,86051,2,0,B|196:69|196:69|229:119|218:173,1,163.875003125668,10|0,0:0|0:0,0:0:0:0:
204,187,86358,5,2,3:2:0:0:
53,22,86512,1,0,3:0:0:0:
395,113,86666,2,0,P|377:168|359:242,1,109.250002083778,10|2,0:0|0:0,0:0:0:0:
138,260,86974,5,0,3:0:0:0:
248,36,87127,1,2,3:2:0:0:
291,187,87281,1,8,0:0:0:0:
66,176,87435,1,2,3:2:0:0:
40,165,87512,1,2,3:2:0:0:
15,153,87589,5,10,0:0:0:0:
398,113,87743,1,0,3:0:0:0:
190,355,87897,1,10,0:0:0:0:
114,68,88051,1,2,3:2:0:0:
364,222,88204,6,0,P|350:266|346:282,1,54.6250010418892,2|0,1:2|0:0,0:0:0:0:
85,330,88358,2,0,P|104:266|194:252,1,163.875003125668,10|0,0:0|0:0,0:0:0:0:
213,278,88666,6,0,P|172:274|161:263,1,54.6250010418892,2|0,1:2|0:0,0:0:0:0:
277,23,88820,2,0,P|288:110|290:198,1,163.875003125668,8|0,0:0|0:0,0:0:0:0:
340,327,89127,6,0,P|343:365|347:376,1,27.3125005209446,8|2,3:0|0:0,0:0:0:0:
383,360,89204,6,0,P|401:382|411:388,1,32.0625001223087,2|2,3:2|0:0,0:0:0:0:
449,351,89281,6,0,P|474:356|494:353,1,36.8125002808571,2|2,3:2|0:0,0:0:0:0:
482,282,89358,6,0,P|503:263|511:245,1,41.5625003963709,2|2,3:2|0:0,0:0:0:0:
440,217,89435,6,0,P|394:230|329:238,1,95,4|0,1:0|0:0,0:0:0:0:
0,145,89589,1,2,1:2:0:0:
