osu file format v14

[General]
AudioFilename: audio.mp3
AudioLeadIn: 0
PreviewTime: 54590
Countdown: 0
SampleSet: Soft
StackLeniency: 0.3
Mode: 3
LetterboxInBreaks: 0
SpecialStyle: 0
WidescreenStoryboard: 1

[Editor]
Bookmarks: 6144,16144,25990,35836,45682,54144,65374,78913,89528
DistanceSpacing: 2.1
BeatDivisor: 4
GridSize: 4
TimelineZoom: 2.5

[Metadata]
Title:MIIRO
TitleUnicode:海色
Artist:Roselia
ArtistUnicode:Roselia
Creator:-Mikan
Version:Virtue's HD
Source:バンドリ! ガールズバンドパーティ!
Tags:Natteke Desu Nelly Imai Lisa Xetopia Lacrima myle Kanon Matsubara Shinitagari Hinsvar bbj0920 [Shana Lesus] [Shana_Lesus] Virtue- toybot Jounzan evilElvis Cami Gaia Left island newton- iljaaz adioni tatoe BanG Dream! Girls Band Party! Garupa Bandori! ガルパ!anime opening op japanese 艦隊これくしょん -艦これ- kantai collection みいろ ロゼリア minato yukina 湊友希那 aiba aina 相羽あいな hikawa sayo 氷川紗夜 kudou haruka 工藤晴香 imai lisa 今井リサ endou yurika 遠藤ゆりか nakashima yuki 中島由貴 udagawa ako 宇田川あこ sakuragawa megu 櫻川めぐ shirokane rinko 白金燐子 akesaka satomi 明坂聡美 video game AKINO from bless4 Fleet Girls Collection KanColle Animation Sequence game ver
BeatmapID:2123597
BeatmapSetID:1002819

[Difficulty]
HPDrainRate:7.5
CircleSize:4
OverallDifficulty:8
ApproachRate:9.3
SliderMultiplier:1.9
SliderTickRate:1

[Events]
//Background and Video events
0,0,"862dbcbf412f6ebefe0e6910a55c11c4d95f16f8_s2_n2.jpg",0,0
Video,-1200,"TATOE.mp4"
//Break Periods
//Storyboard Layer 0 (Background)
//Storyboard Layer 1 (Fail)
//Storyboard Layer 2 (Pass)
//Storyboard Layer 3 (Foreground)
//Storyboard Layer 4 (Overlay)
//Storyboard Sound Samples
Sample,6664,0,"A#6.wav",90
Sample,6972,0,"C7.wav",90
Sample,7280,0,"D#7.wav",90
Sample,7587,0,"C#7.wav",90
Sample,7895,0,"C7.wav",90
Sample,8357,0,"G#6.wav",90
Sample,9741,0,"A#6.wav",90
Sample,10049,0,"G6.wav",90
Sample,10203,0,"G#6.wav",90
Sample,10357,0,"A#6.wav",90
Sample,11587,0,"A#6.wav",90
Sample,11895,0,"C7.wav",90
Sample,12203,0,"F7.wav",90
Sample,12510,0,"D#7.wav",90
Sample,12818,0,"C7.wav",90
Sample,13587,0,"A#6.wav",90
Sample,13895,0,"G#6.wav",90
Sample,14203,0,"C7.wav",90
Sample,14510,0,"Tom3.wav",60
Sample,15126,0,"G#6.wav",90
Sample,15280,0,"A#6.wav",90
Sample,15433,0,"C7.wav",90
Sample,26667,0,"Hat open.wav",45
Sample,27898,0,"Hat open.wav",45
Sample,28513,0,"Hat open.wav",45
Sample,29128,0,"Hat open.wav",45
Sample,30359,0,"Hat open.wav",45
Sample,31282,0,"Hat open.wav",45
Sample,32821,0,"Hat open.wav",45
Sample,34052,0,"Hat open.wav",45
Sample,43744,0,"C#7_l.wav",80
Sample,44205,0,"C7.wav",80
Sample,46052,0,"Hat close.wav",90
Sample,46359,0,"Hat close.wav",90
Sample,46667,0,"Hat close.wav",90
Sample,46975,0,"Hat close.wav",90
Sample,47282,0,"Hat close.wav",90
Sample,48513,0,"Hat close.wav",90
Sample,48821,0,"Hat close.wav",90
Sample,49128,0,"Hat close.wav",90
Sample,49436,0,"Hat close.wav",90
Sample,49744,0,"Hat open.wav",60
Sample,54667,0,"F6.wav",80
Sample,54975,0,"C7_s.wav",80
Sample,55128,0,"A#6_l.wav",80
Sample,56205,0,"Hat open.wav",45
Sample,56821,0,"Hat open.wav",45
Sample,57436,0,"Hat open.wav",45
Sample,58052,0,"Hat open.wav",45
Sample,58667,0,"Hat open.wav",45
Sample,59282,0,"Hat open.wav",45
Sample,59898,0,"Hat open.wav",45
Sample,66052,0,"Hat open.wav",45
Sample,66667,0,"Hat open.wav",45
Sample,67282,0,"Hat open.wav",45
Sample,67898,0,"Hat open.wav",45
Sample,68513,0,"Hat open.wav",45
Sample,69128,0,"Hat open.wav",45
Sample,69744,0,"Hat open.wav",45
Sample,75898,0,"Hat open.wav",40
Sample,76513,0,"Hat open.wav",40
Sample,77128,0,"Hat open.wav",40
Sample,77898,0,"Tom3.wav",20
Sample,78052,0,"Tom3.wav",25
Sample,78205,0,"Tom3.wav",30
Sample,80512,0,"Crash 2.wav",35
Sample,80820,0,"Crash 2.wav",35
Sample,81128,0,"Crash 2.wav",35
Sample,81435,0,"Crash 2.wav",35
Sample,81743,0,"Crash 2.wav",35
Sample,82205,0,"G#6.wav",90
Sample,83281,0,"Crash 2.wav",35
Sample,83589,0,"Crash 2.wav",35
Sample,83897,0,"Crash 2.wav",35
Sample,83897,0,"G6.wav",90
Sample,84051,0,"G#6.wav",90
Sample,84205,0,"Crash 2.wav",35
Sample,84358,0,"D#7.wav",90
Sample,85435,0,"Crash 2.wav",35
Sample,85743,0,"Crash 2.wav",35
Sample,86051,0,"Crash 2.wav",35
Sample,86358,0,"Crash 2.wav",35
Sample,86666,0,"Crash 2.wav",35
Sample,86974,0,"Crash 2.wav",35
Sample,87128,0,"G#6.wav",90
Sample,87435,0,"A#6.wav",90
Sample,87743,0,"G#6.wav",90
Sample,88051,0,"C7.wav",90
Sample,88358,0,"D#7.wav",90
Sample,88974,0,"G#6.wav",90
Sample,89128,0,"A#6.wav",90
Sample,89281,0,"C7.wav",90

[TimingPoints]
67,368.098159509202,4,2,50,40,1,0
67,-83.589744,4,2,50,40,0,0
205,307.692307692308,4,2,50,40,1,0
3897,314.13612565445,4,2,50,43,1,0
3897,-98.0392156862745,4,2,50,43,0,0
5742,307.692307692308,4,2,50,43,1,0
6203,-100,4,2,50,60,0,1
6357,307.692307692308,4,2,50,60,1,1
15741,-100,4,2,50,60,0,0
16203,-100,4,2,50,40,0,0
24666,324.324324324324,4,2,50,35,1,0
24666,-95.2380952380952,4,2,50,35,0,0
24828,303.030303030303,4,2,50,35,1,0
24828,-102.040816326531,4,2,50,35,0,0
25282,363.636363636364,4,2,50,35,1,0
25282,-84.7457627118644,4,2,50,35,0,0
25463,294.117647058824,4,2,50,35,1,0
25463,-104.166666666667,4,2,50,35,0,0
25904,300,4,2,50,35,1,0
25904,-103.092783505155,4,2,50,35,0,0
26052,307.692307692308,4,2,50,40,1,0
45744,-100,4,2,50,55,0,0
53282,-100,4,2,50,25,0,0
53436,-100,4,2,50,30,0,0
53590,-100,4,2,50,35,0,0
53744,-100,4,2,50,40,0,0
53898,-100,4,2,50,45,0,0
54052,-100,4,2,50,50,0,0
54205,-100,4,2,50,55,0,0
55590,-100,4,2,50,60,0,1
77898,-100,4,2,50,30,0,1
78052,-100,4,2,50,35,0,1
78205,-100,4,2,50,40,0,1
78359,-100,4,2,50,45,0,1
78513,-100,4,2,50,50,0,1
78667,-100,4,2,50,55,0,1
78821,-100,4,2,50,60,0,1
78975,317.460317460317,4,2,50,40,1,0
78975,-97.0873786407767,4,2,50,40,0,0
79590,307.692307692308,4,2,50,40,1,0
80051,-100,4,2,50,55,0,1
80205,307.692307692308,4,2,50,55,1,1
89589,-100,4,2,50,55,0,0

[HitObjects]
448,192,67,5,0,0:0:0:70:G#6_s.wav
320,192,113,1,0,0:0:0:70:C7_s.wav
192,192,159,1,0,0:0:0:70:D#7_s.wav
64,192,205,128,0,1281:0:0:0:70:G#7.wav
192,192,820,128,0,1281:0:0:0:0:
448,192,1281,128,0,1435:0:0:0:70:G#7_s.wav
320,192,1435,128,0,1589:0:0:0:70:G7_s.wav
192,192,1589,128,0,1743:0:0:0:70:D#7_s.wav
64,192,1743,128,0,1897:0:0:0:70:A#6_s.wav
192,192,1897,128,0,2051:0:0:0:70:G#6_s.wav
320,192,2051,128,0,2205:0:0:0:70:G6_s.wav
448,192,2205,128,0,2358:0:0:0:70:D#6_s.wav
64,192,2358,128,0,2512:0:0:0:70:C6_s.wav
192,192,2512,128,0,2666:0:0:0:70:G#5_s.wav
320,192,2666,128,0,3897:0:0:0:70:G5.wav
448,192,2666,128,0,3897:0:0:0:0:
64,192,3897,128,0,4211:0:0:0:70:C6.wav
192,192,3897,128,0,4054:0:0:0:0:
448,192,4054,128,0,4211:0:0:0:70:G#6_s.wav
192,192,4211,128,0,4368:0:0:0:70:G6_s.wav
320,192,4368,128,0,4525:0:0:0:70:C6.wav
448,192,4368,128,0,4682:0:0:0:0:
64,192,4525,128,0,4682:0:0:0:70:G#6_s.wav
320,192,4682,128,0,4839:0:0:0:70:G6_s.wav
64,192,4839,128,0,5153:0:0:0:70:C6.wav
192,192,4839,128,0,4996:0:0:0:0:
448,192,4996,128,0,5153:0:0:0:70:G#6_s.wav
192,192,5153,128,0,5310:0:0:0:70:G6_s.wav
320,192,5310,128,0,5467:0:0:0:70:C6.wav
448,192,5310,128,0,5742:0:0:0:0:
64,192,5467,128,0,5742:0:0:0:70:G#6_s.wav
192,192,5624,128,0,5742:0:0:0:70:G6_s.wav
64,192,6203,1,2,0:0:0:0:
320,192,6203,128,4,6587:0:0:0:0:
448,192,6203,1,0,0:0:0:90:C7_l.wav
192,192,6510,1,2,0:0:0:0:
320,192,6664,1,8,0:0:0:0:
448,192,6664,128,0,6895:0:0:0:60:Hat open.wav
64,192,6818,1,0,0:0:0:0:
192,192,6972,128,2,7203:0:0:0:0:
448,192,6972,1,0,0:0:0:60:Hat open.wav
320,192,7126,1,2,0:0:0:0:
64,192,7280,128,8,7510:0:0:0:0:
192,192,7280,1,0,0:0:0:60:Hat open.wav
320,192,7433,1,0,0:0:0:0:
64,192,7587,1,2,0:0:0:0:
448,192,7587,128,0,7818:0:0:0:60:Hat open.wav
192,192,7741,1,2,0:0:0:0:
320,192,7895,128,8,8203:0:0:0:0:
448,192,7895,1,0,0:0:0:60:Hat open.wav
192,192,8049,128,0,8203:0:0:0:90:A#6.wav
64,192,8203,1,2,0:0:0:0:
448,192,8203,1,0,0:0:0:60:Hat open.wav
64,192,8357,128,2,8587:0:0:0:0:
320,192,8510,1,8,0:0:0:0:
448,192,8510,1,0,0:0:0:0:
192,192,8664,1,2,0:0:0:0:
320,192,8664,1,4,0:0:0:0:
448,192,8664,128,0,9433:0:0:0:90:A#6_l.wav
320,192,8972,1,2,0:0:0:0:
64,192,9126,1,8,0:0:0:0:
192,192,9126,1,0,0:0:0:60:Hat open.wav
320,192,9280,1,0,0:0:0:0:
64,192,9433,128,2,9587:0:0:0:0:
192,192,9433,1,0,0:0:0:60:Hat open.wav
320,192,9587,128,2,9741:0:0:0:0:
192,192,9741,128,8,9895:0:0:0:0:
448,192,9741,1,0,0:0:0:60:Hat open.wav
64,192,9895,128,0,10049:0:0:0:90:G#6.wav
320,192,10049,128,2,10203:0:0:0:0:
448,192,10049,1,0,0:0:0:60:Hat open.wav
192,192,10203,128,2,10357:0:0:0:0:
64,192,10357,1,8,0:0:0:0:
448,192,10357,128,0,10510:0:0:0:60:Hat open.wav
320,192,10510,128,0,10664:0:0:0:90:D#7.wav
64,192,10664,1,0,0:0:0:55:Tom1.wav
192,192,10664,1,0,0:0:0:0:
320,192,10818,1,0,0:0:0:20:soft-hitclap50.wav
448,192,10818,1,0,0:0:0:90:C#7.wav
64,192,10895,1,0,0:0:0:40:soft-hitclap50.wav
192,192,10895,1,0,0:0:0:0:
320,192,10972,1,8,0:0:0:0:
448,192,10972,1,0,0:0:0:0:
64,192,11126,128,2,11510:0:0:0:0:
320,192,11126,1,4,0:0:0:0:
448,192,11126,1,0,0:0:0:90:C7_l.wav
192,192,11433,1,2,0:0:0:0:
64,192,11587,1,8,0:0:0:0:
448,192,11587,128,0,11818:0:0:0:60:Hat open.wav
320,192,11741,1,0,0:0:0:0:
192,192,11895,128,2,12126:0:0:0:0:
448,192,11895,1,0,0:0:0:60:Hat open.wav
64,192,12049,1,2,0:0:0:0:
192,192,12203,1,8,0:0:0:0:
320,192,12203,128,0,12433:0:0:0:60:Hat open.wav
448,192,12357,1,0,0:0:0:0:
64,192,12510,128,2,12741:0:0:0:0:
320,192,12510,1,0,0:0:0:60:Hat open.wav
192,192,12664,1,2,0:0:0:0:
64,192,12818,1,8,0:0:0:0:
448,192,12818,128,0,13126:0:0:0:60:Hat open.wav
320,192,12972,128,0,13126:0:0:0:90:A#6.wav
64,192,13126,1,2,0:0:0:0:
192,192,13126,1,0,0:0:0:60:Hat open.wav
64,192,13280,128,2,13433:0:0:0:0:
448,192,13280,1,0,0:0:0:90:G#6.wav
320,192,13433,1,8,0:0:0:0:
448,192,13433,1,0,0:0:0:60:Hat open.wav
192,192,13587,1,2,0:0:0:0:
320,192,13664,1,2,0:0:0:0:
64,192,13741,1,8,0:0:0:0:
192,192,13741,1,0,0:0:0:40:Crash 2.wav
448,192,13741,1,0,0:0:0:0:
448,192,13895,1,2,0:0:0:0:
64,192,14049,1,8,0:0:0:0:
192,192,14049,1,0,0:0:0:90:A#6.wav
320,192,14049,1,0,0:0:0:40:Crash 2.wav
64,192,14203,1,2,0:0:0:0:
320,192,14357,1,8,0:0:0:0:
448,192,14357,1,0,0:0:0:60:Tom3.wav
64,192,14510,1,8,0:0:0:0:
192,192,14510,1,0,0:0:0:90:D#7.wav
320,192,14664,1,2,0:0:0:0:
64,192,14818,1,8,0:0:0:0:
192,192,14818,1,4,0:0:0:0:
448,192,14818,1,0,0:0:0:90:G#7.wav
64,192,14972,1,8,0:0:0:0:
192,192,14972,1,4,0:0:0:0:
448,192,14972,1,0,0:0:0:0:
320,192,15126,1,2,0:0:0:0:
448,192,15280,1,0,0:0:0:50:Tom2.wav
64,192,15433,1,2,0:0:0:0:
192,192,15587,1,8,0:0:0:0:
320,192,15587,1,0,0:0:0:60:Tom3.wav
448,192,15587,1,0,0:0:0:90:G7_s.wav
192,192,15741,1,8,0:0:0:0:
320,192,15741,1,0,0:0:0:60:Tom3.wav
448,192,15741,1,0,0:0:0:90:G7.wav
192,192,16203,1,0,0:0:0:0:
64,192,16357,1,0,0:0:0:0:
192,192,16510,1,0,0:0:0:0:
64,192,16664,1,0,0:0:0:0:
192,192,16818,1,0,0:0:0:0:
64,192,16972,1,0,0:0:0:0:
192,192,17126,1,0,0:0:0:0:
64,192,17280,1,0,0:0:0:0:
192,192,17433,1,0,0:0:0:0:
64,192,17587,1,0,0:0:0:0:
192,192,17741,1,0,0:0:0:0:
64,192,17895,1,0,0:0:0:0:
192,192,18049,1,0,0:0:0:0:
64,192,18203,1,0,0:0:0:0:
192,192,18357,1,0,0:0:0:0:
320,192,18510,1,0,0:0:0:0:
448,192,18664,1,0,0:0:0:0:
320,192,18818,1,0,0:0:0:0:
448,192,18972,1,0,0:0:0:0:
320,192,19126,1,0,0:0:0:0:
448,192,19280,1,0,0:0:0:0:
320,192,19433,1,0,0:0:0:0:
448,192,19587,1,0,0:0:0:0:
320,192,19741,1,0,0:0:0:0:
448,192,19895,1,0,0:0:0:0:
320,192,20049,1,0,0:0:0:0:
448,192,20203,1,0,0:0:0:0:
320,192,20357,1,0,0:0:0:0:
448,192,20510,1,0,0:0:0:0:
320,192,20664,1,0,0:0:0:0:
448,192,20818,1,0,0:0:0:0:
320,192,20972,1,0,0:0:0:0:
192,192,21126,1,0,0:0:0:0:
320,192,21280,1,0,0:0:0:0:
192,192,21433,1,0,0:0:0:0:
320,192,21587,1,0,0:0:0:0:
192,192,21741,1,0,0:0:0:0:
320,192,21895,1,0,0:0:0:0:
192,192,22049,1,0,0:0:0:0:
320,192,22203,1,0,0:0:0:0:
192,192,22357,1,0,0:0:0:0:
320,192,22510,1,0,0:0:0:0:
192,192,22664,1,0,0:0:0:0:
320,192,22818,1,0,0:0:0:0:
192,192,22972,1,0,0:0:0:0:
320,192,23126,1,0,0:0:0:0:
192,192,23280,1,0,0:0:0:0:
320,192,23433,1,0,0:0:0:0:
448,192,23587,1,0,0:0:0:0:
64,192,23741,1,0,0:0:0:0:
448,192,23895,1,0,0:0:0:0:
64,192,24049,1,0,0:0:0:0:
448,192,24203,1,0,0:0:0:0:
64,192,24357,128,0,24828:0:0:0:0:
192,192,24510,128,0,24664:0:0:0:0:
448,192,24664,128,0,24828:0:0:0:0:
320,192,24828,1,0,0:0:0:0:
192,192,25055,1,0,0:0:0:0:
64,192,25282,1,0,0:0:0:0:
448,192,25463,1,0,0:0:0:0:
192,192,25683,1,0,0:0:0:0:
320,192,25904,1,0,0:0:0:0:
64,192,26052,1,2,0:0:0:0:
192,192,26052,1,4,0:0:0:0:
448,192,26052,1,0,0:0:0:0:
320,192,26359,1,0,0:0:0:45:Hat open.wav
64,192,26513,1,8,0:0:0:0:
448,192,26513,1,0,0:0:0:0:
192,192,26667,1,2,0:0:0:0:
192,192,26821,1,2,0:0:0:0:
448,192,26975,1,0,0:0:0:45:Hat open.wav
64,192,27128,1,8,0:0:0:0:
320,192,27128,1,0,0:0:0:0:
192,192,27282,1,0,0:0:0:45:Hat open.wav
448,192,27436,1,2,0:0:0:0:
192,192,27590,1,8,0:0:0:0:
320,192,27590,1,0,0:0:0:45:Hat open.wav
64,192,27744,1,0,0:0:0:0:
448,192,27898,1,2,0:0:0:0:
448,192,28052,1,2,0:0:0:0:
64,192,28205,1,8,0:0:0:0:
192,192,28205,1,0,0:0:0:45:Hat open.wav
448,192,28359,1,0,0:0:0:0:
64,192,28513,1,2,0:0:0:0:
320,192,28667,1,0,0:0:0:0:
192,192,28821,1,8,0:0:0:0:
448,192,28821,1,0,0:0:0:45:Hat open.wav
64,192,28975,1,0,0:0:0:0:
320,192,29128,1,2,0:0:0:0:
320,192,29282,1,2,0:0:0:0:
192,192,29436,1,0,0:0:0:45:Hat open.wav
64,192,29590,1,8,0:0:0:0:
448,192,29590,1,0,0:0:0:0:
320,192,29744,1,0,0:0:0:45:Hat open.wav
192,192,29898,1,2,0:0:0:0:
320,192,30052,1,8,0:0:0:0:
448,192,30052,1,0,0:0:0:45:Hat open.wav
192,192,30205,1,0,0:0:0:0:
64,192,30359,1,2,0:0:0:0:
64,192,30513,1,2,0:0:0:0:
320,192,30667,1,8,0:0:0:0:
448,192,30667,1,0,0:0:0:45:Hat open.wav
64,192,30821,1,8,0:0:0:0:
192,192,30821,1,0,0:0:0:0:
320,192,30898,1,8,0:0:0:0:
64,192,30975,1,2,0:0:0:0:
192,192,30975,1,4,0:0:0:0:
448,192,30975,1,0,0:0:0:0:
320,192,31282,1,2,0:0:0:0:
64,192,31436,1,8,0:0:0:0:
448,192,31436,1,0,0:0:0:0:
192,192,31590,1,0,0:0:0:45:Hat open.wav
320,192,31744,1,2,0:0:0:0:
448,192,31898,1,0,0:0:0:45:Hat open.wav
64,192,32052,1,8,0:0:0:0:
192,192,32052,1,0,0:0:0:0:
320,192,32205,1,0,0:0:0:45:Hat open.wav
64,192,32359,1,2,0:0:0:0:
320,192,32513,1,8,0:0:0:0:
448,192,32513,1,0,0:0:0:45:Hat open.wav
192,192,32667,1,0,0:0:0:0:
448,192,32821,1,2,0:0:0:0:
448,192,32975,1,2,0:0:0:0:
64,192,33128,1,8,0:0:0:0:
192,192,33128,1,0,0:0:0:45:Hat open.wav
320,192,33282,1,0,0:0:0:0:
64,192,33436,1,2,0:0:0:0:
192,192,33436,1,4,0:0:0:0:
448,192,33436,1,0,0:0:0:0:
320,192,33744,1,8,0:0:0:0:
448,192,33744,1,0,0:0:0:45:Hat open.wav
64,192,33898,1,0,0:0:0:0:
320,192,34052,1,2,0:0:0:0:
64,192,34205,1,8,0:0:0:0:
192,192,34205,1,0,0:0:0:0:
320,192,34282,1,8,0:0:0:0:
448,192,34282,1,0,0:0:0:0:
64,192,34359,1,8,0:0:0:0:
192,192,34359,1,0,0:0:0:0:
448,192,34513,1,2,0:0:0:0:
320,192,34513,1,4,0:0:0:0:
64,192,34821,1,2,0:0:0:0:
192,192,34821,1,0,0:0:0:0:
448,192,34975,1,8,0:0:0:0:
320,192,34975,1,0,0:0:0:0:
64,192,35128,1,2,0:0:0:0:
192,192,35128,1,4,0:0:0:0:
448,192,35128,1,0,0:0:0:0:
320,192,35282,1,0,0:0:0:0:
64,192,35436,1,0,0:0:0:55:Tom1.wav
448,192,35513,1,0,0:0:0:55:Tom1.wav
192,192,35590,1,0,0:0:0:55:Tom2.wav
320,192,35667,1,0,0:0:0:55:Tom2.wav
448,192,35744,1,0,0:0:0:55:Tom3.wav
64,192,35821,1,0,0:0:0:55:Tom3.wav
448,192,35898,128,2,36052:0:0:0:0:
320,192,35898,1,0,0:0:0:50:Crash 2.wav
192,192,35898,1,0,0:0:0:0:
64,192,36052,128,0,36205:0:0:0:0:
192,192,36205,128,0,36359:0:0:0:0:
320,192,36359,128,0,36513:0:0:0:0:
448,192,36513,128,0,36821:0:0:0:80:G#6.wav
64,192,36821,128,0,37128:0:0:0:80:G#6.wav
192,192,37128,128,0,37282:0:0:0:80:A#6_l.wav
320,192,37282,128,0,37436:0:0:0:0:
448,192,37436,128,0,37590:0:0:0:0:
64,192,37590,128,0,37898:0:0:0:80:G#6_l.wav
320,192,37898,128,0,38052:0:0:0:0:
192,192,38052,128,0,38359:0:0:0:80:D#6.wav
448,192,38359,128,0,38513:0:0:0:80:A#6_l.wav
64,192,38513,128,0,38667:0:0:0:0:
320,192,38667,128,0,38821:0:0:0:0:
192,192,38821,128,0,39282:0:0:0:80:G#6_l.wav
64,192,39282,128,0,39590:0:0:0:80:D#6.wav
448,192,39590,128,0,39744:0:0:0:80:A#6_l.wav
320,192,39744,128,0,39898:0:0:0:0:
192,192,39898,128,0,40052:0:0:0:0:
64,192,40052,128,0,40513:0:0:0:80:G#6_l.wav
320,192,40513,128,0,40821:0:0:0:80:C7.wav
448,192,40513,128,0,40821:0:0:0:0:
64,192,40821,128,0,41128:0:0:0:0:
192,192,41128,128,0,41436:0:0:0:80:G#6.wav
320,192,41436,128,0,41744:0:0:0:80:G#6.wav
448,192,41744,128,0,42052:0:0:0:80:G#6.wav
64,192,42052,128,0,42205:0:0:0:80:A#6_l.wav
320,192,42205,128,0,42513:0:0:0:0:
192,192,42513,128,0,42821:0:0:0:80:G#6_l.wav
448,192,42821,128,0,42975:0:0:0:0:
64,192,42975,128,0,43282:0:0:0:80:D#6.wav
320,192,43282,128,0,43898:0:0:0:80:D#7_l.wav
192,192,43898,128,0,44359:0:0:0:0:
320,192,44359,1,0,0:0:0:55:Tom1.wav
192,192,44436,1,0,0:0:0:55:Tom1.wav
64,192,44513,1,0,0:0:0:60:Tom1.wav
448,192,44513,128,0,45744:0:0:0:80:C#7_l.wav
64,192,44975,1,0,0:0:0:60:Tom2.wav
192,192,44975,1,0,0:0:0:80:C7_l.wav
64,192,45436,1,0,0:0:0:80:G#6.wav
320,192,45436,1,0,0:0:0:60:Tom3.wav
64,192,45744,1,2,0:0:0:0:
192,192,45744,1,4,0:0:0:0:
320,192,45744,1,0,0:0:0:0:
448,192,45898,1,0,0:0:0:0:
64,192,46052,1,2,0:0:0:0:
320,192,46205,1,0,0:0:0:0:
64,192,46359,1,2,0:0:0:0:
192,192,46513,1,0,0:0:0:0:
64,192,46667,1,2,0:0:0:0:
320,192,46821,1,0,0:0:0:0:
64,192,46975,1,2,0:0:0:0:
448,192,47128,1,0,0:0:0:0:
64,192,47282,1,2,0:0:0:0:
192,192,47436,1,0,0:0:0:0:
64,192,47590,1,2,0:0:0:0:
320,192,47744,1,8,0:0:0:0:
448,192,47744,1,0,0:0:0:60:Hat open.wav
64,192,47898,1,0,0:0:0:0:
192,192,48052,1,8,0:0:0:0:
320,192,48052,1,0,0:0:0:60:Hat open.wav
448,192,48205,1,2,0:0:0:0:
64,192,48359,1,0,0:0:0:0:
448,192,48513,1,2,0:0:0:0:
192,192,48667,1,0,0:0:0:0:
448,192,48821,128,2,48975:0:0:0:0:
64,192,48975,128,0,49128:0:0:0:0:
448,192,49128,128,2,49282:0:0:0:0:
192,192,49282,128,0,49436:0:0:0:0:
320,192,49436,128,2,49590:0:0:0:0:
64,192,49590,128,0,49744:0:0:0:0:
192,192,49744,128,2,49898:0:0:0:0:
448,192,49898,128,0,50052:0:0:0:0:
320,192,50052,128,2,50205:0:0:0:0:
64,192,50205,1,0,0:0:0:55:Tom1.wav
192,192,50282,1,0,0:0:0:55:Tom1.wav
320,192,50359,1,0,0:0:0:55:Tom2.wav
448,192,50436,1,0,0:0:0:0:
64,192,50513,1,0,0:0:0:55:Tom3.wav
320,192,50667,1,8,0:0:0:0:
448,192,50667,1,4,0:0:0:0:
192,192,50821,1,2,0:0:0:0:
64,192,50975,1,8,0:0:0:0:
320,192,50975,1,0,0:0:0:0:
448,192,50975,1,0,0:0:0:0:
192,192,51128,1,2,0:0:0:0:
64,192,51282,1,8,0:0:0:0:
448,192,51282,1,0,0:0:0:55:Tom3.wav
320,192,51436,1,2,0:0:0:0:
192,192,51590,1,2,0:0:0:0:
64,192,51744,1,8,0:0:0:0:
320,192,51744,1,0,0:0:0:45:Crash 2.wav
448,192,51744,1,0,0:0:0:0:
192,192,51898,1,2,0:0:0:0:
448,192,52052,1,2,0:0:0:0:
64,192,52205,1,8,0:0:0:0:
320,192,52205,1,0,0:0:0:40:Hat open.wav
64,192,52359,1,8,0:0:0:0:
192,192,52359,1,0,0:0:0:0:
320,192,52436,1,8,0:0:0:0:
448,192,52436,1,0,0:0:0:0:
64,192,52513,1,8,0:0:0:0:
192,192,52513,1,0,0:0:0:0:
448,192,52667,1,0,0:0:0:55:Tom1.wav
320,192,52821,1,0,0:0:0:55:Tom2.wav
192,192,52975,1,0,0:0:0:55:Tom3.wav
64,192,53128,1,8,0:0:0:0:
320,192,53128,1,4,0:0:0:0:
448,192,53128,1,0,0:0:0:0:
64,192,53282,1,8,0:0:0:0:
192,192,53282,1,0,0:0:0:0:
320,192,53359,1,8,0:0:0:0:
64,192,53436,1,8,0:0:0:0:
448,192,53436,1,2,0:0:0:0:
192,192,53513,1,8,0:0:0:0:
320,192,53590,1,8,0:0:0:0:
448,192,53590,1,0,0:0:0:0:
64,192,53667,1,8,0:0:0:0:
192,192,53744,1,8,0:0:0:0:
320,192,53744,1,2,0:0:0:0:
448,192,53821,1,8,0:0:0:0:
64,192,53898,1,8,0:0:0:0:
192,192,53898,1,0,0:0:0:0:
320,192,53975,1,8,0:0:0:0:
64,192,54052,1,8,0:0:0:0:
448,192,54052,1,0,0:0:0:0:
192,192,54128,1,8,0:0:0:0:
64,192,54205,1,2,0:0:0:0:
320,192,54205,1,0,0:0:0:40:Hat open.wav
448,192,54205,1,0,0:0:0:0:
448,192,55282,128,0,55359:0:0:0:0:
320,192,55359,128,0,55436:0:0:0:0:
64,192,55436,128,0,55513:0:0:0:0:
192,192,55513,128,0,55590:0:0:0:0:
320,192,55590,1,2,0:0:0:0:
448,192,55590,128,4,55821:0:0:0:0:
64,192,55898,128,8,56205:0:0:0:0:
448,192,55898,1,0,0:0:0:45:Hat open.wav
192,192,56052,128,0,56205:0:0:0:0:
320,192,56205,1,2,0:0:0:0:
448,192,56359,128,0,56513:0:0:0:0:
64,192,56513,1,8,0:0:0:0:
192,192,56513,1,0,0:0:0:45:Hat open.wav
320,192,56667,128,0,56821:0:0:0:0:
448,192,56821,1,2,0:0:0:0:
192,192,56975,128,0,57282:0:0:0:0:
64,192,57128,1,8,0:0:0:0:
320,192,57128,1,0,0:0:0:45:Hat open.wav
448,192,57282,128,0,57436:0:0:0:0:
64,192,57436,128,2,57590:0:0:0:0:
320,192,57590,128,0,58052:0:0:0:0:
192,192,57744,1,8,0:0:0:0:
448,192,57744,1,0,0:0:0:45:Hat open.wav
64,192,57898,1,0,0:0:0:0:
448,192,58052,128,2,58282:0:0:0:0:
192,192,58205,1,0,0:0:0:0:
64,192,58359,128,8,58667:0:0:0:0:
448,192,58359,1,0,0:0:0:45:Hat open.wav
192,192,58513,128,0,58667:0:0:0:0:
448,192,58667,1,2,0:0:0:0:
320,192,58821,128,0,58975:0:0:0:0:
64,192,58975,1,8,0:0:0:0:
192,192,58975,1,0,0:0:0:45:Hat open.wav
448,192,59128,128,0,59744:0:0:0:0:
320,192,59282,1,2,0:0:0:0:
192,192,59436,1,0,0:0:0:0:
64,192,59590,1,8,0:0:0:0:
320,192,59590,1,0,0:0:0:45:Hat open.wav
192,192,59744,1,0,0:0:0:0:
320,192,59898,128,2,60052:0:0:0:0:
448,192,60052,1,0,0:0:0:0:
64,192,60205,1,8,0:0:0:0:
192,192,60205,128,0,60359:0:0:0:0:
320,192,60359,1,8,0:0:0:0:
448,192,60359,1,0,0:0:0:0:
64,192,60436,1,8,0:0:0:0:
192,192,60436,1,0,0:0:0:0:
320,192,60513,1,2,0:0:0:0:
448,192,60513,1,0,0:0:0:60:Crash 2.wav
64,192,60667,128,0,60821:0:0:0:60:Hat open.wav
192,192,60667,128,0,60821:0:0:0:0:
320,192,60821,128,8,60975:0:0:0:0:
448,192,60821,1,0,0:0:0:0:
64,192,60975,128,0,61128:0:0:0:60:Hat open.wav
192,192,60975,128,0,61128:0:0:0:0:
448,192,61128,128,2,61436:0:0:0:0:
320,192,61282,128,0,61436:0:0:0:60:Hat open.wav
64,192,61436,1,8,0:0:0:0:
192,192,61436,128,0,61590:0:0:0:0:
320,192,61590,128,0,61744:0:0:0:60:Hat open.wav
448,192,61590,128,0,61744:0:0:0:0:
64,192,61744,128,2,62052:0:0:0:0:
192,192,61898,128,0,62052:0:0:0:60:Hat open.wav
320,192,62052,1,8,0:0:0:0:
448,192,62052,128,0,62205:0:0:0:0:
64,192,62205,128,0,62359:0:0:0:60:Hat open.wav
192,192,62205,128,0,62359:0:0:0:0:
448,192,62359,1,0,0:0:0:55:Tom1.wav
64,192,62513,1,8,0:0:0:0:
192,192,62513,1,0,0:0:0:0:
320,192,62590,1,8,0:0:0:0:
448,192,62590,1,0,0:0:0:0:
64,192,62667,1,8,0:0:0:0:
192,192,62667,1,0,0:0:0:0:
64,192,62821,1,2,0:0:0:0:
320,192,62821,128,4,63128:0:0:0:0:
448,192,62821,128,0,63128:0:0:0:0:
192,192,63128,1,2,0:0:0:0:
64,192,63282,1,8,0:0:0:0:
448,192,63282,1,0,0:0:0:40:Crash 2.wav
320,192,63436,1,2,0:0:0:0:
64,192,63590,1,8,0:0:0:0:
192,192,63590,1,0,0:0:0:40:Crash 2.wav
320,192,63898,1,2,0:0:0:0:
64,192,64052,1,2,0:0:0:0:
192,192,64205,1,8,0:0:0:0:
448,192,64205,1,0,0:0:0:45:Hat open.wav
320,192,64359,1,0,0:0:0:40:Tom1.wav
64,192,64513,1,8,0:0:0:0:
448,192,64513,1,0,0:0:0:45:Hat open.wav
192,192,64667,1,0,0:0:0:50:Tom2.wav
320,192,64821,1,0,0:0:0:50:Tom3.wav
64,192,64975,1,8,0:0:0:0:
192,192,64975,1,0,0:0:0:0:
320,192,65052,1,8,0:0:0:0:
448,192,65052,1,0,0:0:0:0:
64,192,65128,1,8,0:0:0:0:
192,192,65128,1,0,0:0:0:0:
320,192,65282,1,8,0:0:0:0:
448,192,65282,1,0,0:0:0:0:
192,192,65359,1,8,0:0:0:0:
64,192,65436,128,2,65667:0:0:0:0:
320,192,65436,1,4,0:0:0:0:
448,192,65436,1,0,0:0:0:0:
64,192,65744,1,8,0:0:0:0:
448,192,65744,128,0,66052:0:0:0:45:Hat open.wav
320,192,65898,128,0,66052:0:0:0:0:
192,192,66052,1,2,0:0:0:0:
64,192,66205,128,0,66359:0:0:0:0:
320,192,66359,1,8,0:0:0:0:
448,192,66359,1,0,0:0:0:45:Hat open.wav
192,192,66513,128,0,66667:0:0:0:0:
64,192,66667,1,2,0:0:0:0:
320,192,66821,128,0,67128:0:0:0:0:
192,192,66975,1,8,0:0:0:0:
448,192,66975,1,0,0:0:0:45:Hat open.wav
64,192,67128,128,0,67436:0:0:0:0:
192,192,67282,128,2,67436:0:0:0:0:
448,192,67436,128,0,67590:0:0:0:0:
64,192,67590,1,8,0:0:0:0:
192,192,67590,1,0,0:0:0:45:Hat open.wav
320,192,67744,128,0,67898:0:0:0:0:
64,192,67898,128,2,68128:0:0:0:0:
320,192,68052,1,0,0:0:0:0:
64,192,68205,1,8,0:0:0:0:
448,192,68205,1,0,0:0:0:45:Hat open.wav
320,192,68359,128,0,68590:0:0:0:0:
64,192,68513,1,2,0:0:0:0:
192,192,68667,128,0,68898:0:0:0:0:
320,192,68821,1,8,0:0:0:0:
448,192,68821,1,0,0:0:0:45:Hat open.wav
64,192,68975,128,0,69590:0:0:0:0:
192,192,69128,1,2,0:0:0:0:
320,192,69282,1,0,0:0:0:0:
192,192,69436,1,8,0:0:0:0:
448,192,69436,1,0,0:0:0:45:Hat open.wav
320,192,69590,1,0,0:0:0:0:
192,192,69744,128,2,69898:0:0:0:0:
448,192,69898,1,0,0:0:0:55:Tom1.wav
64,192,69975,1,0,0:0:0:0:
320,192,70052,128,8,70205:0:0:0:0:
448,192,70052,1,0,0:0:0:0:
64,192,70205,1,8,0:0:0:0:
192,192,70205,1,0,0:0:0:0:
448,192,70282,1,8,0:0:0:0:
64,192,70359,1,2,0:0:0:0:
192,192,70359,1,4,0:0:0:0:
320,192,70359,1,0,0:0:0:0:
64,192,70513,128,0,70667:0:0:0:60:Hat open.wav
448,192,70513,128,0,70667:0:0:0:0:
192,192,70667,128,8,70821:0:0:0:0:
320,192,70667,1,0,0:0:0:0:
320,192,70821,128,0,70975:0:0:0:60:Hat open.wav
448,192,70821,128,0,70975:0:0:0:0:
64,192,70975,128,2,71282:0:0:0:0:
192,192,71128,128,0,71282:0:0:0:60:Hat open.wav
320,192,71282,128,8,71436:0:0:0:0:
448,192,71282,1,0,0:0:0:0:
64,192,71436,128,0,71590:0:0:0:60:Hat open.wav
192,192,71436,128,0,71590:0:0:0:0:
448,192,71590,128,2,71898:0:0:0:0:
320,192,71744,128,0,71898:0:0:0:60:Hat open.wav
64,192,71898,128,8,72052:0:0:0:0:
192,192,71898,1,0,0:0:0:0:
320,192,72052,128,0,72205:0:0:0:60:Hat open.wav
448,192,72052,128,0,72205:0:0:0:0:
64,192,72205,1,0,0:0:0:55:Tom2.wav
320,192,72359,1,8,0:0:0:0:
448,192,72359,1,0,0:0:0:0:
64,192,72436,1,8,0:0:0:0:
192,192,72436,1,0,0:0:0:0:
320,192,72513,1,8,0:0:0:0:
448,192,72513,1,0,0:0:0:0:
64,192,72667,128,2,72975:0:0:0:0:
192,192,72667,128,4,72975:0:0:0:0:
448,192,72667,1,0,0:0:0:0:
320,192,72975,1,2,0:0:0:0:
64,192,73128,1,8,0:0:0:0:
448,192,73128,1,0,0:0:0:40:Crash 2.wav
192,192,73282,1,2,0:0:0:0:
320,192,73436,1,8,0:0:0:0:
448,192,73436,1,0,0:0:0:40:Crash 2.wav
192,192,73744,1,2,0:0:0:0:
448,192,73898,1,2,0:0:0:0:
64,192,74052,1,8,0:0:0:0:
320,192,74052,1,0,0:0:0:40:Hat open.wav
192,192,74205,1,0,0:0:0:55:Tom2.wav
64,192,74359,1,8,0:0:0:0:
448,192,74359,1,0,0:0:0:40:Hat open.wav
320,192,74513,1,2,0:0:0:0:
192,192,74667,1,0,0:0:0:55:Tom3.wav
448,192,74744,1,0,0:0:0:0:
64,192,74821,1,2,0:0:0:0:
192,192,74898,1,2,0:0:0:0:
320,192,74975,1,8,0:0:0:0:
448,192,74975,1,0,0:0:0:0:
64,192,75128,1,2,0:0:0:0:
192,192,75128,1,4,0:0:0:0:
448,192,75128,1,0,0:0:0:0:
320,192,75436,1,2,0:0:0:0:
64,192,75590,1,8,0:0:0:0:
448,192,75590,1,0,0:0:0:40:Hat open.wav
192,192,75744,1,0,0:0:0:0:
320,192,75898,1,2,0:0:0:0:
64,192,76052,1,0,0:0:0:0:
192,192,76205,1,8,0:0:0:0:
448,192,76205,1,0,0:0:0:40:Hat open.wav
320,192,76359,1,0,0:0:0:0:
64,192,76513,1,2,0:0:0:0:
192,192,76667,1,0,0:0:0:0:
320,192,76821,1,8,0:0:0:0:
448,192,76821,1,0,0:0:0:40:Hat open.wav
64,192,76975,1,0,0:0:0:0:
448,192,77128,1,2,0:0:0:0:
320,192,77282,1,0,0:0:0:0:
64,192,77436,1,8,0:0:0:0:
192,192,77436,1,0,0:0:0:55:Hat open.wav
320,192,77590,1,0,0:0:0:0:
64,192,77744,1,8,0:0:0:0:
192,192,77744,1,0,0:0:0:35:Crash 2.wav
64,192,77898,1,8,0:0:0:0:
448,192,78052,1,8,0:0:0:0:
448,192,78205,1,8,0:0:0:0:
64,192,78359,1,8,0:0:0:0:
192,192,78359,1,0,0:0:0:35:Tom3.wav
192,192,78513,1,8,0:0:0:0:
448,192,78513,1,0,0:0:0:40:Tom3.wav
320,192,78667,1,8,0:0:0:0:
448,192,78667,1,0,0:0:0:45:Tom3.wav
64,192,78821,1,8,0:0:0:0:
192,192,78821,1,0,0:0:0:50:Tom3.wav
64,192,78975,128,0,79292:0:0:0:80:C6.wav
448,192,78975,128,0,79133:0:0:0:0:
320,192,79133,128,0,79292:0:0:0:80:G#6_s.wav
192,192,79292,128,0,79451:0:0:0:80:G6_s.wav
64,192,79451,128,0,79590:0:0:0:80:C6.wav
448,192,79451,128,0,79897:0:0:0:0:
192,192,79590,128,0,79743:0:0:0:80:G#6_s.wav
320,192,79743,128,0,79897:0:0:0:80:G6_s.wav
64,192,79897,128,0,80051:0:0:0:0:
192,192,80051,128,2,80435:0:0:0:0:
320,192,80051,1,4,0:0:0:0:
448,192,80051,1,0,0:0:0:90:C7_l.wav
320,192,80358,1,2,0:0:0:0:
64,192,80512,128,8,80743:0:0:0:0:
192,192,80512,1,0,0:0:0:90:A#6.wav
448,192,80666,1,0,0:0:0:0:
64,192,80820,1,2,0:0:0:0:
320,192,80820,128,0,81051:0:0:0:90:C7.wav
192,192,80974,1,2,0:0:0:0:
320,192,81128,1,8,0:0:0:0:
448,192,81128,128,0,81358:0:0:0:90:D#7.wav
192,192,81281,1,0,0:0:0:0:
64,192,81435,128,2,81666:0:0:0:0:
448,192,81435,1,0,0:0:0:90:C#7.wav
320,192,81589,1,2,0:0:0:0:
64,192,81743,1,8,0:0:0:0:
192,192,81743,128,0,82051:0:0:0:90:C7.wav
320,192,81897,128,0,82051:0:0:0:90:A#6.wav
64,192,82051,1,2,0:0:0:0:
448,192,82051,1,0,0:0:0:35:Crash 2.wav
448,192,82205,128,2,82435:0:0:0:0:
64,192,82358,1,8,0:0:0:0:
192,192,82358,1,0,0:0:0:0:
64,192,82512,128,2,83281:0:0:0:0:
320,192,82512,1,4,0:0:0:0:
448,192,82512,1,0,0:0:0:90:A#6_l.wav
192,192,82820,1,2,0:0:0:0:
320,192,82974,1,8,0:0:0:0:
448,192,82974,1,0,0:0:0:35:Crash 2.wav
192,192,83128,1,0,0:0:0:0:
448,192,83281,128,2,83435:0:0:0:0:
192,192,83435,128,2,83589:0:0:0:0:
64,192,83589,1,8,0:0:0:0:
320,192,83589,128,0,83743:0:0:0:90:A#6.wav
448,192,83743,128,0,83897:0:0:0:90:G#6.wav
192,192,83897,128,2,84051:0:0:0:0:
320,192,84051,128,2,84205:0:0:0:0:
64,192,84205,128,8,84358:0:0:0:0:
448,192,84205,1,0,0:0:0:90:A#6.wav
192,192,84358,128,2,84512:0:0:0:0:
320,192,84512,1,8,0:0:0:0:
448,192,84512,1,0,0:0:0:0:
64,192,84589,1,8,0:0:0:0:
192,192,84589,1,0,0:0:0:0:
320,192,84666,1,8,0:0:0:0:
448,192,84666,1,0,0:0:0:90:C#7.wav
64,192,84743,1,8,0:0:0:0:
192,192,84743,1,0,0:0:0:0:
320,192,84820,1,8,0:0:0:0:
448,192,84820,1,0,0:0:0:0:
192,192,84897,1,8,0:0:0:0:
64,192,84974,1,2,0:0:0:0:
320,192,84974,1,4,0:0:0:0:
448,192,84974,128,0,85358:0:0:0:90:C7_l.wav
320,192,85281,1,2,0:0:0:0:
64,192,85435,128,8,85666:0:0:0:0:
448,192,85435,1,0,0:0:0:90:A#6.wav
192,192,85589,1,0,0:0:0:0:
64,192,85743,1,2,0:0:0:0:
320,192,85743,128,0,85974:0:0:0:90:C7.wav
448,192,85897,1,2,0:0:0:0:
192,192,86051,128,8,86281:0:0:0:0:
320,192,86051,1,0,0:0:0:90:F7.wav
64,192,86205,1,0,0:0:0:0:
192,192,86358,1,2,0:0:0:0:
448,192,86358,128,0,86589:0:0:0:90:D#7.wav
320,192,86512,1,2,0:0:0:0:
64,192,86666,128,8,86974:0:0:0:0:
448,192,86666,1,0,0:0:0:90:C7.wav
192,192,86820,128,0,86974:0:0:0:90:A#6.wav
320,192,86974,1,2,0:0:0:0:
448,192,87128,128,2,87281:0:0:0:0:
64,192,87281,1,8,0:0:0:0:
192,192,87281,1,0,0:0:0:35:Crash 2.wav
320,192,87435,1,2,0:0:0:0:
192,192,87512,1,2,0:0:0:0:
64,192,87589,1,8,0:0:0:0:
320,192,87589,1,4,0:0:0:0:
448,192,87589,1,0,0:0:0:0:
64,192,87743,1,2,0:0:0:0:
192,192,87897,1,8,0:0:0:0:
320,192,87897,1,4,0:0:0:0:
448,192,87897,1,0,0:0:0:90:A#6.wav
448,192,88051,1,2,0:0:0:0:
64,192,88205,1,8,0:0:0:0:
192,192,88205,1,0,0:0:0:50:Hat open.wav
320,192,88358,1,8,0:0:0:0:
448,192,88358,1,0,0:0:0:50:Hat open.wav
192,192,88512,1,2,0:0:0:0:
64,192,88666,1,8,0:0:0:0:
320,192,88666,1,0,0:0:0:90:G#7.wav
448,192,88666,1,0,0:0:0:35:Crash 2.wav
64,192,88820,1,8,0:0:0:0:
320,192,88820,1,0,0:0:0:40:Crash 2.wav
448,192,88820,1,0,0:0:0:0:
192,192,88974,1,2,0:0:0:0:
64,192,89128,1,8,0:0:0:0:
448,192,89128,1,0,0:0:0:60:Tom2.wav
320,192,89281,1,2,0:0:0:0:
64,192,89435,1,8,0:0:0:0:
192,192,89435,1,0,0:0:0:60:Tom3.wav
448,192,89435,1,0,0:0:0:90:G7_s.wav
64,192,89589,1,8,0:0:0:0:
192,192,89589,1,0,0:0:0:60:Tom3.wav
448,192,89589,1,0,0:0:0:90:G7.wav
