osu file format v14

[General]
AudioFilename: audio.mp3
AudioLeadIn: 0
PreviewTime: 54590
Countdown: 0
SampleSet: Normal
StackLeniency: 0.3
Mode: 1
LetterboxInBreaks: 0
WidescreenStoryboard: 1

[Editor]
DistanceSpacing: 2.2
BeatDivisor: 2
GridSize: 32
TimelineZoom: 0.6

[Metadata]
Title:MIIRO
TitleUnicode:海色
Artist:Roselia
ArtistUnicode:Roselia
Creator:-Mikan
Version:Hinsvar's KANTAN
Source:バンドリ! ガールズバンドパーティ!
Tags:Natteke Desu Nelly Imai Lisa Xetopia Lacrima myle Kanon Matsubara Shinitagari Hinsvar bbj0920 [Shana Lesus] [Shana_Lesus] Virtue- toybot Jounzan evilElvis Cami Gaia Left island newton- iljaaz adioni tatoe BanG Dream! Girls Band Party! Garupa Bandori! ガルパ!anime opening op japanese 艦隊これくしょん -艦これ- kantai collection みいろ ロゼリア minato yukina 湊友希那 aiba aina 相羽あいな hikawa sayo 氷川紗夜 kudou haruka 工藤晴香 imai lisa 今井リサ endou yurika 遠藤ゆりか nakashima yuki 中島由貴 udagawa ako 宇田川あこ sakuragawa megu 櫻川めぐ shirokane rinko 白金燐子 akesaka satomi 明坂聡美 video game AKINO from bless4 Fleet Girls Collection KanColle Animation Sequence game ver
BeatmapID:2119949
BeatmapSetID:1002819

[Difficulty]
HPDrainRate:7
CircleSize:5
OverallDifficulty:3
ApproachRate:5
SliderMultiplier:1.4
SliderTickRate:1

[Events]
//Background and Video events
0,0,"862dbcbf412f6ebefe0e6910a55c11c4d95f16f8_s2_n2.jpg",0,0
Video,-1200,"TATOE.mp4"
//Break Periods
//Storyboard Layer 0 (Background)
//Storyboard Layer 1 (Fail)
//Storyboard Layer 2 (Pass)
//Storyboard Layer 3 (Foreground)
//Storyboard Layer 4 (Overlay)
//Storyboard Sound Samples

[TimingPoints]
67,368.098159509202,4,1,0,100,1,8
205,307.692307692308,4,1,0,70,1,0
3897,314.13612565445,4,1,0,70,1,0
5742,307.692307692308,4,1,0,70,1,9
6203,-100,4,1,0,90,0,1
6357,307.692307692308,4,1,0,70,1,1
16203,-100,4,1,0,70,0,0
24666,324.324324324324,4,1,0,60,1,8
24828,303.030303030303,4,1,0,40,1,0
25282,363.636363636364,4,1,0,40,1,8
25463,294.117647058824,4,1,0,40,1,8
25904,300,4,1,0,40,1,8
26049,-100,4,1,0,80,0,0
26052,307.692307692308,4,1,0,80,1,0
35895,-100,4,1,0,70,0,0
45741,-100,4,1,0,80,0,0
55590,-100,4,1,0,90,0,1
78975,317.460317460317,4,1,0,80,1,0
79590,307.692307692308,4,1,0,80,1,8
80051,-100,4,1,0,90,0,1
80205,307.692307692308,4,1,0,80,1,1
89589,-100,4,1,0,80,0,0

[Colours]
Combo1 : 162,255,255
Combo2 : 167,167,211
Combo3 : 106,181,255
Combo4 : 254,156,249

[HitObjects]
384,192,205,5,8,0:0:0:0:
128,192,2666,1,0,0:0:0:0:
128,192,3897,1,0,0:0:0:0:
128,192,6203,5,4,0:0:0:0:
384,192,6972,1,8,0:0:0:0:
128,192,7587,1,0,0:0:0:0:
384,192,7895,1,8,0:0:0:0:
128,192,8664,1,4,0:0:0:0:
128,192,9126,1,0,0:0:0:0:
128,192,10049,1,0,0:0:0:0:
384,192,10510,1,8,0:0:0:0:
384,192,10818,1,8,0:0:0:0:
128,192,11126,1,4,0:0:0:0:
128,192,11895,1,0,0:0:0:0:
384,192,12202,1,8,0:0:0:0:
384,192,12510,1,8,0:0:0:0:
128,192,13126,1,0,0:0:0:0:
128,192,13741,1,0,0:0:0:0:
128,192,14049,1,0,0:0:0:0:
384,192,14357,1,8,0:0:0:0:
128,192,14972,1,0,0:0:0:0:
384,192,15587,1,8,0:0:0:0:
128,192,16203,5,0,0:0:0:0:
128,192,17433,1,0,0:0:0:0:
384,192,17895,1,8,0:0:0:0:
128,192,18664,1,0,0:0:0:0:
128,192,19895,1,0,0:0:0:0:
384,192,20357,1,8,0:0:0:0:
128,192,21126,1,0,0:0:0:0:
128,192,21587,1,0,0:0:0:0:
128,192,22357,1,0,0:0:0:0:
384,192,22818,1,8,0:0:0:0:
128,192,23587,1,0,0:0:0:0:
128,192,24828,1,0,0:0:0:0:
128,192,25463,1,0,0:0:0:0:
128,192,26052,5,4,0:0:0:0:
384,192,27282,1,8,0:0:0:0:
384,192,27898,1,8,0:0:0:0:
128,192,28513,1,0,0:0:0:0:
384,192,28821,1,8,0:0:0:0:
128,192,29129,1,0,0:0:0:0:
384,192,29744,1,0,0:0:0:0:
384,192,30359,1,8,0:0:0:0:
128,192,30975,1,4,0:0:0:0:
128,192,31590,1,0,0:0:0:0:
128,192,32206,1,0,0:0:0:0:
384,192,32821,1,8,0:0:0:0:
128,192,33436,1,0,0:0:0:0:
128,192,34513,1,0,0:0:0:0:
128,192,34821,1,0,0:0:0:0:
384,192,35129,1,12,0:0:0:0:
128,192,35898,5,4,0:0:0:0:
128,192,38360,1,0,0:0:0:0:
128,192,39590,1,0,0:0:0:0:
384,192,40821,1,8,0:0:0:0:
128,192,42052,1,0,0:0:0:0:
384,192,43283,1,8,0:0:0:0:
128,192,44513,1,0,0:0:0:0:
128,192,45744,5,4,0:0:0:0:
128,192,46359,1,0,0:0:0:0:
128,192,46975,1,0,0:0:0:0:
384,192,47590,1,8,0:0:0:0:
384,192,47898,1,8,0:0:0:0:
128,192,48205,1,0,0:0:0:0:
128,192,48821,1,0,0:0:0:0:
128,192,49436,1,0,0:0:0:0:
384,192,50052,1,8,0:0:0:0:
128,192,50360,1,0,0:0:0:0:
128,192,50667,1,4,0:0:0:0:
128,192,51590,1,0,0:0:0:0:
128,192,51898,1,0,0:0:0:0:
384,192,52206,1,8,0:0:0:0:
128,192,52821,1,0,0:0:0:0:
128,192,53129,1,4,0:0:0:0:
384,192,54206,1,8,0:0:0:0:
384,192,55590,5,12,0:0:0:0:
128,192,56205,1,0,0:0:0:0:
384,192,56821,1,8,0:0:0:0:
384,192,57129,1,8,0:0:0:0:
128,192,57436,1,0,0:0:0:0:
128,192,58052,1,0,0:0:0:0:
384,192,58359,1,8,0:0:0:0:
128,192,58667,1,0,0:0:0:0:
384,192,59283,1,8,0:0:0:0:
128,192,59898,1,0,0:0:0:0:
128,192,60205,1,0,0:0:0:0:
128,192,60513,1,0,0:0:0:0:
384,192,61436,1,8,0:0:0:0:
384,192,62052,1,8,0:0:0:0:
128,192,62359,1,0,0:0:0:0:
128,192,62821,1,0,0:0:0:0:
128,192,63590,1,4,0:0:0:0:
384,192,64205,1,12,0:0:0:0:
384,192,65436,5,12,0:0:0:0:
128,192,66052,1,0,0:0:0:0:
128,192,66667,1,0,0:0:0:0:
128,192,66975,1,0,0:0:0:0:
384,192,67283,1,8,0:0:0:0:
384,192,67898,1,8,0:0:0:0:
128,192,68206,1,0,0:0:0:0:
128,192,68821,1,0,0:0:0:0:
384,192,69129,1,8,0:0:0:0:
384,192,69436,1,8,0:0:0:0:
128,192,70360,1,0,0:0:0:0:
384,192,70667,1,8,0:0:0:0:
384,192,71283,1,8,0:0:0:0:
384,192,71898,1,8,0:0:0:0:
128,192,72206,1,0,0:0:0:0:
128,192,72667,1,0,0:0:0:0:
384,192,73436,1,12,0:0:0:0:
128,192,74052,1,4,0:0:0:0:
384,192,75129,1,12,0:0:0:0:
128,192,75898,1,0,0:0:0:0:
384,192,76205,1,8,0:0:0:0:
128,192,76513,1,0,0:0:0:0:
128,192,77128,1,0,0:0:0:0:
128,192,77436,1,0,0:0:0:0:
384,192,77744,1,8,0:0:0:0:
128,192,78359,1,0,0:0:0:0:
128,192,78975,1,0,0:0:0:0:
384,192,80051,5,12,0:0:0:0:
128,192,80820,1,0,0:0:0:0:
384,192,81128,1,8,0:0:0:0:
128,192,81435,1,0,0:0:0:0:
128,192,81743,1,0,0:0:0:0:
128,192,82512,1,0,0:0:0:0:
384,192,82974,1,12,0:0:0:0:
128,192,83897,1,0,0:0:0:0:
384,192,84512,1,8,0:0:0:0:
128,192,84974,1,0,0:0:0:0:
128,192,85743,1,0,0:0:0:0:
384,192,86051,1,8,0:0:0:0:
384,192,86358,1,8,0:0:0:0:
128,192,86666,1,0,0:0:0:0:
128,192,87589,1,0,0:0:0:0:
128,192,87897,1,0,0:0:0:0:
384,192,88205,1,8,0:0:0:0:
128,192,88820,1,0,0:0:0:0:
384,192,89435,1,12,0:0:0:0:
