osu file format v14

[General]
AudioFilename: audio.mp3
AudioLeadIn: 0
PreviewTime: 54590
Countdown: 0
SampleSet: Soft
StackLeniency: 0.8
Mode: 0
LetterboxInBreaks: 0
WidescreenStoryboard: 1

[Editor]
Bookmarks: 6144,16144,25990,35836,45682,54144,65374,78913,89528
DistanceSpacing: 2.1
BeatDivisor: 4
GridSize: 8
TimelineZoom: 1.8

[Metadata]
Title:MIIRO
TitleUnicode:海色
Artist:Roselia
ArtistUnicode:Roselia
Creator:-Mikan
Version:EASY
Source:バンドリ! ガールズバンドパーティ!
Tags:Natteke Desu Nelly Imai Lisa Xetopia Lacrima myle Kanon Matsubara Shinitagari Hinsvar bbj0920 [Shana Lesus] [Shana_Lesus] Virtue- toybot Jounzan evilElvis Cami Gaia Left island newton- iljaaz adioni tatoe BanG Dream! Girls Band Party! Garupa Bandori! ガルパ!anime opening op japanese 艦隊これくしょん -艦これ- kantai collection みいろ ロゼリア minato yukina 湊友希那 aiba aina 相羽あいな hikawa sayo 氷川紗夜 kudou haruka 工藤晴香 imai lisa 今井リサ endou yurika 遠藤ゆりか nakashima yuki 中島由貴 udagawa ako 宇田川あこ sakuragawa megu 櫻川めぐ shirokane rinko 白金燐子 akesaka satomi 明坂聡美 video game AKINO from bless4 Fleet Girls Collection KanColle Animation Sequence game ver
BeatmapID:2099650
BeatmapSetID:1002819

[Difficulty]
HPDrainRate:2
CircleSize:2
OverallDifficulty:3
ApproachRate:4
SliderMultiplier:0.999999999999999
SliderTickRate:1

[Events]
//Background and Video events
0,0,"862dbcbf412f6ebefe0e6910a55c11c4d95f16f8_s2_n2.jpg",0,0
Video,-1200,"TATOE.mp4"
//Break Periods
2,4097,4883
2,16144,24732
2,36451,44424
//Storyboard Layer 0 (Background)
//Storyboard Layer 1 (Fail)
//Storyboard Layer 2 (Pass)
//Storyboard Layer 3 (Foreground)
//Storyboard Layer 4 (Overlay)
//Storyboard Sound Samples

[TimingPoints]
67,368.098159509202,4,2,1,100,1,0
205,307.692307692308,4,2,1,70,1,0
205,-100,4,2,1,60,0,0
2666,-100,4,2,1,65,0,0
3051,-100,4,2,1,5,0,0
3128,-100,4,2,1,65,0,0
3512,-100,4,2,1,5,0,0
3589,-100,4,2,1,55,0,0
3820,-100,4,2,1,5,0,0
3897,314.13612565445,4,2,1,70,1,0
3897,-100,4,2,1,70,0,0
5742,307.692307692308,4,2,1,70,1,0
5742,-100,4,2,1,50,0,0
5818,-100,4,2,1,5,0,0
5895,-100,4,2,1,50,0,0
6126,-100,4,2,1,5,0,0
6203,-100,4,2,1,80,0,1
6357,307.692307692308,4,2,1,70,1,1
6664,-100,4,2,1,80,0,1
8664,-100,4,2,1,80,0,1
9126,-100,4,2,1,80,0,1
11126,-100,4,2,1,80,0,1
11587,-100,4,2,1,80,0,1
13741,-100,4,2,1,90,0,1
15587,-100,4,2,1,100,0,1
15741,-100,4,2,1,100,0,0
15895,-100,4,2,1,40,0,0
16126,-100,4,2,1,5,0,0
16203,-100,4,2,1,55,0,0
20049,-100,4,2,1,55,0,0
20972,-100,4,2,1,55,0,0
23280,-100,4,2,1,55,0,0
24666,324.324324324324,4,2,1,60,1,0
24828,303.030303030303,4,2,1,40,1,0
24828,-100,4,2,1,65,0,0
24979,-100,4,2,1,5,0,0
25055,-100,4,2,1,65,0,0
25206,-100,4,2,1,5,0,0
25282,363.636363636364,4,2,1,40,1,0
25282,-100,4,2,1,65,0,0
25372,-100,4,2,1,5,0,0
25463,294.117647058824,4,2,1,40,1,0
25463,-100,4,2,1,65,0,0
25610,-100,4,2,1,5,0,0
25683,-100,4,2,1,65,0,0
25830,-100,4,2,1,5,0,0
25904,300,4,2,1,40,1,0
25904,-100,4,2,1,65,0,0
25979,-100,4,2,1,5,0,0
26052,307.692307692308,4,2,1,80,1,0
26052,-100,4,2,1,70,0,0
26359,-100,4,2,1,70,0,0
33436,-100,4,2,1,70,0,0
34052,-100,4,2,1,70,0,0
34513,-100,4,2,1,70,0,0
35128,-100,4,2,1,70,0,0
35898,-100,4,2,1,60,0,0
43282,-100,4,2,1,60,0,0
44205,-100,4,2,1,60,0,0
44513,-100,4,2,1,65,0,0
45744,-100,4,2,1,70,0,0
50667,-100,4,2,1,80,0,0
53282,-100,4,2,1,55,0,0
53436,-100,4,2,1,65,0,0
53590,-100,4,2,1,75,0,0
53744,-100,4,2,1,85,0,0
53898,-100,4,2,1,95,0,0
54052,-100,4,2,1,100,0,0
55282,-100,4,2,1,60,0,0
55590,-100,4,2,1,85,0,1
55898,-100,4,2,1,85,0,1
58052,-100,4,2,1,85,0,1
58359,-100,4,2,1,85,0,1
59282,-100,4,2,1,85,0,1
59590,-100,4,2,1,85,0,1
62821,-100,4,2,1,95,0,1
63590,-100,4,2,1,95,0,1
65436,-100,4,2,1,85,0,1
65744,-100,4,2,1,85,0,1
67898,-100,4,2,1,85,0,1
68205,-100,4,2,1,85,0,1
72667,-100,4,2,1,95,0,1
73282,-100,4,2,1,95,0,1
75128,-100,4,2,1,85,0,1
75590,-100,4,2,1,85,0,1
77744,-100,4,2,1,65,0,1
78052,-100,4,2,1,75,0,1
78359,-100,4,2,1,85,0,1
78667,-100,4,2,1,95,0,1
78975,317.460317460317,4,2,1,80,1,0
78975,-100,4,2,1,65,0,0
79590,307.692307692308,4,2,1,80,1,0
79590,-100,4,2,1,65,0,0
79666,-100,4,2,1,5,0,0
79743,-100,4,2,1,65,0,0
79974,-100,4,2,1,5,0,0
80051,-100,4,2,1,80,0,1
80205,307.692307692308,4,2,1,80,1,1
80512,-100,4,2,1,80,0,1
82512,-100,4,2,1,80,0,1
82974,-100,4,2,1,80,0,1
84974,-100,4,2,1,80,0,1
85435,-100,4,2,1,80,0,1
87589,-100,4,2,1,90,0,1
89127,-100,4,2,1,80,0,1
89204,-100,4,2,1,85,0,1
89281,-100,4,2,1,90,0,1
89358,-100,4,2,1,95,0,1
89435,-100,4,2,1,100,0,1
89512,-100,4,2,1,5,0,1
89589,-100,4,2,1,100,0,0

[Colours]
Combo1 : 162,255,255
Combo2 : 167,167,211
Combo3 : 106,181,255
Combo4 : 254,156,249

[HitObjects]
57,352,205,6,0,P|17:306|184:310,1,400,2|2,0:0|0:0,0:0:0:0:
321,364,1897,2,0,B|414:370|378:322|474:324,1,150,2|2,0:0|0:0,0:0:0:0:
256,192,2666,12,2,3897,0:1:0:0:
469,66,6203,6,0,B|385:45|415:106|315:79,1,150,6|10,1:2|0:0,0:0:0:0:
241,25,6972,1,2,3:2:0:0:
164,88,7279,1,10,0:0:0:0:
65,68,7587,2,0,P|71:153|77:283,1,200,2|0,3:2|3:0,0:0:0:0:
199,354,8664,6,0,B|292:361|256:316|356:317,1,150,6|8,1:2|0:0,0:0:0:0:
435,349,9433,1,2,3:2:0:0:
504,277,9741,1,8,0:0:0:0:
442,198,10049,2,0,P|369:183|243:176,1,200,2|4,3:2|3:0,0:0:0:0:
107,113,11126,6,0,P|111:39|192:21,1,150,6|10,1:2|0:0,0:0:0:0:
267,51,11895,1,2,3:2:0:0:
354,2,12203,1,10,0:0:0:0:
439,54,12510,2,0,P|429:130|425:258,1,200,2|0,3:2|3:2,0:0:0:0:
382,343,13433,1,8,0:0:0:0:
295,293,13741,6,0,P|268:267|194:280,1,99.9999999999999,10|10,0:0|0:0,0:0:0:0:
138,339,14356,2,0,P|111:365|16:268,1,200,4|0,0:3|1:0,0:0:0:0:
78,214,15279,1,4,3:0:0:0:
7,143,15587,2,0,P|3:114|-4:84,1,50,4|2,1:0|1:2,0:0:0:0:
63,39,26052,6,0,P|78:109|93:203,1,150,4|8,1:2|0:0,0:0:0:0:
68,283,26821,1,0,3:0:0:0:
150,339,27128,2,0,B|241:343|199:299|299:296,1,150,10|8,0:0|0:0,0:0:0:0:
377,345,27898,2,0,P|438:323|451:277,1,99.9999999999999,2|8,3:2|0:0,0:0:0:0:
397,209,28513,1,0,3:2:0:0:
473,144,28821,2,0,P|439:90|417:-4,1,150,10|2,0:0|3:2,0:0:0:0:
323,41,29590,6,0,B|240:54|274:-5|159:25,1,150,10|8,0:0|0:0,0:0:0:0:
86,60,30359,1,2,3:2:0:0:
146,139,30667,1,8,0:0:0:0:
58,188,30975,2,0,P|77:259|89:340,1,150,2|8,3:2|0:0,0:0:0:0:
179,375,31744,1,0,3:0:0:0:
267,327,32052,2,0,L|427:318,1,150,10|8,0:0|0:0,0:0:0:0:
480,241,32821,2,0,P|449:205|434:146,1,99.9999999999999,2|8,3:2|0:0,0:0:0:0:
468,61,33436,5,2,3:2:0:0:
379,14,33744,1,8,0:0:0:0:
298,73,34052,2,0,B|210:81|246:33|154:47,1,150,0|4,3:0|3:2,0:0:0:0:
72,104,34821,1,2,3:0:0:0:
139,177,35128,2,0,P|139:244|133:337,1,150,4|8,3:2|3:0,0:0:0:0:
221,376,35898,1,4,3:1:0:0:
445,340,45744,6,0,P|384:330|230:328,1,200,4|2,3:2|3:2,0:0:0:0:
151,360,46667,1,0,3:0:0:0:
64,308,46975,2,0,L|80:198,1,99.9999999999999,2|2,3:2|3:2,0:0:0:0:
12,133,47590,2,0,L|28:16,1,99.9999999999999,2|2,3:2|3:2,0:0:0:0:
119,0,48205,6,0,B|242:-11|162:75|316:56,1,200,0|2,3:2|3:2,0:0:0:0:
388,12,49128,1,0,3:0:0:0:
458,83,49436,2,0,P|431:110|425:184,1,99.9999999999999,2|6,3:2|3:2,0:0:0:0:
506,221,50052,2,0,B|383:210|463:296|309:277,1,200,2|4,3:2|1:2,0:0:0:0:
236,233,50975,5,4,1:2:0:0:
164,302,51282,1,8,0:3:0:0:
75,255,51590,1,2,3:2:0:0:
112,162,51898,2,0,P|103:107|93:52,1,99.9999999999999,2|4,3:2|1:2,0:0:0:0:
181,12,52513,1,8,3:0:0:0:
256,78,52821,1,4,3:0:0:0:
256,192,52975,12,6,54205,1:2:0:0:
509,36,55590,6,0,B|424:21|440:83|356:66,1,150,6|2,1:2|0:0,0:0:0:0:
279,19,56359,1,2,0:0:0:0:
206,87,56667,2,0,B|151:111|108:65|108:65,1,99.9999999999999,2|2,0:0|0:0,0:0:0:0:
17,41,57282,2,0,P|30:99|30:195,1,150,2|8,0:0|0:0,0:0:0:0:
19,288,58052,6,0,P|80:273|148:325,1,150,6|8,1:2|0:3,0:0:0:0:
234,369,58821,1,2,0:0:0:0:
323,325,59128,2,0,P|384:340|452:288,1,150,2|8,0:0|0:0,0:0:0:0:
411,199,59898,1,2,3:2:0:0:
314,224,60205,1,10,0:0:0:0:
237,159,60513,6,0,B|139:127|158:212|41:164,1,200,4|2,3:2|3:2,0:0:0:0:
21,68,61436,1,10,0:0:0:0:
115,36,61744,2,0,P|210:35|225:32,1,99.9999999999999,2|10,3:2|0:0,0:0:0:0:
310,7,62359,6,0,P|363:5|401:103,2,150,8|6|10,3:0|1:2|0:0,0:0:0:0:
214,34,63590,1,10,0:0:0:0:
255,124,63898,2,0,P|269:177|271:235,1,99.9999999999999,6|10,1:2|0:0,0:0:0:0:
238,316,64513,1,10,0:0:0:0:
144,350,64821,2,0,P|87:332|69:290,1,99.9999999999999,6|0,1:2|3:0,0:0:0:0:
38,203,65436,6,0,P|74:184|101:72,1,150,6|2,1:2|0:0,0:0:0:0:
179,18,66205,1,2,0:0:0:0:
254,83,66513,2,0,B|311:88|298:61|357:64,1,99.9999999999999,2|2,0:0|0:0,0:0:0:0:
448,43,67128,2,0,P|405:67|386:162,1,150,2|8,0:0|0:0,0:0:0:0:
421,253,67898,6,0,P|355:253|252:259,1,150,6|2,1:2|0:0,0:0:0:0:
179,296,68667,1,2,0:0:0:0:
82,269,68975,2,0,P|44:228|84:144,1,150,2|8,0:0|0:0,0:0:0:0:
174,146,69744,1,2,3:2:0:0:
206,51,70052,1,8,0:2:0:0:
303,72,70359,6,0,P|377:78|418:80,1,99.9999999999999,4|10,1:2|0:0,0:0:0:0:
489,129,70975,2,0,P|479:183|473:235,1,99.9999999999999,2|10,3:2|0:0,0:0:0:0:
390,283,71590,1,2,3:2:0:0:
291,264,71898,1,10,0:0:0:0:
215,329,72205,6,0,B|126:350|159:289|56:321,2,150,4|6|10,3:0|1:2|0:0,0:0:0:0:
291,264,73436,1,10,0:0:0:0:
390,283,73744,2,0,P|400:219|409:177,1,99.9999999999999,6|10,1:2|0:0,0:0:0:0:
462,101,74359,1,10,0:0:0:0:
392,29,74667,2,0,P|327:25|286:106,1,150,6|4,1:2|1:2,0:0:0:0:
177,195,75590,6,0,P|96:178|73:167,1,99.9999999999999,10|2,0:0|3:2,0:0:0:0:
11,243,76205,1,10,0:0:0:0:
64,327,76513,2,0,P|126:319|277:321,1,200,2|0,3:2|3:0,0:0:0:0:
361,340,77436,1,10,0:0:0:0:
444,284,77744,6,0,L|437:184,1,99.9999999999999,6|4,1:2|0:3,0:0:0:0:
507,113,78359,2,0,L|495:-1,1,99.9999999999999,4|4,0:3|0:3,0:0:0:0:
46,13,80051,6,0,L|32:175,1,150,6|10,1:2|0:0,0:0:0:0:
93,242,80820,1,2,3:2:0:0:
62,337,81127,1,10,0:0:0:0:
157,365,81435,2,0,P|210:350|270:345,1,99.9999999999999,2|10,3:2|0:0,0:0:0:0:
354,346,82051,1,0,3:0:0:0:
481,266,82512,6,0,P|461:185|393:181,1,150,6|8,1:2|0:0,0:0:0:0:
319,228,83281,1,2,3:2:0:0:
226,188,83589,1,8,0:0:0:0:
129,214,83897,2,0,P|121:159|106:105,1,99.9999999999999,2|10,3:2|0:0,0:0:0:0:
155,26,84512,2,0,B|252:14|212:74|317:64,1,150,10|6,0:0|1:2,0:0:0:0:
439,24,85435,5,10,0:0:0:0:
490,109,85743,2,0,P|472:150|458:219,1,99.9999999999999,2|10,3:2|0:0,0:0:0:0:
461,303,86358,2,0,P|421:339|360:334,1,99.9999999999999,2|10,3:2|0:0,0:0:0:0:
314,262,86974,1,0,3:0:0:0:
229,315,87281,1,8,0:0:0:0:
133,285,87589,6,0,P|147:196|147:166,1,99.9999999999999,10|10,0:0|0:0,0:0:0:0:
62,132,88204,2,0,P|39:98|154:45,1,200,2|8,1:2|0:0,0:0:0:0:
225,77,89127,1,8,3:0:0:0:
312,29,89435,2,0,P|345:27|379:21,1,50,4|2,1:0|1:2,0:0:0:0:
