osu file format v14

[General]
AudioFilename: audio.mp3
AudioLeadIn: 0
PreviewTime: 54590
Countdown: 0
SampleSet: Soft
StackLeniency: 0.4
Mode: 0
LetterboxInBreaks: 0
WidescreenStoryboard: 1

[Editor]
Bookmarks: 89528
DistanceSpacing: 0.9
BeatDivisor: 4
GridSize: 32
TimelineZoom: 2.8

[Metadata]
Title:MIIRO
TitleUnicode:海色
Artist:Roselia
ArtistUnicode:Roselia
Creator:-Mikan
Version:Cami's HARD
Source:バンドリ! ガールズバンドパーティ!
Tags:Natteke Desu Nelly Imai Lisa Xetopia Lacrima myle Kanon Matsubara Shinitagari Hinsvar bbj0920 [Shana Lesus] [Shana_Lesus] Virtue- toybot Jounzan evilElvis Cami Gaia Left island newton- iljaaz adioni tatoe BanG Dream! Girls Band Party! Garupa Bandori! ガルパ!anime opening op japanese 艦隊これくしょん -艦これ- kantai collection みいろ ロゼリア minato yukina 湊友希那 aiba aina 相羽あいな hikawa sayo 氷川紗夜 kudou haruka 工藤晴香 imai lisa 今井リサ endou yurika 遠藤ゆりか nakashima yuki 中島由貴 udagawa ako 宇田川あこ sakuragawa megu 櫻川めぐ shirokane rinko 白金燐子 akesaka satomi 明坂聡美 video game AKINO from bless4 Fleet Girls Collection KanColle Animation Sequence game ver
BeatmapID:2098935
BeatmapSetID:1002819

[Difficulty]
HPDrainRate:4
CircleSize:3.9
OverallDifficulty:6
ApproachRate:8
SliderMultiplier:1.3
SliderTickRate:1

[Events]
//Background and Video events
0,0,"862dbcbf412f6ebefe0e6910a55c11c4d95f16f8_s2_n2.jpg",0,0
Video,-1200,"TATOE.mp4"
//Break Periods
2,4097,5374
2,36451,43220
//Storyboard Layer 0 (Background)
//Storyboard Layer 1 (Fail)
//Storyboard Layer 2 (Pass)
//Storyboard Layer 3 (Foreground)
//Storyboard Layer 4 (Overlay)
//Storyboard Sound Samples

[TimingPoints]
67,368.098159509202,4,2,1,100,1,0
205,307.692307692308,4,2,1,70,1,0
205,-142.857142857143,4,2,1,60,0,0
2666,-133.333333333333,4,2,1,65,0,0
3051,-133.333333333333,4,2,1,5,0,0
3128,-133.333333333333,4,2,1,65,0,0
3512,-133.333333333333,4,2,1,5,0,0
3589,-133.333333333333,4,2,1,55,0,0
3820,-133.333333333333,4,2,1,5,0,0
3897,314.13612565445,4,2,1,70,1,0
3897,-133.333333333333,4,2,1,70,0,0
5742,307.692307692308,4,2,1,70,1,0
5742,-133.333333333333,4,2,1,50,0,0
5818,-133.333333333333,4,2,1,5,0,0
5895,-133.333333333333,4,2,1,50,0,0
6126,-133.333333333333,4,2,1,5,0,0
6203,-90.9090909090909,4,2,1,80,0,1
6357,307.692307692308,4,2,1,70,1,1
6664,-90.9090909090909,4,2,1,80,0,1
8664,-90.9090909090909,4,2,1,80,0,1
9126,-90.9090909090909,4,2,1,80,0,1
11126,-90.9090909090909,4,2,1,80,0,1
11587,-90.9090909090909,4,2,1,80,0,1
13741,-90.9090909090909,4,2,1,90,0,1
15587,-90.9090909090909,4,2,1,100,0,1
15741,-133.333333333333,4,2,1,100,0,0
15895,-133.333333333333,4,2,1,40,0,0
16126,-133.333333333333,4,2,1,5,0,0
16203,-133.333333333333,4,2,1,55,0,0
20049,-133.333333333333,4,2,1,55,0,0
20972,-133.333333333333,4,2,1,55,0,0
23280,-133.333333333333,4,2,1,55,0,0
24666,324.324324324324,4,2,1,60,1,0
24828,303.030303030303,4,2,1,40,1,0
24828,-100,4,2,1,65,0,0
24979,-133.333333333333,4,2,1,5,0,0
25055,-133.333333333333,4,2,1,65,0,0
25206,-133.333333333333,4,2,1,5,0,0
25282,363.636363636364,4,2,1,40,1,0
25282,-133.333333333333,4,2,1,65,0,0
25372,-133.333333333333,4,2,1,5,0,0
25463,294.117647058824,4,2,1,40,1,0
25463,-100,4,2,1,65,0,0
25610,-133.333333333333,4,2,1,5,0,0
25683,-133.333333333333,4,2,1,65,0,0
25830,-133.333333333333,4,2,1,5,0,0
25904,300,4,2,1,40,1,0
25904,-133.333333333333,4,2,1,65,0,0
25979,-133.333333333333,4,2,1,5,0,0
26052,307.692307692308,4,2,1,80,1,0
26052,-100,4,2,1,70,0,0
26359,-100,4,2,1,70,0,0
33436,-100,4,2,1,70,0,0
34052,-100,4,2,1,70,0,0
34513,-100,4,2,1,70,0,0
35128,-100,4,2,1,70,0,0
35898,-100,4,2,1,60,0,0
43282,-100,4,2,1,60,0,0
44205,-100,4,2,1,60,0,0
44513,-133.333333333333,4,2,1,65,0,0
45744,-100,4,2,1,70,0,0
50667,-90.9090909090909,4,2,1,80,0,0
53282,-90.9090909090909,4,2,1,55,0,0
53436,-90.9090909090909,4,2,1,65,0,0
53590,-90.9090909090909,4,2,1,75,0,0
53744,-90.9090909090909,4,2,1,85,0,0
53898,-90.9090909090909,4,2,1,95,0,0
54052,-90.9090909090909,4,2,1,100,0,0
55282,-90.9090909090909,4,2,1,60,0,0
55590,-86.9565217391304,4,2,1,85,0,1
55898,-86.9565217391304,4,2,1,85,0,1
58052,-86.9565217391304,4,2,1,85,0,1
58359,-86.9565217391304,4,2,1,85,0,1
59282,-86.9565217391304,4,2,1,85,0,1
59590,-86.9565217391304,4,2,1,85,0,1
62821,-86.9565217391304,4,2,1,95,0,1
63590,-86.9565217391304,4,2,1,95,0,1
65436,-86.9565217391304,4,2,1,85,0,1
65744,-86.9565217391304,4,2,1,85,0,1
67898,-86.9565217391304,4,2,1,85,0,1
68205,-86.9565217391304,4,2,1,85,0,1
72667,-86.9565217391304,4,2,1,95,0,1
73282,-86.9565217391304,4,2,1,95,0,1
75128,-86.9565217391304,4,2,1,85,0,1
75590,-86.9565217391304,4,2,1,85,0,1
77744,-90.9090909090909,4,2,1,65,0,1
78052,-90.9090909090909,4,2,1,75,0,1
78359,-90.9090909090909,4,2,1,85,0,1
78667,-90.9090909090909,4,2,1,95,0,1
78975,317.460317460317,4,2,1,80,1,0
78975,-133.333333333333,4,2,1,65,0,0
79590,307.692307692308,4,2,1,80,1,0
79590,-133.333333333333,4,2,1,65,0,0
79666,-133.333333333333,4,2,1,5,0,0
79743,-133.333333333333,4,2,1,65,0,0
79974,-133.333333333333,4,2,1,5,0,0
80051,-90.9090909090909,4,2,1,80,0,1
80205,307.692307692308,4,2,1,80,1,1
80512,-90.9090909090909,4,2,1,80,0,1
82512,-90.9090909090909,4,2,1,80,0,1
82974,-90.9090909090909,4,2,1,80,0,1
84974,-90.9090909090909,4,2,1,80,0,1
85435,-90.9090909090909,4,2,1,80,0,1
87589,-90.9090909090909,4,2,1,90,0,1
89127,-90.9090909090909,4,2,1,80,0,1
89204,-90.9090909090909,4,2,1,85,0,1
89281,-90.9090909090909,4,2,1,90,0,1
89358,-90.9090909090909,4,2,1,95,0,1
89435,-90.9090909090909,4,2,1,100,0,1
89512,-90.9090909090909,4,2,1,5,0,1
89589,-90.9090909090909,4,2,1,100,0,0

[Colours]
Combo1 : 162,255,255
Combo2 : 167,167,211
Combo3 : 106,181,255
Combo4 : 254,156,249

[HitObjects]
22,330,205,5,2,0:0:0:0:
108,263,512,2,0,P|169:267|214:272,1,90.9999972229005,0|0,0:0|0:0,0:0:0:0:
292,326,1128,2,0,P|328:319|345:314,1,45.4999986114502,0|2,0:0|0:0,0:0:0:0:
365,293,1435,6,0,P|388:222|446:212,2,136.499995834351,2|2|2,0:0|0:0|0:0,0:0:0:0:
259,226,2666,1,2,0:0:0:0:
256,192,2743,12,2,3897,0:1:0:0:
65,152,6203,6,0,B|134:168|134:168|151:193|151:193|212:209,1,143.000004364014,6|0,1:2|3:0,0:0:0:0:
271,254,6664,2,0,P|312:245|357:240,1,71.5000021820069,10|0,0:0|0:0,0:0:0:0:
415,178,6972,2,0,B|428:144|428:144|421:104,1,71.5000021820069,2|2,3:2|3:2,0:0:0:0:
328,135,7279,2,0,L|341:241,1,107.25000327301,10|0,0:0|0:0,0:0:0:0:
367,257,7587,6,0,P|363:300|362:337,1,71.5000021820069,2|0,3:2|3:0,0:0:0:0:
282,365,7895,1,10,0:0:0:0:
282,365,8049,2,0,L|199:353,1,71.5000021820069,2|0,0:0|3:0,0:0:0:0:
127,284,8356,2,0,B|136:321|136:321|125:353,1,71.5000021820069,2|10,3:2|0:0,0:0:0:0:
97,204,8664,6,0,B|184:186|153:233|249:224,1,143.000004364014,6|0,1:2|3:0,0:0:0:0:
299,161,9126,2,0,B|331:139|331:139|213:116,1,143.000004364014,8|2,0:0|3:2,0:0:0:0:
173,59,9587,1,2,3:2:0:0:
173,59,9741,2,0,P|130:68|101:71,1,71.5000021820069,8|2,0:0|0:0,0:0:0:0:
28,138,10049,5,2,3:2:0:0:
28,138,10203,2,0,P|37:185|42:221,1,71.5000021820069,2|8,3:2|0:0,0:0:0:0:
108,252,10510,2,0,P|101:286|92:333,1,71.5000021820069,2|4,0:0|3:0,0:0:0:0:
182,376,10818,1,8,0:3:0:0:
182,376,10895,1,8,0:3:0:0:
182,376,10972,1,8,3:3:0:0:
250,304,11126,6,0,B|296:291|296:291|323:252|323:252|383:233,1,143.000004364014,6|0,1:2|3:0,0:0:0:0:
441,300,11587,2,0,P|408:254|446:171,1,143.000004364014,10|2,0:0|3:2,0:0:0:0:
495,124,12049,1,2,3:2:0:0:
441,53,12203,2,0,P|411:36|360:49,1,71.5000021820069,10|0,0:0|0:0,0:0:0:0:
303,114,12510,6,0,B|195:125|195:125|157:109,1,143.000004364014,2|10,3:2|0:0,0:0:0:0:
82,157,12972,1,2,0:0:0:0:
82,157,13126,2,0,B|66:191|66:191|70:253,1,71.5000021820069,0|2,3:2|3:2,0:0:0:0:
100,308,13433,1,8,0:0:0:0:
182,268,13587,5,2,3:2:0:0:
182,268,13664,1,2,3:2:0:0:
182,268,13741,2,0,P|224:260|264:252,1,71.5000021820069,10|0,0:0|3:0,0:0:0:0:
335,331,14049,2,0,P|379:338|417:347,1,71.5000021820069,10|2,0:0|3:2,0:0:0:0:
486,285,14356,1,4,0:3:0:0:
486,285,14510,2,0,L|472:202,1,71.5000021820069,8|0,0:3|3:3,0:0:0:0:
411,115,14818,5,0,1:0:0:0:
363,212,14972,2,0,B|325:226|325:226|284:216,1,71.5000021820069,0|0,1:0|3:0,0:0:0:0:
208,146,15279,2,0,L|215:65,1,71.5000021820069,4|2,3:0|3:2,0:0:0:0:
218,47,15510,1,2,3:2:0:0:
218,47,15587,1,4,1:0:0:0:
97,84,15741,1,2,1:2:0:0:
97,84,16203,6,0,B|80:136|80:136|107:187,1,97.50000371933,2|2,0:0|0:0,0:0:0:0:
154,232,16664,1,2,0:0:0:0:
154,232,16972,2,0,P|185:227|254:218,1,97.50000371933,0|2,0:0|0:0,0:0:0:0:
303,277,17433,6,0,B|295:239|295:239|310:121,1,146.250005578995,0|2,0:0|0:0,0:0:0:0:
308,132,18356,2,0,P|340:127|364:124,1,48.750001859665,2|2,0:0|0:0,0:0:0:0:
422,81,18664,6,0,B|445:126|445:126|430:184,1,97.50000371933,2|0,0:0|0:0,0:0:0:0:
383,235,19126,2,0,P|325:228|280:226,1,97.50000371933,2|2,0:0|0:0,0:0:0:0:
180,303,19741,2,0,P|146:319|121:335,1,48.750001859665,2|0,0:0|0:0,0:0:0:0:
61,286,20049,2,0,B|28:245|28:245|43:185,1,97.50000371933,2|2,0:0|0:0,0:0:0:0:
130,76,20818,2,0,P|166:82|191:86,1,48.750001859665,2|2,0:0|0:0,0:0:0:0:
246,45,21126,5,0,0:0:0:0:
246,45,21433,2,0,B|255:78|255:78|252:158,1,97.50000371933,2|2,0:0|0:0,0:0:0:0:
363,221,22049,2,0,L|352:164,1,48.750001859665,2|2,0:0|0:0,0:0:0:0:
393,106,22356,5,0,0:0:0:0:
393,106,22510,2,0,B|438:107|438:107|446:111|446:111|497:116,1,97.50000371933,2|2,0:0|0:0,0:0:0:0:
443,266,23279,1,2,0:0:0:0:
443,266,23433,2,0,P|389:275|336:287,1,97.50000371933,2|2,0:0|0:0,0:0:0:0:
242,359,24049,2,0,B|262:312|262:312|246:263,1,97.50000371933,2|2,0:0|0:1,0:0:0:0:
188,215,24510,2,0,P|161:219|130:226,1,48.750001859665,2|2,0:0|0:0,0:0:0:0:
140,223,24828,6,0,B|113:146|113:146|115:116,2,97.5,2|2|2,0:1|0:1|0:1,0:0:0:0:
200,137,25463,2,0,B|198:121|198:121|225:44,2,97.5,2|2|2,0:1|0:1|0:1,0:0:0:0:
304,206,26052,6,0,B|371:184|332:168|424:141,1,130,4|2,1:2|0:0,0:0:0:0:
488,189,26513,1,8,0:0:0:0:
488,189,26667,2,0,P|481:241|477:282,1,65,2|0,3:2|3:0,0:0:0:0:
495,335,26975,1,2,0:0:0:0:
392,366,27129,6,0,B|355:359|340:330|340:330|318:360|277:364,1,130,10|2,0:0|3:2,0:0:0:0:
196,315,27590,1,8,0:0:0:0:
196,315,27744,2,0,P|191:250|181:175,1,130,0|0,0:0|3:0,0:0:0:0:
93,139,28206,1,8,0:0:0:0:
121,64,28359,6,0,L|191:52,1,65,2|0,0:0|3:2,0:0:0:0:
266,115,28667,2,0,P|314:121|349:129,1,65,0|10,0:0|0:0,0:0:0:0:
399,197,28975,2,0,B|374:137|374:137|408:69,1,130,2|2,0:0|3:2,0:0:0:0:
486,219,29590,6,0,B|479:276|479:276|469:291|469:291|462:357,1,130,10|0,0:0|3:0,0:0:0:0:
377,380,30052,2,0,B|374:352|374:352|369:345|369:345|365:316,1,65,8|0,0:0|0:0,0:0:0:0:
275,262,30359,2,0,B|252:256|236:230|236:230|218:252|191:264|152:251,1,130,2|8,3:2|0:0,0:0:0:0:
81,198,30821,1,8,0:0:0:0:
81,198,30898,1,8,0:0:0:0:
81,198,30975,6,0,P|65:157|145:124,1,130,2|0,3:2|3:0,0:0:0:0:
202,79,31436,1,8,0:0:0:0:
202,79,31590,2,0,B|237:91|263:77|267:74|270:70|296:53|344:79,1,130,2|2,0:0|0:0,0:0:0:0:
412,130,32052,1,10,0:0:0:0:
412,130,32206,6,0,B|406:96|406:96|414:57,1,65,0|2,0:0|3:2,0:0:0:0:
512,126,32513,2,0,B|518:155|518:155|512:189,1,65,8|0,0:0|0:0,0:0:0:0:
424,259,32821,2,0,P|396:215|320:216,1,130,2|8,3:2|0:0,0:0:0:0:
211,306,33436,6,0,B|257:301|257:301|292:321|292:321|337:316,2,130,2|8|0,3:2|0:0|3:0,0:0:0:0:
139,255,34206,1,8,0:0:0:0:
139,255,34282,1,8,0:0:0:0:
139,255,34359,1,8,0:0:0:0:
201,185,34513,5,4,3:2:0:0:
135,342,34821,2,0,L|65:350,1,65,2|8,3:0|0:0,0:0:0:0:
14,280,35129,2,0,B|67:274|67:274|92:258|92:258|151:253,1,130,4|8,3:2|3:0,0:0:0:0:
166,259,35513,1,8,3:0:0:0:
166,259,35590,2,0,L|216:256,3,32.5,8|8|4|4,3:0|3:0|3:0|3:0,0:0:0:0:
229,257,35898,5,4,3:1:0:0:
229,257,44359,6,0,L|236:288,2,32.5,4|4|4,0:3|0:3|0:3,0:0:0:0:
304,148,44975,1,8,0:3:0:0:
397,254,45436,1,8,0:3:0:0:
503,184,45744,6,0,P|470:180|429:176,1,65,4|2,3:2|0:0,0:0:0:0:
387,119,46052,1,2,3:2:0:0:
387,119,46206,1,2,0:0:0:0:
304,148,46359,2,0,B|318:255|318:255|310:284,1,130,2|0,3:2|3:0,0:0:0:0:
249,327,46821,1,2,0:0:0:0:
179,273,46975,6,0,P|183:244|192:204,1,65,2|2,3:2|0:0,0:0:0:0:
114,144,47282,2,0,P|107:96|93:28,1,97.5,2|0,3:2|0:0,0:0:0:0:
85,29,47590,1,2,3:2:0:0:
17,105,47744,2,0,B|21:141|21:141|5:184,1,65,2|2,1:3|3:2,0:0:0:0:
71,252,48052,1,2,1:3:0:0:
71,252,48359,5,2,0:0:0:0:
145,222,48513,2,0,P|183:226|214:227,1,65,2|2,3:2|0:0,0:0:0:0:
278,283,48821,2,0,P|312:240|396:251,1,130,2|0,3:2|3:0,0:0:0:0:
450,292,49282,1,2,0:0:0:0:
450,292,49436,6,0,P|461:259|465:209,1,65,2|2,3:2|0:0,0:0:0:0:
404,164,49744,2,0,P|393:97|375:35,1,130,6|2,3:2|3:2,0:0:0:0:
305,120,50206,1,8,3:0:0:0:
305,120,50282,1,8,3:0:0:0:
305,120,50359,2,0,P|297:143|287:168,2,32.5,8|8|4,3:0|3:0|3:0,0:0:0:0:
225,53,50667,6,0,B|187:47|187:47|134:74,1,71.5000021820069,4|2,1:2|3:2,0:0:0:0:
112,143,50975,2,0,B|141:157|141:157|179:151,1,71.5000021820069,4|2,1:2|3:2,0:0:0:0:
240,208,51282,2,0,L|225:367,1,143.000004364014,8|2,0:3|3:2,0:0:0:0:
135,312,51744,5,4,1:2:0:0:
135,312,51898,2,0,P|132:274|127:235,1,71.5000021820069,2|8,3:2|3:0,0:0:0:0:
240,208,52206,2,0,B|278:207|278:207|327:237,1,71.5000021820069,4|8,1:2|3:0,0:0:0:0:
332,244,52436,1,8,3:0:0:0:
332,244,52513,1,8,3:0:0:0:
404,315,52667,2,0,P|416:267|427:234,1,71.5000021820069,4|4,3:0|3:0,0:0:0:0:
496,157,52975,5,2,3:2:0:0:
435,91,53129,2,0,L|349:102,1,71.5000021820069,4|8,1:2|0:0,0:0:0:0:
341,106,53359,1,8,0:0:0:0:
341,106,53436,2,0,L|294:91,3,35.7500010910034,8|8|8|8,0:0|0:0|0:0|0:0,0:0:0:0:
273,72,53744,2,0,L|238:82,3,35.7500010910034,8|8|8|8,0:0|0:0|0:0|0:0,0:0:0:0:
215,114,54052,1,8,0:0:0:0:
215,114,54129,1,8,0:0:0:0:
215,114,54206,5,4,3:2:0:0:
215,114,55282,6,0,P|248:144|215:196,1,107.25000327301,2|2,0:0|0:0,0:0:0:0:
199,205,55590,6,0,B|142:203|142:203|113:224|113:224|51:222,1,149.500002851486,6|10,1:2|0:0,0:0:0:0:
15,316,56052,2,0,P|67:307|102:302,1,74.7500014257431,2|0,0:0|3:0,0:0:0:0:
189,355,56359,2,0,P|244:364|279:368,1,74.7500014257431,2|8,0:0|0:0,0:0:0:0:
358,317,56667,6,0,B|364:287|364:287|337:161,1,149.500002851486,2|2,0:0|0:0,0:0:0:0:
318,93,57129,1,8,0:0:0:0:
318,93,57282,1,2,0:0:0:0:
233,146,57436,2,0,L|102:131,2,112.125002138615,0|2|2,3:2|0:0|0:0,0:0:0:0:
339,170,58052,6,0,B|381:170|409:141|398:142|428:111|480:118,1,149.500002851486,6|10,1:2|0:0,0:0:0:0:
428,37,58513,2,0,P|400:32|346:20,1,74.7500014257431,8|0,0:3|3:0,0:0:0:0:
262,45,58821,2,0,P|205:56|174:66,1,74.7500014257431,2|8,0:0|0:0,0:0:0:0:
148,159,59129,6,0,B|90:151|157:88|196:100|246:145,1,149.500002851486,2|0,0:0|0:0,0:0:0:0:
287,194,59590,1,8,0:0:0:0:
287,194,59744,1,0,0:0:0:0:
218,257,59898,2,0,B|208:294|208:294|227:344,1,74.7500014257431,2|0,3:2|0:0,0:0:0:0:
328,364,60206,2,0,B|338:327|338:327|325:292,1,74.7500014257431,10|8,0:0|0:0,0:0:0:0:
320,272,60436,1,8,0:0:0:0:
320,272,60513,6,0,L|427:258,1,74.7500014257431,4|2,3:2|0:0,0:0:0:0:
480,182,60821,2,0,P|428:174|371:168,1,74.7500014257431,10|2,0:0|0:0,0:0:0:0:
307,147,61129,2,0,B|283:80|325:105|298:13,1,112.125002138615,2|0,3:2|0:0,0:0:0:0:
285,16,61436,1,10,0:0:0:0:
220,69,61590,1,2,0:0:0:0:
135,20,61744,6,0,P|93:8|30:96,1,149.500002851486,2|10,3:2|0:0,0:0:0:0:
27,169,62206,2,0,P|76:161|107:157,1,74.7500014257431,2|8,0:0|3:0,0:0:0:0:
181,216,62513,1,8,3:2:0:0:
181,216,62590,1,8,3:2:0:0:
181,216,62667,1,8,3:2:0:0:
108,288,62821,6,0,B|164:298|164:298|193:327|193:327|265:336,1,149.500002851486,6|2,1:2|3:2,0:0:0:0:
319,263,63282,2,0,P|310:221|300:180,1,74.7500014257431,10|2,0:0|3:2,0:0:0:0:
333,101,63590,2,0,P|342:59|352:18,1,74.7500014257431,10|0,0:0|0:0,0:0:0:0:
429,113,63898,1,6,1:2:0:0:
429,113,64052,1,2,3:2:0:0:
377,183,64206,6,0,P|343:185|279:195,1,74.7500014257431,10|2,0:0|3:2,0:0:0:0:
210,134,64513,2,0,P|138:123|86:114,1,112.125002138615,10|0,0:0|0:0,0:0:0:0:
81,103,64821,1,6,1:2:0:0:
36,180,64975,2,0,L|-1:189,2,37.3750007128716,8|8|0,0:0|0:0|3:0,0:0:0:0:
101,259,65282,5,8,0:0:0:0:
101,259,65359,1,8,0:0:0:0:
101,259,65436,2,0,B|151:268|151:268|188:245|188:245|266:259,1,149.500002851486,6|8,1:2|0:0,0:0:0:0:
318,298,65898,2,0,L|326:387,1,74.7500014257431,2|0,0:0|3:2,0:0:0:0:
415,319,66206,2,0,L|421:244,1,74.7500014257431,2|8,0:0|0:0,0:0:0:0:
377,161,66513,6,0,B|323:160|259:169|259:169|245:159|221:150,1,149.500002851486,2|2,0:0|0:0,0:0:0:0:
152,137,66975,2,0,L|61:151,1,74.7500014257431,8|2,0:0|0:0,0:0:0:0:
3,106,67282,1,0,3:0:0:0:
19,215,67436,2,0,P|24:257|7:311,1,74.7500014257431,2|8,0:0|0:0,0:0:0:0:
108,369,67744,1,2,0:0:0:0:
165,302,67898,6,0,B|248:282|202:248|321:236,1,149.500002851486,6|8,1:2|0:0,0:0:0:0:
392,292,68359,2,0,B|377:260|377:260|392:204,1,74.7500014257431,2|0,0:0|3:0,0:0:0:0:
463,151,68667,2,0,B|478:119|478:119|467:80,1,74.7500014257431,2|8,0:0|0:0,0:0:0:0:
379,21,68975,6,0,P|371:64|269:73,1,149.500002851486,2|0,0:0|0:0,0:0:0:0:
200,31,69436,2,0,L|189:156,1,112.125002138615,8|0,0:0|0:0,0:0:0:0:
186,169,69744,1,2,3:2:0:0:
110,194,69898,1,8,0:3:0:0:
135,270,70052,1,8,0:2:0:0:
219,253,70206,1,0,3:0:0:0:
219,253,70282,1,0,3:0:0:0:
219,253,70359,6,0,B|242:286|242:286|236:331,1,74.7500014257431,4|2,1:2|0:0,0:0:0:0:
162,369,70667,2,0,P|121:360|74:361,1,74.7500014257431,10|2,0:0|0:0,0:0:0:0:
4,376,70975,2,0,P|12:310|14:253,1,112.125002138615,2|0,3:2|0:0,0:0:0:0:
13,239,71282,2,0,P|6:178|5:148,1,74.7500014257431,10|0,0:0|0:0,0:0:0:0:
58,86,71590,6,0,B|155:94|102:57|213:79,1,149.500002851486,2|10,3:2|0:0,0:0:0:0:
273,127,72052,2,0,P|314:121|369:113,1,74.7500014257431,2|4,0:0|3:0,0:0:0:0:
418,75,72359,1,8,3:2:0:0:
418,75,72436,1,8,3:2:0:0:
418,75,72513,1,8,3:2:0:0:
485,144,72667,6,0,B|481:164|481:164|471:298,1,149.500002851486,6|2,1:2|3:2,0:0:0:0:
390,346,73129,2,0,B|358:358|358:358|319:350,1,74.7500014257431,10|2,0:0|3:2,0:0:0:0:
240,263,73436,1,10,0:0:0:0:
240,263,73744,1,6,1:2:0:0:
170,300,73898,1,2,3:2:0:0:
86,241,74052,6,0,L|97:159,1,74.7500014257431,10|2,0:0|3:2,0:0:0:0:
0,118,74359,2,0,L|9:192,1,74.7500014257431,10|2,0:0|3:2,0:0:0:0:
108,87,74667,2,0,L|114:40,2,37.3750007128716,6|0|2,1:2|0:0|3:2,0:0:0:0:
171,137,74975,1,10,0:2:0:0:
256,72,75129,6,0,B|280:71|302:64|302:64|327:77|352:82|352:82|384:74|406:74,1,149.500002851486,4|0,1:2|3:2,0:0:0:0:
477,124,75590,2,0,P|474:166|465:223,1,74.7500014257431,10|0,0:0|0:0,0:0:0:0:
386,251,75898,2,0,L|298:239,1,74.7500014257431,2|0,3:2|0:0,0:0:0:0:
242,306,76206,1,10,0:0:0:0:
242,306,76359,1,2,0:0:0:0:
309,380,76513,6,0,B|337:315|337:315|309:233,1,149.500002851486,2|8,3:2|0:0,0:0:0:0:
227,180,76975,2,0,P|128:194|55:203,1,149.500002851486,2|0,0:2|0:0,0:0:0:0:
14,103,77436,2,0,P|76:109|103:114,1,74.7500014257431,10|2,0:0|0:0,0:0:0:0:
181,70,77744,6,0,L|194:0,2,71.5000021820069,6|4|4,1:2|0:3|0:3,0:0:0:0:
246,130,78206,2,0,L|259:200,2,71.5000021820069,4|4|4,0:3|0:3|0:3,0:0:0:0:
314,78,78667,2,0,B|352:72|352:72|393:86,1,71.5000021820069,4|4,0:3|0:3,0:0:0:0:
383,82,80051,6,0,B|352:119|352:119|363:232,1,143.000004364014,6|0,1:2|3:0,0:0:0:0:
284,253,80512,2,0,P|240:247|204:240,1,71.5000021820069,10|0,0:0|0:0,0:0:0:0:
134,285,80820,2,0,P|130:247|123:207,1,71.5000021820069,2|2,3:2|3:2,0:0:0:0:
50,158,81128,2,0,B|71:103|71:103|50:47,1,107.25000327301,10|0,0:0|0:0,0:0:0:0:
42,38,81435,6,0,P|110:48|126:51,1,71.5000021820069,2|0,3:2|3:2,0:0:0:0:
194,114,81743,1,10,0:0:0:0:
194,114,81897,2,0,P|244:107|280:103,1,71.5000021820069,2|0,0:0|3:0,0:0:0:0:
339,148,82205,1,2,3:2:0:0:
339,148,82358,1,8,0:0:0:0:
426,93,82512,6,0,B|452:131|452:131|432:241,1,143.000004364014,6|0,1:2|3:0,0:0:0:0:
350,307,82974,2,0,P|346:272|338:229,1,71.5000021820069,8|0,0:0|0:0,0:0:0:0:
265,192,83281,2,0,P|258:227|254:262,1,71.5000021820069,2|2,3:2|3:2,0:0:0:0:
181,334,83589,1,8,0:0:0:0:
181,334,83897,5,2,3:2:0:0:
181,334,84051,2,0,L|99:317,1,71.5000021820069,2|10,3:2|0:0,0:0:0:0:
39,237,84358,1,0,3:0:0:0:
117,177,84512,1,10,0:0:0:0:
117,177,84589,1,8,0:0:0:0:
117,177,84666,2,0,L|128:141,3,35.7500010910034,10|8|10|8,0:0|0:0|0:0|0:0,0:0:0:0:
137,117,84974,6,0,B|177:100|202:110|202:110|214:101|214:101|250:119|299:95,1,143.000004364014,6|0,1:2|3:0,0:0:0:0:
348,54,85435,2,0,P|398:50|427:71,1,71.5000021820069,10|0,0:0|0:0,0:0:0:0:
410,159,85743,2,0,P|360:163|331:142,1,71.5000021820069,2|2,3:2|3:2,0:0:0:0:
256,195,86051,2,0,B|237:247|237:247|260:298,1,107.25000327301,10|0,0:0|0:0,0:0:0:0:
283,317,86358,6,0,B|192:296|218:335|130:331,1,143.000004364014,2|10,3:2|0:0,0:0:0:0:
76,267,86820,2,0,P|68:217|60:184,1,71.5000021820069,2|0,0:0|3:0,0:0:0:0:
136,129,87128,2,0,P|152:82|162:55,1,71.5000021820069,2|8,3:2|0:0,0:0:0:0:
255,116,87435,5,2,3:2:0:0:
255,116,87512,1,2,3:2:0:0:
255,116,87589,2,0,L|343:108,1,71.5000021820069,10|0,0:0|3:0,0:0:0:0:
408,54,87897,2,0,P|453:64|487:73,1,71.5000021820069,10|2,0:0|3:2,0:0:0:0:
496,89,88128,1,0,0:0:0:0:
496,89,88205,5,2,1:2:0:0:
427,187,88358,1,10,0:0:0:0:
427,187,88666,1,2,1:2:0:0:
328,136,88820,2,0,P|282:146|246:156,1,71.5000021820069,8|0,0:0|3:0,0:0:0:0:
181,226,89128,2,0,P|234:240|266:253,1,71.5000021820069,8|2,3:0|3:2,0:0:0:0:
272,268,89358,1,2,3:2:0:0:
272,268,89435,5,4,1:0:0:0:
258,152,89589,1,2,1:2:0:0:
