osu file format v14

[General]
AudioFilename: audio.mp3
AudioLeadIn: 0
PreviewTime: 58740
Countdown: 0
SampleSet: Soft
StackLeniency: 0.7
Mode: 0
LetterboxInBreaks: 0
WidescreenStoryboard: 0

[Editor]
DistanceSpacing: 0.7
BeatDivisor: 4
GridSize: 4
TimelineZoom: 2.1

[Metadata]
Title:LOUDER
TitleUnicode:LOUDER
Artist:Roselia
ArtistUnicode:Roselia
Creator:scanter
Version:eLy's Extra
Source:バンドリ!ガールズバンドパーティ!
Tags:Event Garupa Bandori BanG Dream! ガルパ! Girls Band Party! Minato Yukina 湊友希那 Hikawa Sayo 氷川紗夜 Imai Lisa 今井リサ Udagawa Ako 宇田川あこ Shirogane Rinko 白金燐子 ロゼリア Aiba Aina 相羽あいな Akesaka Satomi 明坂聡美 Endou Yurika 遠藤ゆりか Kudou Haruka 工藤晴香 Sakuragawa Megu 桜川めぐ eLy _Meep_ Meep Yuria Anais CLSW Crystal groundswim JarrenTanJR Ancelyze Rayon BLACK SHOUT Game Version
BeatmapID:1261436
BeatmapSetID:595580

[Difficulty]
HPDrainRate:6
CircleSize:4
OverallDifficulty:8
ApproachRate:9.2
SliderMultiplier:2
SliderTickRate:1

[Events]
//Background and Video events
0,0,"bg.jpg",0,0
//Break Periods
//Storyboard Layer 0 (Background)
//Storyboard Layer 1 (Fail)
//Storyboard Layer 2 (Pass)
//Storyboard Layer 3 (Foreground)
//Storyboard Sound Samples

[TimingPoints]
-813,307.692307692308,4,2,1,100,1,0
417,-166.666666666667,4,2,1,70,0,0
1648,-125,4,2,1,70,0,0
2879,-166.666666666667,4,2,1,70,0,0
3802,-83.3333333333333,4,2,1,70,0,0
4263,-100,4,2,1,70,0,0
4802,-100,4,2,1,5,0,0
4879,-125,4,2,1,70,0,0
7802,-125,4,2,1,40,0,0
8110,-125,4,2,1,50,0,0
8417,-125,4,2,1,60,0,0
8725,-125,4,2,1,70,0,0
9033,-166.666666666667,4,2,1,30,0,0
10110,-100,4,2,1,90,0,1
10187,-100,4,2,1,90,0,0
23571,-100,4,2,1,5,0,0
23648,-100,4,2,1,90,0,0
28571,-166.666666666667,4,2,1,70,0,0
29263,-166.666666666667,4,2,1,5,0,0
29340,-166.666666666667,4,2,1,70,0,0
29879,-166.666666666667,4,2,1,5,0,0
29956,-125,4,2,1,70,0,0
39802,-100,4,2,1,90,0,0
42340,-100,4,2,1,5,0,0
42417,-100,4,2,1,90,0,0
44263,-100,4,2,1,90,0,0
44494,-100,4,2,1,5,0,0
44571,-100,4,2,1,90,0,0
47263,-100,4,2,1,5,0,0
47340,-100,4,2,1,90,0,0
49648,-125,4,2,1,90,0,0
54571,-166.666666666667,4,2,1,90,0,0
55725,-166.666666666667,4,2,1,5,0,0
55802,-166.666666666667,4,2,1,90,0,0
56648,-166.666666666667,4,2,1,5,0,0
56725,-125,4,2,1,90,0,0
57033,-100,4,2,1,90,0,0
58110,-166.666666666667,4,2,1,90,0,0
58648,-166.666666666667,4,2,1,5,0,0
58725,-166.666666666667,4,2,1,90,0,0
58802,-166.666666666667,4,2,1,5,0,0
58879,-166.666666666667,4,2,1,90,0,0
59033,-200,4,2,1,90,0,0
59263,-200,4,2,1,5,0,0
59340,-90.909090909091,4,2,1,100,0,1
69033,-90.909090909091,4,2,1,100,0,0
69187,-90.909090909091,4,2,1,100,0,1
79033,-100,4,2,1,90,0,0
92494,-100,4,2,1,5,0,0
92571,-100,4,2,1,90,0,0
97494,-166.666666666667,4,2,1,80,0,0
98802,-166.666666666667,4,2,1,5,0,0
98879,-166.666666666667,4,2,1,60,0,0
99494,-166.666666666667,4,2,1,50,0,0
100110,-166.666666666667,4,2,1,42,0,0
100725,-166.666666666667,4,2,1,34,0,0
101340,-166.666666666667,4,2,1,26,0,0
101956,-166.666666666667,4,2,1,18,0,0
102571,-166.666666666667,4,2,1,14,0,0
103187,-166.666666666667,4,2,1,10,0,0
103802,-166.666666666667,4,2,1,5,0,0

[Colours]
Combo1 : 128,255,255
Combo2 : 255,128,128
Combo3 : 128,255,128
Combo4 : 255,128,192
Combo5 : 255,128,64

[HitObjects]
62,62,263,5,2,0:0:0:0:
62,62,340,1,2,0:0:0:0:
62,62,417,2,0,B|59:166|33:271|33:271|109:237|181:233,1,359.999989013672,6|0,0:0|0:0,0:0:0:0:
175,233,1648,6,0,P|229:254|176:230,1,160,8|0,0:0|0:0,0:0:0:0:
331,98,2110,6,0,B|333:151|305:172|241:168|241:114|253:73,1,160,4|0,3:0|0:0,0:0:0:0:
357,227,2571,6,0,L|347:322,1,80,2|0,0:0|0:0,0:0:0:0:
376,190,2879,2,0,P|412:198|358:331,1,239.999992675781,6|0,0:0|0:0,0:0:0:0:
188,289,3802,6,0,B|231:280|231:280|210:247|155:258|146:294|150:334|160:363|205:372|241:349,1,239.999992675781,0|8,0:0|0:0,0:0:0:0:
322,145,4263,6,0,L|311:246,1,100,4|0,3:0|0:0,0:0:0:0:
338,111,4571,2,0,P|399:124|366:192,1,150,0|0,3:0|0:0,0:0:0:0:
376,190,4879,2,0,P|392:231|430:254,1,80,2|0,0:0|0:0,0:0:0:0:
248,63,5187,5,8,0:0:0:0:
248,63,5263,1,8,0:0:0:0:
248,63,5340,2,0,L|151:85,1,80,6|0,0:0|0:0,0:0:0:0:
52,172,5648,2,0,L|131:191,1,80,2|0,0:0|0:0,0:0:0:0:
221,276,5956,2,0,P|261:264|317:257,2,80,2|0|2,0:0|0:0|0:0,0:0:0:0:
336,137,6417,1,0,0:0:0:0:
453,293,6571,6,0,P|414:292|368:277,1,80,2|0,0:0|0:0,0:0:0:0:
310,61,6879,2,0,L|339:149,1,80,2|0,0:0|0:0,0:0:0:0:
194,351,7187,2,0,L|224:266,1,80,2|0,0:0|0:0,0:0:0:0:
105,69,7494,2,0,L|129:169,1,80,2|0,0:0|0:0,0:0:0:0:
105,69,7802,5,8,0:0:0:0:
22,230,7956,5,8,0:0:0:0:
27,240,8033,1,8,0:0:0:0:
33,250,8110,1,8,0:0:0:0:
199,82,8263,5,8,0:0:0:0:
193,92,8340,1,8,0:0:0:0:
187,102,8417,1,8,0:0:0:0:
300,257,8571,5,8,0:0:0:0:
306,268,8648,1,8,0:0:0:0:
312,279,8725,1,8,0:0:0:0:
460,134,8879,5,8,0:0:0:0:
455,145,8956,1,8,0:0:0:0:
451,156,9033,2,0,L|373:136,1,59.9999981689454
300,257,9340,2,0,L|228:279,1,59.9999981689454
153,191,9648,1,0,0:0:0:0:
38,234,9802,1,0,0:0:0:0:
63,79,9956,2,0,L|107:89,1,29.9999990844727,2|0,0:3|0:0,0:0:0:0:
221,8,10110,6,0,L|187:101,1,100,6|0,0:0|0:0,0:0:0:0:
299,256,10417,1,2,0:0:0:0:
136,379,10571,2,0,P|115:335|112:281,1,100,8|0,0:0|0:0,0:0:0:0:
265,154,10879,1,2,0:0:0:0:
385,326,11033,1,2,0:0:0:0:
424,122,11187,1,8,0:0:0:0:
296,283,11340,1,0,0:0:0:0:
296,283,11417,1,0,0:0:0:0:
296,283,11494,6,0,L|184:265,1,100,2|0,0:0|0:0,0:0:0:0:
57,364,11802,1,8,0:0:0:0:
137,157,11956,1,0,0:0:0:0:
19,119,12110,2,0,P|12:170|32:230,1,100,2|2,0:0|0:0,0:0:0:0:
260,68,12417,2,0,L|202:56,1,50,8|0,0:0|0:0,0:0:0:0:
171,155,12571,6,0,L|372:129,1,200,6|2,0:0|0:0,0:0:0:0:
124,31,13033,1,8,0:0:0:0:
277,219,13187,1,0,0:0:0:0:
277,219,13263,1,0,0:0:0:0:
277,219,13340,2,0,P|274:272|256:325,1,100,2|2,0:0|0:0,0:0:0:0:
369,129,13648,1,8,0:0:0:0:
180,252,13802,1,0,0:0:0:0:
180,252,13879,1,0,0:0:0:0:
180,252,13956,5,2,0:0:0:0:
370,330,14110,1,0,0:0:0:0:
235,106,14263,1,8,0:0:0:0:
180,252,14417,2,0,L|249:232,1,50,0|0,0:0|0:0,0:0:0:0:
333,121,14571,2,0,L|222:104,1,100,2|8,0:0|0:0,0:0:0:0:
52,277,14879,1,8,0:0:0:0:
286,337,15033,6,0,P|327:238|423:226,1,200,6|2,0:0|0:0,0:0:0:0:
215,9,15494,2,0,P|233:60|233:113,1,100,8|0,0:0|0:0,0:0:0:0:
52,277,15802,2,0,L|3:173,1,100,2|0,0:0|0:0,0:0:0:0:
11,18,16110,1,8,0:0:0:0:
185,195,16263,1,0,0:0:0:0:
185,195,16340,1,0,0:0:0:0:
185,195,16417,5,2,0:0:0:0:
122,68,16571,1,0,0:0:0:0:
52,277,16725,1,8,0:0:0:0:
217,176,16879,1,0,0:0:0:0:
8,136,17033,1,2,0:0:0:0:
213,280,17187,1,0,0:0:0:0:
269,38,17340,1,8,0:0:0:0:
462,197,17494,6,0,L|263:183,1,200,6|2,0:0|0:0,0:0:0:0:
213,280,17879,1,2,0:0:0:0:
231,291,17956,2,0,L|331:298,1,100,8|2,0:0|0:0,0:0:0:0:
499,113,18263,1,8,0:0:0:0:
213,280,18417,1,2,0:0:0:0:
274,50,18571,1,12,0:0:0:0:
461,197,18725,1,2,0:0:0:0:
363,7,18879,6,0,L|347:75,1,50,8|0,0:0|0:0,0:0:0:0:
261,182,19033,1,2,0:0:0:0:
261,182,19110,1,2,0:0:0:0:
261,182,19187,2,0,L|253:132,1,50,8|0,0:0|0:0,0:0:0:0:
461,197,19340,2,0,L|415:233,1,50,2|0,0:0|0:0,0:0:0:0:
225,276,19494,2,0,P|273:300|355:274,1,100,8|8,0:0|0:0,0:0:0:0:
349,285,19725,1,8,0:0:0:0:
349,285,19802,2,0,L|373:343,1,50,8|0,0:0|0:0,0:0:0:0:
461,197,19956,6,0,L|230:180,1,200,6|2,0:0|0:0,0:0:0:0:
148,361,20417,1,8,0:0:0:0:
59,151,20571,2,0,L|120:137,1,50,0|0,0:0|0:0,0:0:0:0:
226,257,20725,2,0,P|176:256|127:225,1,100,2|2,0:0|0:0,0:0:0:0:
237,43,21033,1,8,0:0:0:0:
40,16,21187,1,0,0:0:0:0:
40,16,21263,1,0,0:0:0:0:
40,16,21340,6,0,L|54:119,1,100,2|0,0:0|0:0,0:0:0:0:
226,257,21648,1,8,0:0:0:0:
283,44,21802,1,0,0:0:0:0:
130,192,21956,1,2,0:0:0:0:
338,140,22110,1,2,0:0:0:0:
236,305,22263,2,0,L|225:254,1,50,8|0,0:0|0:0,0:0:0:0:
338,140,22417,6,0,P|418:175|386:268,1,200,6|2,0:0|0:0,0:0:0:0:
302,226,22802,1,0,0:0:0:0:
302,226,22879,2,0,P|255:182|198:178,1,100,8|0,0:0|0:0,0:0:0:0:
391,14,23187,1,2,0:0:0:0:
487,153,23340,2,0,L|327:139,1,150,2|0,0:0|0:0,0:0:0:0:
322,138,23648,2,0,L|313:79,1,50,0|0,0:0|0:0,0:0:0:0:
476,9,23802,6,0,L|490:130,1,100,2|0,0:0|0:0,0:0:0:0:
302,226,24110,1,8,0:0:0:0:
409,337,24263,1,0,0:0:0:0:
409,337,24340,1,0,0:0:0:0:
409,337,24417,2,0,P|443:298|457:245,1,100,2|8,0:0|0:0,0:0:0:0:
318,215,24648,1,8,0:0:0:0:
302,226,24725,2,0,P|276:233|241:233,1,50,8|0,0:0|0:0,0:0:0:0:
72,83,24879,6,0,P|160:93|176:192,1,200,6|2,0:0|0:0,0:0:0:0:
34,307,25340,2,0,P|22:258|8:209,1,100,8|0,0:0|0:0,0:0:0:0:
151,313,25648,1,2,0:0:0:0:
151,313,25802,1,0,0:0:0:0:
199,91,25956,2,0,L|175:196,1,100,8|0,0:0|0:0,0:0:0:0:
286,326,26263,5,2,0:0:0:0:
369,72,26417,1,0,0:0:0:0:
264,171,26571,1,8,0:0:0:0:
451,303,26725,1,0,0:0:0:0:
484,80,26879,1,2,0:0:0:0:
352,240,27033,1,0,0:0:0:0:
253,38,27187,1,8,0:0:0:0:
388,109,27340,1,0,0:0:0:0:
250,240,27494,6,0,L|200:248,1,50,12|0,0:0|0:0,0:0:0:0:
104,156,27648,1,2,0:0:0:0:
104,156,27725,1,2,0:0:0:0:
104,156,27802,2,0,L|45:145,1,50,2|2,0:0|0:0,0:0:0:0:
193,99,27956,6,0,L|196:162,1,50,12|0,0:0|0:0,0:0:0:0:
115,306,28110,2,0,L|110:249,1,50,2|2,0:0|0:0,0:0:0:0:
96,59,28263,1,2,0:0:0:0:
0,245,28417,1,8,0:0:0:0:
104,156,28571,6,0,P|197:146|146:262,1,269.999991760254,6|0,0:0|0:0,0:0:0:0:
139,272,29340,2,0,L|103:267,1,29.9999990844727
256,300,29494,1,2,0:0:0:0:
256,300,29571,1,2,0:0:0:0:
256,300,29648,2,0,L|364:285,1,89.9999972534181,8|0,0:0|0:0,0:0:0:0:
365,284,29956,6,0,L|379:230,1,40,12|0,0:0|0:0,0:0:0:0:
263,118,30110,2,0,L|251:175,1,40
417,88,30263,1,8,0:0:0:0:
421,72,30571,5,8,0:0:0:0:
263,118,30725,1,2,0:0:0:0:
365,165,30879,1,8,0:0:0:0:
235,27,31033,1,0,0:0:0:0:
235,27,31110,1,0,0:0:0:0:
235,27,31187,5,8,0:0:0:0:
106,164,31340,1,0,0:0:0:0:
302,93,31494,1,8,0:0:0:0:
119,67,31648,1,0,0:0:0:0:
182,252,31802,1,8,0:0:0:0:
302,93,31956,1,2,0:0:0:0:
302,93,32033,1,0,0:0:0:0:
302,93,32110,1,8,0:0:0:0:
98,176,32263,1,0,0:0:0:0:
262,325,32417,6,0,L|270:277,1,40,8|0,0:0|0:0,0:0:0:0:
354,264,32571,2,0,L|363:218,1,40
189,226,32725,1,8,0:0:0:0:
197,235,33033,5,8,0:0:0:0:
84,107,33187,1,2,0:0:0:0:
42,277,33340,1,8,0:0:0:0:
103,201,33494,1,0,0:0:0:0:
277,279,33648,5,8,0:0:0:0:
184,136,33802,1,0,0:0:0:0:
138,300,33956,1,8,0:0:0:0:
197,224,34110,1,2,0:0:0:0:
197,224,34187,1,2,0:0:0:0:
197,224,34263,1,8,0:0:0:0:
348,332,34417,1,2,0:0:0:0:
360,182,34571,2,0,L|273:172,1,80,8|2,0:0|0:0,0:0:0:0:
151,153,34879,6,0,L|193:158,1,40,12|0,0:0|0:0,0:0:0:0:
334,49,35033,2,0,L|312:97,1,40,0|0,0:0|0:0,0:0:0:0:
317,259,35187,1,8,0:0:0:0:
324,274,35494,5,8,0:0:0:0:
226,72,35648,1,2,0:0:0:0:
155,235,35802,1,8,0:0:0:0:
103,116,35956,1,0,0:0:0:0:
266,186,36110,5,8,0:0:0:0:
229,39,36263,1,0,0:0:0:0:
93,108,36417,1,8,0:0:0:0:
86,95,36725,6,0,L|66:177,1,80,8|2,0:0|0:0,0:0:0:0:
44,275,36956,1,2,0:0:0:0:
44,275,37033,2,0,L|130:247,1,80,8|0,0:0|0:0,0:0:0:0:
337,114,37340,6,0,L|280:123,1,40,12|0,0:0|0:0,0:0:0:0:
183,324,37494,2,0,L|243:307,1,40
263,218,37648,1,8,0:0:0:0:
247,210,37956,5,8,0:0:0:0:
433,201,38110,1,2,0:0:0:0:
352,268,38263,1,8,0:0:0:0:
412,87,38417,1,0,0:0:0:0:
412,87,38494,1,0,0:0:0:0:
412,87,38571,5,8,0:0:0:0:
207,214,38725,2,0,L|278:206,1,40,2|2,0:0|0:0,0:0:0:0:
412,87,38879,2,0,L|310:71,1,80,12|4,0:0|3:0,0:0:0:0:
225,118,39110,1,0,0:0:0:0:
225,118,39187,2,0,L|218:73,1,40,2|0,0:0|0:0,0:0:0:0:
78,183,39340,2,0,L|121:201,1,40,8|8,0:0|0:0,0:0:0:0:
98,26,39494,1,8,0:0:0:0:
98,26,39571,1,0,0:0:0:0:
98,26,39648,2,0,L|61:56,1,40,2|2,0:0|0:0,0:0:0:0:
36,249,39802,6,0,P|103:201|225:221,1,200,6|8,0:0|0:0,0:0:0:0:
382,83,40263,1,0,0:0:0:0:
339,353,40417,2,0,P|324:308|321:253,1,100,2|2,0:0|0:0,0:0:0:0:
493,125,40725,1,8,0:0:0:0:
320,255,40879,1,0,0:0:0:0:
482,298,41033,6,0,P|462:249|416:205,1,100,2|0,0:0|0:0,0:0:0:0:
261,119,41340,1,8,0:0:0:0:
215,308,41494,1,0,0:0:0:0:
215,308,41571,1,0,0:0:0:0:
215,308,41648,1,2,0:0:0:0:
348,168,41802,1,2,0:0:0:0:
178,77,41956,1,8,0:0:0:0:
66,325,42110,6,0,L|219:307,1,150
229,304,42417,2,0,P|255:258|267:199,1,100,0|8,0:0|0:0,0:0:0:0:
55,223,42725,1,0,0:0:0:0:
178,77,42879,2,0,L|156:183,1,100,2|2,0:0|0:0,0:0:0:0:
16,56,43187,1,8,0:0:0:0:
178,77,43340,1,0,0:0:0:0:
178,77,43417,1,0,0:0:0:0:
178,77,43494,5,2,0:0:0:0:
67,198,43648,1,0,0:0:0:0:
198,50,43802,1,8,0:0:0:0:
301,220,43956,2,0,L|183:205,1,100,0|2,0:0|0:0,0:0:0:0:
285,41,44263,2,0,L|300:206,1,150,2|0,0:0|0:0,0:0:0:0:
507,103,44571,6,0,P|472:43|367:81,1,200,6|2,0:0|0:0,0:0:0:0:
465,287,45033,2,0,L|494:182,1,100,8|0,0:0|0:0,0:0:0:0:
276,287,45340,1,2,0:0:0:0:
269,100,45494,2,0,L|377:78,1,100,0|8,0:0|0:0,0:0:0:0:
186,234,45802,1,2,0:0:0:0:
134,43,45956,5,0,0:0:0:0:
303,178,46110,1,2,0:0:0:0:
106,171,46263,1,8,0:0:0:0:
209,7,46417,1,0,0:0:0:0:
43,95,46571,1,2,0:0:0:0:
197,150,46725,1,0,0:0:0:0:
5,270,46879,1,8,0:0:0:0:
158,328,47033,6,0,P|220:288|302:290,1,150,0|0,0:0|0:0,0:0:0:0:
317,296,47340,2,0,P|369:317|419:310,1,100,0|8,0:0|0:0,0:0:0:0:
505,190,47648,1,0,0:0:0:0:
352,103,47802,2,0,L|333:215,1,100,2|0,0:0|0:0,0:0:0:0:
494,18,48110,1,8,0:0:0:0:
352,103,48263,6,0,P|282:44|167:69,1,200,0|2,0:0|0:0,0:0:0:0:
335,201,48725,1,8,0:0:0:0:
135,267,48879,1,8,0:0:0:0:
135,267,48956,1,8,0:0:0:0:
135,267,49033,1,8,0:0:0:0:
180,58,49187,1,2,0:0:0:0:
229,293,49340,1,4,3:0:0:0:
7,234,49494,1,2,0:0:0:0:
180,58,49648,6,0,L|172:104,1,40,6|0,0:0|0:0,0:0:0:0:
135,267,49802,1,2,0:0:0:0:
135,267,50110,2,0,B|131:227|131:227|154:199|154:199|143:160|143:160|175:105,1,160,8|0,0:0|0:0,0:0:0:0:
354,64,50571,5,2,0:0:0:0:
282,159,50725,1,2,0:0:0:0:
282,159,51033,2,0,P|351:142|349:59,1,160,8|0,0:0|0:0,0:0:0:0:
164,123,51494,1,2,0:0:0:0:
164,123,51571,1,2,0:0:0:0:
164,123,51648,1,2,0:0:0:0:
164,123,51725,1,2,0:0:0:0:
164,123,51802,2,0,L|172:220,1,80,8|0,0:0|0:0,0:0:0:0:
245,372,52110,5,6,0:0:0:0:
305,240,52263,1,2,0:0:0:0:
305,240,52571,2,0,B|349:237|349:237|376:260|376:260|410:250|410:250|467:280,1,160,8|0,0:0|0:0,0:0:0:0:
400,118,53033,5,2,0:0:0:0:
259,171,53187,2,0,P|220:229|256:307,1,160,2|8,0:0|0:0,0:0:0:0:
346,361,53648,6,0,P|384:345|434:337,1,80,8|2,0:0|0:0,0:0:0:0:
421,337,53879,1,8,0:0:0:0:
421,337,53956,1,8,0:0:0:0:
305,240,54110,1,2,0:0:0:0:
476,153,54263,1,2,0:0:0:0:
399,244,54417,1,2,0:0:0:0:
309,124,54571,6,0,B|291:197|291:197|309:253,1,119.999996337891,6|0,0:0|0:0,0:0:0:0:
424,140,55187,2,0,B|486:81|486:81|339:52,1,209.999993591309
363,56,55802,6,0,P|326:133|365:228,1,179.999994506836
369,235,56417,2,0,P|336:247|355:218,1,89.9999972534181
428,242,56725,6,0,P|383:236|345:206,1,80,8|2,0:0|0:0,0:0:0:0:
254,283,56956,1,2,0:0:0:0:
254,283,57033,6,0,P|210:303|151:300,1,100,12|0,0:0|0:0,0:0:0:0:
77,141,57340,1,8,0:0:0:0:
11,360,57494,1,8,0:0:0:0:
225,193,57648,1,8,0:0:0:0:
274,187,57725,1,0,0:0:0:0:
319,207,57802,1,8,0:0:0:0:
345,249,57879,1,2,0:0:0:0:
344,299,57956,2,0,L|322:353,1,50,8|0,0:0|0:0,0:0:0:0:
159,302,58110,6,0,P|127:266|231:198,1,209.999993591309,8|0,0:0|0:0,0:0:0:0:
223,192,58725,2,0,L|276:183,1,29.9999990844727,0|0,3:0|0:0,0:0:0:0:
360,166,58879,1,0,3:0:0:0:
277,25,59033,6,0,L|264:112,1,75,2|0,0:3|0:0,0:0:0:0:
266,115,59340,6,0,B|385:75|385:75|358:176,1,220.000006713867,6|2,0:0|0:0,0:0:0:0:
432,336,59802,2,0,L|459:208,1,110.000003356934,8|0,0:0|0:0,0:0:0:0:
293,277,60110,1,2,0:0:0:0:
471,133,60263,1,0,0:0:0:0:
471,133,60340,1,0,0:0:0:0:
471,133,60417,1,8,0:0:0:0:
293,277,60571,6,0,P|197:266|201:152,1,220.000006713867,2|2,0:0|0:0,0:0:0:0:
25,358,61033,2,0,P|75:332|135:322,1,110.000003356934,8|0,0:0|0:0,0:0:0:0:
256,208,61340,1,2,0:0:0:0:
57,102,61494,1,0,0:0:0:0:
277,26,61648,2,0,L|269:88,1,55.0000016784668,8|0,0:0|0:0,0:0:0:0:
256,208,61802,6,0,B|188:188|188:188|108:210|108:210|19:183,1,220.000006713867,6|2,0:0|0:0,0:0:0:0:
285,371,62263,2,0,P|324:321|337:264,1,110.000003356934,8|0,0:0|0:0,0:0:0:0:
512,189,62571,1,2,0:0:0:0:
269,80,62725,1,2,0:0:0:0:
269,80,62802,1,0,0:0:0:0:
269,80,62879,1,8,0:0:0:0:
336,276,63033,1,2,0:0:0:0:
397,20,63187,5,0,0:0:0:0:
188,148,63340,1,2,0:0:0:0:
446,106,63494,1,8,0:0:0:0:
336,276,63648,1,0,0:0:0:0:
251,37,63802,1,2,0:0:0:0:
211,229,63956,2,0,L|296:216,1,55.0000016784668,8|8,0:0|0:0,0:0:0:0:
424,277,64110,1,8,0:0:0:0:
256,13,64263,6,0,L|208:242,1,220.000006713867,6|2,0:0|0:0,0:0:0:0:
44,335,64725,1,8,0:0:0:0:
128,63,64879,1,0,0:0:0:0:
0,207,65033,2,0,P|53:202|114:175,1,110.000003356934,2|2,0:0|0:0,0:0:0:0:
324,43,65340,1,8,0:0:0:0:
199,14,65494,6,0,P|202:102|319:180,1,220.000006713867,0|0,0:0|0:0,0:0:0:0:
421,272,65956,2,0,L|443:152,1,110.000003356934,8|0,0:0|0:0,0:0:0:0:
324,43,66263,1,2,0:0:0:0:
288,253,66417,1,8,0:0:0:0:
512,125,66571,1,8,0:0:0:0:
288,253,66725,6,0,B|203:242|203:242|156:271|156:271|68:259,1,220.000006713867,6|2,0:0|0:0,0:0:0:0:
58,256,67110,1,0,0:0:0:0:
58,256,67187,1,8,0:0:0:0:
254,67,67340,1,2,0:0:0:0:
98,46,67494,6,0,L|89:110,1,55.0000016784668,8|0,0:0|0:0,0:0:0:0:
58,256,67648,1,2,0:0:0:0:
254,67,67802,6,0,L|254:146,1,55.0000016784668,8|0,0:0|0:0,0:0:0:0:
256,280,67956,1,2,0:0:0:0:
414,46,68110,6,0,L|423:110,1,55.0000016784668,8|0,0:0|0:0,0:0:0:0:
454,256,68264,1,2,0:0:0:0:
340,145,68417,5,8,0:0:0:0:
204,351,68571,1,2,0:0:0:0:
81,177,68725,2,0,P|134:174|203:202,1,110.000003356934,8|8,0:0|0:0,0:0:0:0:
246,268,68956,1,8,0:0:0:0:
256,280,69033,2,0,P|290:273|321:254,1,55.0000016784668,8|0,0:0|0:0,0:0:0:0:
440,22,69187,6,0,P|351:77|352:193,1,220.000006713867,6|0,0:0|0:0,0:0:0:0:
481,341,69648,1,8,0:0:0:0:
450,139,69802,1,0,0:0:0:0:
450,139,69879,1,0,0:0:0:0:
450,139,69956,1,2,0:0:0:0:
326,314,70110,1,0,0:0:0:0:
224,157,70263,1,8,0:0:0:0:
147,278,70417,6,0,L|385:249,1,220.000006713867,2|2,0:0|0:0,0:0:0:0:
129,98,70879,1,8,0:0:0:0:
28,300,71033,1,0,0:0:0:0:
28,300,71110,1,0,0:0:0:0:
28,300,71187,2,0,L|0:188,1,110.000003356934,2|2,0:0|0:0,0:0:0:0:
225,39,71494,1,8,0:0:0:0:
295,187,71648,6,0,P|211:194|128:82,1,220.000006713867,6|2,0:0|0:0,0:0:0:0:
342,5,72110,2,0,B|321:74|321:74|343:148|343:148|318:232,1,220.000006713867,8|2,0:0|0:0,0:0:0:0:
451,76,72571,1,0,0:0:0:0:
215,145,72725,1,8,0:0:0:0:
399,350,72879,1,2,0:0:0:0:
399,350,72956,1,0,0:0:0:0:
399,350,73033,6,0,L|424:228,1,110.000003356934,0|2,0:0|0:0,0:0:0:0:
234,142,73340,2,0,L|-1:164,1,220.000006713867,8|8,0:0|0:0,0:0:0:0:
298,16,73802,2,0,L|303:82,1,55.0000016784668,8|8,0:0|0:0,0:0:0:0:
225,294,73956,1,8,0:0:0:0:
14,162,74110,6,0,P|53:120|203:149,1,220.000006713867,6|2,0:0|0:0,0:0:0:0:
298,16,74571,1,8,0:0:0:0:
112,209,74725,1,0,0:0:0:0:
27,27,74879,1,2,0:0:0:0:
199,144,75033,1,0,0:0:0:0:
15,248,75187,1,8,0:0:0:0:
157,360,75340,6,0,P|180:257|198:144,1,220.000006713867,2|2,0:0|0:0,0:0:0:0:
304,270,75802,1,8,0:0:0:0:
304,270,75956,1,0,0:0:0:0:
457,73,76110,2,0,P|431:124|414:181,1,110.000003356934,2|2,0:0|0:0,0:0:0:0:
491,292,76417,1,8,0:0:0:0:
416,175,76571,1,2,0:0:0:0:
304,270,76725,6,0,L|375:277,1,55.0000016784668,12|8,0:0|0:0,0:0:0:0:
244,188,76879,1,8,0:0:0:0:
244,188,76956,1,8,0:0:0:0:
244,188,77033,2,0,L|194:227,1,55.0000016784668,8|8,0:0|0:0,0:0:0:0:
127,300,77187,2,0,L|98:248,1,55.0000016784668,4|4,3:0|3:0,0:0:0:0:
150,108,77340,1,4,3:0:0:0:
150,108,77417,1,4,3:0:0:0:
150,108,77494,2,0,L|226:95,1,55.0000016784668,4|4,3:0|3:0,0:0:0:0:
334,28,77648,5,2,0:0:0:0:
330,60,77725,1,2,0:0:0:0:
327,92,77802,1,2,0:0:0:0:
323,124,77879,1,2,0:0:0:0:
320,156,77956,1,2,0:0:0:0:
320,156,78571,6,0,L|377:146,3,55.0000016784668
496,71,78879,2,0,P|490:102|486:139,1,55.0000016784668,8|8,0:0|0:0,0:0:0:0:
393,244,79033,6,0,L|369:123,1,100,6|0,0:0|0:0,0:0:0:0:
256,65,79340,1,2,0:0:0:0:
134,224,79494,2,0,L|252:203,1,100,8|0,0:0|0:0,0:0:0:0:
85,36,79802,1,2,0:0:0:0:
233,207,79956,1,2,0:0:0:0:
256,65,80110,1,8,0:0:0:0:
49,291,80263,1,0,0:0:0:0:
49,291,80340,1,0,0:0:0:0:
49,291,80417,6,0,P|33:241|36:173,1,100,2|0,0:0|0:0,0:0:0:0:
176,23,80725,1,8,0:0:0:0:
135,226,80879,1,0,0:0:0:0:
0,89,81033,2,0,L|114:108,1,100,2|2,0:0|0:0,0:0:0:0:
233,207,81340,2,0,L|176:218,1,50,8|0,0:0|0:0,0:0:0:0:
298,94,81494,6,0,B|337:185|337:185|328:294,1,200,6|2,0:0|0:0,0:0:0:0:
445,91,81956,1,8,0:0:0:0:
510,261,82110,1,0,0:0:0:0:
510,261,82187,1,0,0:0:0:0:
510,261,82263,2,0,P|461:253|405:248,1,100,2|2,0:0|0:0,0:0:0:0:
197,351,82571,1,8,0:0:0:0:
328,285,82725,1,0,0:0:0:0:
328,285,82802,1,0,0:0:0:0:
328,285,82879,5,2,0:0:0:0:
157,186,83033,1,0,0:0:0:0:
77,377,83187,1,8,0:0:0:0:
32,103,83340,2,0,L|46:173,1,50,0|0,0:0|0:0,0:0:0:0:
157,186,83494,2,0,L|277:171,1,100,2|8,0:0|0:0,0:0:0:0:
328,285,83725,1,8,0:0:0:0:
314,297,83802,2,0,P|289:296|257:287,1,50,8|0,0:0|0:0,0:0:0:0:
342,132,83956,6,0,P|398:115|458:231,1,200,6|2,0:0|0:0,0:0:0:0:
325,344,84417,2,0,L|300:239,1,100,8|0,0:0|0:0,0:0:0:0:
479,64,84725,1,2,0:0:0:0:
464,217,84879,1,0,0:0:0:0:
242,122,85033,2,0,L|348:132,1,100,8|0,0:0|0:0,0:0:0:0:
194,255,85340,5,2,0:0:0:0:
146,60,85494,1,0,0:0:0:0:
5,194,85648,2,0,L|113:174,1,100,8|0,0:0|0:0,0:0:0:0:
244,22,85956,1,2,0:0:0:0:
44,98,86110,1,0,0:0:0:0:
194,255,86263,2,0,L|207:187,1,50,8|0,0:0|0:0,0:0:0:0:
104,280,86417,6,0,P|125:325|259:325,1,200,6|2,0:0|0:0,0:0:0:0:
275,301,86802,1,2,0:0:0:0:
275,301,86879,1,8,0:0:0:0:
216,125,87033,1,2,0:0:0:0:
361,77,87187,1,8,0:0:0:0:
240,213,87340,1,2,0:0:0:0:
413,247,87494,1,12,0:0:0:0:
284,39,87648,2,0,L|250:102,1,50,2|0,0:0|0:0,0:0:0:0:
413,247,87802,6,0,P|449:209|462:146,1,100,8|2,0:0|0:0,0:0:0:0:
361,77,88033,1,8,0:0:0:0:
361,77,88110,2,0,L|236:85,1,100,8|2,0:0|0:0,0:0:0:0:
166,154,88340,1,2,0:0:0:0:
166,154,88417,2,0,L|64:137,1,100,8|2,0:0|0:0,0:0:0:0:
32,37,88648,1,2,0:0:0:0:
50,29,88725,2,0,L|115:37,1,50,8|8,0:0|0:0,0:0:0:0:
124,243,88879,6,0,P|37:220|111:136,1,200,6|2,0:0|0:0,0:0:0:0:
250,259,89340,1,8,0:0:0:0:
365,71,89494,1,0,0:0:0:0:
365,71,89571,1,0,0:0:0:0:
365,71,89648,1,2,0:0:0:0:
249,40,89802,1,2,0:0:0:0:
364,210,89956,1,8,0:0:0:0:
450,78,90110,2,0,L|390:89,1,50,0|0,0:0|0:0,0:0:0:0:
266,188,90263,6,0,L|390:215,1,100,2|0,0:0|0:0,0:0:0:0:
468,343,90571,1,8,0:0:0:0:
488,175,90725,1,0,0:0:0:0:
353,322,90879,1,2,0:0:0:0:
266,188,91033,1,2,0:0:0:0:
266,188,91110,1,0,0:0:0:0:
266,188,91187,1,8,0:0:0:0:
135,360,91340,6,0,L|247:341,1,100,6|0,0:0|0:0,0:0:0:0:
365,214,91648,1,2,0:0:0:0:
173,120,91802,2,0,P|164:167|153:240,1,100,8|0,0:0|0:0,0:0:0:0:
306,89,92110,1,2,0:0:0:0:
173,120,92263,2,0,B|71:145|71:145|6:121,1,150,2|0,0:0|0:0,0:0:0:0:
87,6,92571,2,0,L|99:69,1,50,0|0,0:0|0:0,0:0:0:0:
173,120,92725,6,0,L|296:92,1,100,2|0,0:0|0:0,0:0:0:0:
423,209,93033,1,8,0:0:0:0:
492,52,93187,1,0,0:0:0:0:
314,210,93340,1,2,0:0:0:0:
497,294,93494,1,8,0:0:0:0:
497,294,93571,1,8,0:0:0:0:
497,294,93648,1,8,0:0:0:0:
403,130,93802,6,0,P|345:162|314:296,1,200,6|2,0:0|0:0,0:0:0:0:
192,186,94263,1,8,0:0:0:0:
250,336,94417,1,0,0:0:0:0:
85,301,94571,6,0,L|187:272,1,100,2|0,0:0|0:0,0:0:0:0:
270,131,94879,1,8,0:0:0:0:
120,122,95033,1,0,0:0:0:0:
244,37,95187,6,0,P|267:83|268:141,1,100,2|0,0:0|0:0,0:0:0:0:
182,276,95494,1,8,0:0:0:0:
120,122,95648,1,0,0:0:0:0:
270,131,95802,2,0,L|377:140,1,100
430,56,96110,1,8,0:0:0:0:
306,221,96263,1,2,0:0:0:0:
224,38,96417,5,12,0:0:0:0:
224,38,96494,1,8,0:0:0:0:
224,38,96571,2,0,L|212:98,1,50,2|2,0:0|0:0,0:0:0:0:
96,227,96725,2,0,L|88:173,1,50,2|2,0:0|0:0,0:0:0:0:
193,193,96879,5,12,0:0:0:0:
193,193,96956,1,8,0:0:0:0:
193,193,97033,2,0,L|252:205,1,50,2|2,0:0|0:0,0:0:0:0:
103,76,97187,2,0,L|49:69,1,50,2|2,0:0|0:0,0:0:0:0:
14,241,97340,2,0,L|63:234,1,50,8|8,0:0|0:0,0:0:0:0:
287,105,97494,6,0,P|340:153|236:102,1,509.999984436036,6|0,0:0|0:0,0:0:0:0:
256,192,98879,5,6,0:0:0:0:
256,192,98956,12,0,103802,0:0:0:0:
