osu file format v14

[General]
AudioFilename: audio.mp3
AudioLeadIn: 0
PreviewTime: 58740
Countdown: 0
SampleSet: Soft
StackLeniency: 0.5
Mode: 0
LetterboxInBreaks: 0
WidescreenStoryboard: 0

[Editor]
Bookmarks: 263,10110,19956,28571,29956,39802,49648,58263,59340,67340,69187,77956,79033,88879,97494,103802
DistanceSpacing: 0.4
BeatDivisor: 4
GridSize: 32
TimelineZoom: 2.1

[Metadata]
Title:LOUDER
TitleUnicode:LOUDER
Artist:Roselia
ArtistUnicode:Roselia
Creator:scanter
Version:Yuria's Insane
Source:バンドリ!ガールズバンドパーティ!
Tags:Event Garupa Bandori BanG Dream! ガルパ! Girls Band Party! Minato Yukina 湊友希那 Hikawa Sayo 氷川紗夜 Imai Lisa 今井リサ Udagawa Ako 宇田川あこ Shirogane Rinko 白金燐子 ロゼリア Aiba Aina 相羽あいな Akesaka Satomi 明坂聡美 Endou Yurika 遠藤ゆりか Kudou Haruka 工藤晴香 Sakuragawa Megu 桜川めぐ eLy _Meep_ Meep Yuria Anais CLSW Crystal groundswim JarrenTanJR Ancelyze Rayon BLACK SHOUT Game Version
BeatmapID:1304099
BeatmapSetID:595580

[Difficulty]
HPDrainRate:6
CircleSize:3.8
OverallDifficulty:7.5
ApproachRate:9
SliderMultiplier:1.8
SliderTickRate:1

[Events]
//Background and Video events
0,0,"bg.jpg",0,0
//Break Periods
//Storyboard Layer 0 (Background)
//Storyboard Layer 1 (Fail)
//Storyboard Layer 2 (Pass)
//Storyboard Layer 3 (Foreground)
//Storyboard Sound Samples

[TimingPoints]
-813,307.692307692308,4,2,1,70,1,0
417,-166.666666666667,4,2,1,70,0,0
5340,-125,4,2,1,70,0,0
7802,-111.111111111111,4,2,1,40,0,0
8110,-111.111111111111,4,2,1,50,0,0
8417,-111.111111111111,4,2,1,60,0,0
8725,-111.111111111111,4,2,1,70,0,0
9033,-166.666666666667,4,2,1,30,0,0
10110,-100,4,2,1,90,0,1
10187,-100,4,2,1,90,0,0
28571,-166.666666666667,4,2,1,70,0,0
29340,-111.111111111111,4,2,1,70,0,0
29648,-83.3333333333333,4,2,1,70,0,0
29956,-111.111111111111,4,2,1,70,0,0
39802,-100,4,2,1,90,0,0
49648,-125,4,2,1,90,0,0
54571,-142.857142857143,4,2,1,90,0,0
57033,-100,4,2,1,90,0,0
58263,-166.666666666667,4,2,1,90,0,0
59033,-111.111111111111,4,2,1,90,0,0
59340,-100,4,2,1,100,0,1
69033,-100,4,2,1,100,0,0
69187,-100,4,2,1,100,0,1
79033,-100,4,2,1,90,0,0
97494,-166.666666666667,4,2,1,80,0,0
98879,-166.666666666667,4,2,1,60,0,0
99494,-166.666666666667,4,2,1,50,0,0
100110,-166.666666666667,4,2,1,42,0,0
100725,-166.666666666667,4,2,1,34,0,0
101340,-166.666666666667,4,2,1,26,0,0
101956,-166.666666666667,4,2,1,18,0,0
102571,-166.666666666667,4,2,1,14,0,0
103187,-166.666666666667,4,2,1,10,0,0
103802,-166.666666666667,4,2,1,5,0,0

[Colours]
Combo1 : 128,255,255
Combo2 : 255,128,128
Combo3 : 128,255,128
Combo4 : 255,128,192
Combo5 : 255,128,64

[HitObjects]
120,147,263,5,2,0:0:0:0:
120,147,340,1,2,0:0:0:0:
120,147,417,2,0,P|219:160|162:219,1,215.999993408203,12|0,0:0|0:0,0:0:0:0:
8,267,1340,2,0,P|40:271|81:278,1,53.9999983520508,0|0,3:0|0:0,0:0:0:0:
151,314,1648,6,0,P|209:308|269:306,1,107.999996704102,8|0,0:0|0:0,0:0:0:0:
344,352,2110,2,0,P|397:357|451:359,1,107.999996704102,8|0,0:3|0:0,0:0:0:0:
487,271,2571,2,0,P|460:268|433:267,1,53.9999983520508,2|0,0:0|0:0,0:0:0:0:
244,221,2879,6,0,B|283:214|315:224|341:255|341:255|350:215|371:186|423:174,1,215.999993408203,6|0,0:0|0:0,0:0:0:0:
266,316,3802,2,0,P|242:322|198:326,1,53.9999983520508,0|2,3:0|0:0,0:0:0:0:
176,331,4033,1,2,0:0:0:0:
176,331,4110,1,8,0:0:0:0:
81,237,4263,6,0,P|84:267|89:303,1,53.9999983520508,8|0,0:3|0:0,0:0:0:0:
185,177,4571,2,0,P|182:207|177:243,1,53.9999983520508,4|0,0:3|0:0,0:0:0:0:
43,146,4879,2,0,P|73:142|116:140,1,53.9999983520508,2|0,0:0|0:0,0:0:0:0:
271,142,5187,5,2,0:0:0:0:
271,142,5263,1,2,0:0:0:0:
271,142,5340,2,0,P|202:142|198:73,1,144,6|2,0:0|0:0,0:0:0:0:
327,51,5802,1,0,0:0:0:0:
428,144,5956,2,0,L|347:154,1,72,2|0,0:0|0:0,0:0:0:0:
507,22,6263,2,0,L|498:108,1,72,2|0,0:0|0:0,0:0:0:0:
402,228,6571,6,0,L|483:218,1,72,2|0,0:0|0:0,0:0:0:0:
288,208,6879,2,0,L|298:289,1,72,2|0,0:0|0:0,0:0:0:0:
365,81,7187,2,0,L|355:162,1,72,2|0,0:0|0:0,0:0:0:0:
158,133,7494,2,0,L|239:143,1,72,2|0,0:0|0:0,0:0:0:0:
63,24,7802,6,0,P|63:63|50:103,1,80.9999975280763,12|8,0:0|0:0,0:0:0:0:
6,192,8033,1,8,0:0:0:0:
6,192,8110,2,0,P|46:183|87:182,1,80.9999975280763,8|8,0:0|0:0,0:0:0:0:
167,225,8340,1,8,0:0:0:0:
167,225,8417,2,0,L|178:329,1,80.9999975280763,8|8,0:0|0:0,0:0:0:0:
263,330,8648,1,8,0:0:0:0:
263,330,8725,2,0,L|254:249,1,80.9999975280763,8|8,0:0|0:0,0:0:0:0:
231,163,8956,1,8,0:0:0:0:
231,163,9033,6,0,P|320:123|329:218,1,215.999993408203,2|0,0:0|0:0,0:0:0:0:
148,322,9956,1,0,0:0:0:0:
178,334,10033,1,0,0:0:0:0:
208,346,10110,6,0,L|397:333,1,180,6|2,0:0|0:0,0:0:0:0:
444,189,10571,2,0,P|399:186|346:179,1,90,8|0,0:0|0:0,0:0:0:0:
506,119,10879,1,2,0:0:0:0:
464,280,11033,1,2,0:0:0:0:
320,156,11187,2,0,L|331:245,1,90,8|0,0:0|0:0,0:0:0:0:
400,69,11494,5,2,0:0:0:0:
231,111,11648,1,0,0:0:0:0:
400,69,11802,2,0,P|356:60|312:56,1,90,8|0,0:0|0:0,0:0:0:0:
444,189,12110,1,2,0:0:0:0:
493,39,12263,1,2,0:0:0:0:
320,156,12417,1,8,0:0:0:0:
506,246,12571,6,0,B|452:268|452:268|310:243,1,180,6|2,0:0|0:0,0:0:0:0:
140,160,13033,2,0,P|179:152|233:150,1,90,8|0,0:0|0:0,0:0:0:0:
103,246,13340,1,2,0:0:0:0:
262,306,13494,1,2,0:0:0:0:
48,328,13648,2,0,L|137:338,1,90,8|0,0:0|0:0,0:0:0:0:
218,181,13956,5,2,0:0:0:0:
274,338,14110,1,0,0:0:0:0:
103,246,14263,2,0,P|94:202|89:158,1,90,8|0,0:0|0:0,0:0:0:0:
169,328,14571,1,2,0:0:0:0:
229,149,14725,1,2,0:0:0:0:
319,266,14879,1,8,0:0:0:0:
198,62,15033,6,0,B|187:118|187:118|201:178|201:178|190:238,1,180,6|2,0:0|0:0,0:0:0:0:
14,191,15494,2,0,L|106:183,1,90,8|0,0:0|0:0,0:0:0:0:
282,115,15802,1,2,0:0:0:0:
209,266,15956,1,0,0:0:0:0:
168,83,16110,1,8,0:0:0:0:
342,167,16263,1,0,0:0:0:0:
141,185,16417,6,0,P|96:182|49:177,1,90,2|0,0:0|0:0,0:0:0:0:
258,50,16725,2,0,L|250:142,1,90,8|0,0:0|0:0,0:0:0:0:
104,94,17033,1,2,0:0:0:0:
219,219,17187,1,2,0:0:0:0:
281,24,17340,1,8,0:0:0:0:
126,190,17494,6,0,L|312:175,1,180,6|2,0:0|0:0,0:0:0:0:
385,125,17879,1,2,0:0:0:0:
385,125,17956,2,0,P|381:170|392:214,1,90,8|2,0:0|0:0,0:0:0:0:
424,41,18263,1,8,0:0:0:0:
247,18,18417,1,2,0:0:0:0:
424,41,18571,2,0,L|334:49,1,90,12|0,0:0|0:0,0:0:0:0:
217,163,18879,5,2,0:0:0:0:
380,244,19033,1,8,0:0:0:0:
380,244,19110,1,8,0:0:0:0:
380,244,19187,2,0,L|375:186,1,45,10|0,0:0|0:0,0:0:0:0:
233,250,19340,1,8,0:0:0:0:
233,250,19417,1,8,0:0:0:0:
233,250,19494,2,0,L|236:295,1,45,10|0,0:0|0:0,0:0:0:0:
448,311,19648,5,8,0:0:0:0:
417,321,19725,1,8,0:0:0:0:
386,331,19802,1,8,0:0:0:0:
355,341,19879,1,8,0:0:0:0:
324,351,19956,6,0,L|137:343,1,180,6|2,0:0|0:0,0:0:0:0:
25,234,20417,2,0,P|72:230|123:223,1,90,8|0,0:0|0:0,0:0:0:0:
57,101,20725,1,2,0:0:0:0:
196,188,20879,1,0,0:0:0:0:
156,24,21033,2,0,L|145:119,1,90,8|0,0:0|0:0,0:0:0:0:
273,232,21340,5,2,0:0:0:0:
236,79,21494,1,0,0:0:0:0:
403,133,21648,2,0,P|356:129|305:122,1,90,8|0,0:0|0:0,0:0:0:0:
481,92,21956,1,2,0:0:0:0:
444,245,22110,1,2,0:0:0:0:
367,42,22263,1,8,0:0:0:0:
511,181,22417,6,0,B|423:161|423:161|352:225,1,180,6|2,0:0|0:0,0:0:0:0:
294,363,22879,2,0,P|339:372|383:379,1,90,8|0,0:0|0:0,0:0:0:0:
272,248,23187,1,2,0:0:0:0:
177,378,23340,1,0,0:0:0:0:
106,223,23494,2,0,P|150:213|194:206,1,90,8|0,0:0|0:0,0:0:0:0:
348,293,23802,5,2,0:0:0:0:
296,131,23956,1,0,0:0:0:0:
439,259,24110,2,0,L|426:366,1,90,8|0,0:0|0:0,0:0:0:0:
312,273,24417,1,2,0:0:0:0:
460,124,24571,1,8,0:0:0:0:
460,124,24648,1,8,0:0:0:0:
460,124,24725,1,8,0:0:0:0:
245,90,24879,6,0,P|282:158|394:154,1,180,6|2,0:0|0:0,0:0:0:0:
167,31,25340,2,0,P|159:75|153:119,1,90,8|0,0:0|0:0,0:0:0:0:
301,9,25648,5,2,0:0:0:0:
251,134,25802,2,0,P|257:178|264:223,1,90,0|8,0:0|0:0,0:0:0:0:
379,94,26110,5,0,0:0:0:0:
452,241,26263,2,0,P|407:238|362:232,1,90,2|0,0:0|0:0,0:0:0:0:
509,157,26571,5,8,0:0:0:0:
399,323,26725,2,0,P|354:329|309:332,1,90,0|2,0:0|0:0,0:0:0:0:
156,211,27033,5,2,0:0:0:0:
207,376,27187,2,0,P|215:327|220:282,1,90,8|2,0:0|0:0,0:0:0:0:
33,165,27494,5,12,0:0:0:0:
253,123,27648,1,2,0:0:0:0:
253,123,27725,1,2,0:0:0:0:
253,123,27802,1,2,0:0:0:0:
41,33,27956,5,12,0:0:0:0:
156,211,28110,1,2,0:0:0:0:
156,211,28187,1,2,0:0:0:0:
156,211,28263,1,2,0:0:0:0:
196,5,28417,1,8,0:0:0:0:
12,202,28571,6,0,B|46:164|59:124|60:65|60:65|95:93|129:95,1,215.999993408203,4|0,0:0|0:0,0:0:0:0:
195,132,29340,6,0,P|235:128|275:124,1,80.9999975280763,0|2,0:0|0:0,0:0:0:0:
335,64,29571,1,2,0:0:0:0:
335,64,29648,6,0,P|376:46|366:126,1,161.999995056153,8|0,0:0|0:0,0:0:0:0:
325,199,29956,6,0,P|365:203|405:206,1,80.9999975280763,6|2,0:0|0:0,0:0:0:0:
498,109,30263,1,8,0:0:0:0:
498,109,30571,1,8,0:0:0:0:
452,277,30725,1,2,0:0:0:0:
373,125,30879,1,8,0:0:0:0:
508,202,31033,1,2,0:0:0:0:
333,244,31187,6,0,L|342:324,1,80.9999975280763,8|0,0:0|0:0,0:0:0:0:
373,125,31494,1,8,0:0:0:0:
242,189,31648,2,0,L|231:269,1,80.9999975280763,0|8,0:0|0:0,0:0:0:0:
206,69,31956,1,2,0:0:0:0:
332,209,32110,1,8,0:0:0:0:
382,44,32263,1,2,0:0:0:0:
255,152,32417,6,0,P|214:158|150:162,1,80.9999975280763,8|0,0:0|0:0,0:0:0:0:
80,61,32725,1,8,0:0:0:0:
80,61,33033,1,8,0:0:0:0:
113,218,33187,1,2,0:0:0:0:
206,69,33340,1,8,0:0:0:0:
42,151,33494,1,2,0:0:0:0:
256,227,33648,6,0,P|261:188|266:132,1,80.9999975280763,8|0,0:0|0:0,0:0:0:0:
110,82,33956,1,8,0:0:0:0:
190,280,34110,1,2,0:0:0:0:
190,280,34187,1,2,0:0:0:0:
190,280,34263,1,8,0:0:0:0:
239,63,34417,1,2,0:0:0:0:
75,163,34571,2,0,P|78:203|83:243,1,80.9999975280763,8|2,0:0|0:0,0:0:0:0:
222,367,34879,6,0,P|182:363|141:357,1,80.9999975280763,12|0,0:0|0:0,0:0:0:0:
288,264,35187,1,8,0:0:0:0:
288,264,35494,1,8,0:0:0:0:
110,280,35648,1,2,0:0:0:0:
239,184,35802,1,8,0:0:0:0:
254,352,35956,1,2,0:0:0:0:
83,243,36110,6,0,P|78:203|75:163,1,80.9999975280763,8|0,0:0|0:0,0:0:0:0:
194,290,36417,1,8,0:0:0:0:
194,290,36725,1,8,0:0:0:0:
356,219,36879,1,2,0:0:0:0:
254,352,37033,1,8,0:0:0:0:
203,161,37187,6,0,P|244:165|301:176,1,80.9999975280763,2|12,0:0|0:0,0:0:0:0:
408,296,37494,2,0,P|368:302|327:306,1,80.9999975280763,0|8,0:0|0:0,0:0:0:0:
447,119,37802,2,0,L|440:205,1,80.9999975280763,0|8,0:0|0:0,0:0:0:0:
328,97,38110,1,2,0:0:0:0:
464,229,38263,1,8,0:0:0:0:
504,53,38417,1,2,0:0:0:0:
356,219,38571,5,12,0:0:0:0:
504,326,38725,1,2,0:0:0:0:
504,326,38802,1,2,0:0:0:0:
504,326,38879,2,0,L|421:317,1,80.9999975280763,8|0,0:0|0:0,0:0:0:0:
312,364,39187,1,2,0:0:0:0:
464,229,39340,1,8,0:0:0:0:
464,229,39417,1,8,0:0:0:0:
464,229,39494,1,8,0:0:0:0:
241,204,39648,1,8,0:0:0:0:
241,204,39725,1,8,0:0:0:0:
241,204,39802,6,0,P|302:150|405:173,1,180,6|8,0:0|0:0,0:0:0:0:
335,252,40263,1,0,0:0:0:0:
185,332,40417,2,0,L|274:338,1,90,2|0,0:0|0:0,0:0:0:0:
117,224,40725,1,8,0:0:0:0:
61,364,40879,1,0,0:0:0:0:
12,190,41033,6,0,P|15:234|21:279,1,90,2|0,0:0|0:0,0:0:0:0:
179,138,41340,1,8,0:0:0:0:
38,63,41494,1,0,0:0:0:0:
117,224,41648,1,2,0:0:0:0:
171,16,41802,2,0,P|168:60|161:105,1,90,0|8,0:0|0:0,0:0:0:0:
37,164,42110,1,0,0:0:0:0:
268,258,42263,6,0,L|88:245,1,180,2|8,0:0|0:0,0:0:0:0:
314,163,42725,1,0,0:0:0:0:
137,112,42879,2,0,L|227:105,1,90,2|0,0:0|0:0,0:0:0:0:
340,186,43187,1,8,0:0:0:0:
286,20,43340,1,0,0:0:0:0:
429,148,43494,6,0,L|422:238,1,90,2|0,0:0|0:0,0:0:0:0:
503,85,43802,1,8,0:0:0:0:
340,186,43956,1,0,0:0:0:0:
473,322,44110,2,0,L|373:326,1,90,2|0,0:0|0:0,0:0:0:0:
512,200,44417,1,8,0:0:0:0:
267,122,44571,6,0,P|244:176|309:278,1,180,6|0,0:0|0:0,0:0:0:0:
410,117,45033,2,0,L|403:27,1,90,8|0,0:0|0:0,0:0:0:0:
340,186,45340,1,2,0:0:0:0:
493,65,45494,1,0,0:0:0:0:
318,39,45648,2,0,P|276:34|228:32,1,90,8|0,0:0|0:0,0:0:0:0:
118,183,45956,5,2,0:0:0:0:
267,122,46110,1,0,0:0:0:0:
144,14,46263,2,0,L|153:113,1,90,8|0,0:0|0:0,0:0:0:0:
292,218,46571,1,2,0:0:0:0:
118,183,46725,1,0,0:0:0:0:
228,32,46879,1,8,0:0:0:0:
24,144,47033,6,0,L|209:129,1,180,4|0,0:0|0:0,0:0:0:0:
62,270,47494,1,8,0:0:0:0:
253,283,47648,2,0,L|160:275,1,90,0|2,0:0|0:0,0:0:0:0:
306,195,47956,1,0,0:0:0:0:
334,343,48110,1,8,0:0:0:0:
448,235,48263,1,0,0:0:0:0:
334,343,48417,6,0,P|383:351|431:354,1,90,2|2,0:0|0:0,0:0:0:0:
388,176,48725,1,8,0:0:0:0:
230,275,48879,1,8,0:0:0:0:
230,275,48956,1,8,0:0:0:0:
230,275,49033,2,0,L|238:374,1,90,8|8,0:0|0:3,0:0:0:0:
148,214,49340,1,4,0:3:0:0:
323,248,49494,1,2,0:0:0:0:
253,102,49648,5,6,0:0:0:0:
253,102,49802,2,0,L|247:173,1,72,2|0,0:0|0:0,0:0:0:0:
44,67,50110,2,0,B|116:77|116:77|196:44,1,144,8|0,0:0|0:0,0:0:0:0:
335,21,50571,5,2,0:0:0:0:
335,21,50725,2,0,L|251:13,1,72,2|0,0:0|0:0,0:0:0:0:
410,200,51033,2,0,B|396:134|396:134|416:54,1,144,8|0,0:0|0:0,0:0:0:0:
306,136,51494,6,0,L|308:174,1,36,2|2,0:0|0:0,0:0:0:0:
281,124,51648,2,0,L|283:162,1,36,2|2,0:0|0:0,0:0:0:0:
256,112,51802,2,0,L|262:226,1,108,8|0,0:0|0:0,0:0:0:0:
307,300,52110,5,6,0:0:0:0:
307,300,52263,2,0,L|230:304,1,72,2|0,0:0|0:0,0:0:0:0:
35,236,52571,2,0,B|108:223|108:223|191:243,1,144,8|0,0:0|0:0,0:0:0:0:
100,380,53033,5,2,0:0:0:0:
100,380,53187,2,0,L|104:288,1,72,2|0,0:0|0:0,0:0:0:0:
145,146,53494,2,0,P|109:146|73:142,1,72,2|8,0:0|0:0,0:0:0:0:
238,30,53802,5,8,0:0:0:0:
238,30,53879,1,8,0:0:0:0:
238,30,53956,2,0,L|232:115,1,72,8|8,0:0|0:3,0:0:0:0:
223,219,54263,1,4,0:3:0:0:
314,157,54417,1,2,0:0:0:0:
369,249,54571,6,0,P|306:250|244:238,1,125.999996154785,6|0,0:0|0:0,0:0:0:0:
459,194,55187,2,0,P|460:256|448:318,1,125.999996154785,0|0,0:0|0:0,0:0:0:0:
387,111,55802,6,0,L|512:98,1,125.999996154785,0|0,0:0|0:0,0:0:0:0:
290,154,56417,2,0,L|283:91,1,62.9999980773926,0|0,0:0|0:0,0:0:0:0:
351,208,56725,1,8,0:0:0:0:
326,226,56801,1,2,0:0:0:0:
295,234,56879,1,2,0:0:0:0:
264,230,56955,1,2,0:0:0:0:
237,214,57033,6,0,B|193:208|193:208|150:219|150:219|105:214,1,135,12|0,0:0|0:0,0:0:0:0:
69,205,57340,1,8,0:0:0:0:
255,315,57494,1,8,0:0:0:0:
162,120,57648,1,8,0:0:0:0:
130,315,57802,1,8,0:0:0:0:
290,154,57956,1,8,0:0:0:0:
69,205,58110,1,8,0:0:0:0:
331,248,58263,6,0,B|296:229|283:185|283:185|250:223|201:219,1,161.999995056153,2|0,0:0|0:0,0:0:0:0:
384,157,58879,5,0,0:0:0:0:
232,30,59033,2,0,P|233:71|239:112,1,80.9999975280763
476,128,59340,6,0,P|425:69|319:84,1,180,6|2,0:0|0:0,0:0:0:0:
259,239,59802,2,0,P|305:246|356:247,1,90,8|0,0:0|0:0,0:0:0:0:
178,186,60110,1,2,0:0:0:0:
296,329,60263,1,2,0:0:0:0:
384,157,60417,1,8,0:0:0:0:
209,373,60571,6,0,P|299:370|388:356,1,180,0|0,0:0|0:0,0:0:0:0:
152,211,61033,2,0,L|143:314,1,90,8|0,0:0|0:0,0:0:0:0:
224,145,61340,1,2,0:0:0:0:
62,174,61494,1,2,0:0:0:0:
168,9,61648,1,8,0:0:0:0:
9,115,61802,6,0,B|69:144|69:144|181:130,1,180,6|2,0:0|0:0,0:0:0:0:
341,68,62263,2,0,L|251:61,1,90,8|0,0:0|0:0,0:0:0:0:
387,155,62571,1,2,0:0:0:0:
221,219,62725,1,2,0:0:0:0:
345,334,62879,1,8,0:0:0:0:
290,151,63033,1,0,0:0:0:0:
345,334,63187,6,0,L|255:327,1,90,2|0,0:0|0:0,0:0:0:0:
413,183,63494,2,0,L|507:176,1,90,8|0,0:0|0:0,0:0:0:0:
306,244,63802,1,2,0:0:0:0:
451,93,63956,1,8,0:0:0:0:
451,93,64033,1,8,0:0:0:0:
451,93,64110,1,8,0:0:0:0:
223,8,64263,6,0,L|238:209,1,180,6|2,0:0|0:0,0:0:0:0:
384,295,64725,2,0,L|390:205,1,90,8|0,0:0|0:0,0:0:0:0:
250,327,65033,1,2,0:0:0:0:
319,147,65187,1,0,0:0:0:0:
468,256,65340,1,8,0:0:0:0:
254,225,65494,6,0,B|200:216|200:216|137:239|137:239|71:229,1,180,0|0,0:0|0:0,0:0:0:0:
192,133,65956,1,8,0:0:0:0:
139,323,66110,1,0,0:0:0:0:
54,200,66263,1,2,0:0:0:0:
139,323,66417,2,0,P|181:327|232:330,1,90,2|8,0:0|0:0,0:0:0:0:
374,150,66725,6,0,P|312:224|333:297,1,180,6|2,0:0|0:0,0:0:0:0:
390,371,67110,1,2,0:0:0:0:
390,371,67187,2,0,P|348:375|297:378,1,90,8|2,0:0|0:0,0:0:0:0:
404,238,67494,5,8,0:0:0:0:
177,195,67648,1,2,0:0:0:0:
374,150,67802,1,8,0:0:0:0:
207,283,67956,1,2,0:0:0:0:
291,98,68110,6,0,P|288:141|282:201,1,90,8|2,0:0|0:0,0:0:0:0:
122,49,68417,2,0,P|165:44|212:42,1,90,8|0,0:0|0:0,0:0:0:0:
169,159,68725,1,2,0:0:0:0:
293,10,68879,1,8,0:0:0:0:
293,10,68956,1,8,0:0:0:0:
293,10,69033,1,8,0:0:0:0:
77,190,69187,6,0,L|274:203,1,180,6|2,0:0|0:0,0:0:0:0:
418,130,69648,2,0,L|328:135,1,90,8|0,0:0|0:0,0:0:0:0:
384,269,69956,1,2,0:0:0:0:
295,112,70110,1,0,0:0:0:0:
490,172,70263,1,8,0:0:0:0:
401,2,70417,6,0,L|388:205,1,180,0|0,0:0|0:0,0:0:0:0:
214,247,70879,2,0,P|258:246|303:238,1,90,8|0,0:0|0:0,0:0:0:0:
148,169,71187,1,2,0:0:0:0:
179,343,71340,1,2,0:0:0:0:
335,217,71494,1,8,0:0:0:0:
161,87,71648,6,0,P|84:117|89:227,1,180,6|2,0:0|0:0,0:0:0:0:
254,140,72110,2,0,L|261:50,1,90,8|0,0:0|0:0,0:0:0:0:
148,169,72417,1,2,0:0:0:0:
310,236,72571,1,0,0:0:0:0:
188,358,72725,1,8,0:0:0:0:
241,174,72879,1,0,0:0:0:0:
48,282,73033,6,0,L|140:288,1,90,2|0,0:0|0:0,0:0:0:0:
310,350,73340,2,0,L|218:356,1,90,8|0,0:0|0:0,0:0:0:0:
152,196,73648,1,2,0:0:0:0:
334,265,73802,1,8,0:0:0:0:
334,265,73879,1,8,0:0:0:0:
334,265,73956,1,8,0:0:0:0:
233,50,74110,6,0,P|214:134|267:211,1,180,6|2,0:0|0:0,0:0:0:0:
421,119,74571,2,0,P|376:114|331:112,1,90,8|0,0:0|0:0,0:0:0:0:
369,251,74879,1,2,0:0:0:0:
506,155,75033,1,0,0:0:0:0:
468,334,75187,1,8,0:0:0:0:
281,233,75340,6,0,B|336:218|336:218|402:228|402:228|457:215,1,180,0|0,0:0|0:0,0:0:0:0:
312,104,75802,2,0,P|267:97|216:99,1,90,8|0,0:0|0:0,0:0:0:0:
398,142,76110,1,2,0:0:0:0:
339,304,76263,1,2,0:0:0:0:
173,201,76417,2,0,L|264:193,1,90,8|2,0:0|0:0,0:0:0:0:
52,137,76725,6,0,L|46:182,3,45,12|8|8|8,0:0|0:0|0:0|0:0,0:0:0:0:
85,189,77033,2,0,L|91:234,3,45,2|2|2|2,0:0|0:0|0:0|0:0,0:0:0:0:
64,281,77340,5,2,0:0:0:0:
93,265,77416,1,2,0:0:0:0:
126,256,77493,1,2,0:0:0:0:
160,255,77570,1,2,0:0:0:0:
193,262,77647,1,2,0:0:0:0:
223,276,77724,1,2,0:0:0:0:
250,296,77801,1,2,0:0:0:0:
272,322,77878,1,2,0:0:0:0:
288,351,77955,5,8,0:0:0:0:
426,140,78571,2,0,L|419:195,3,45,0|0|0|0,0:0|0:0|0:0|0:0,0:0:0:0:
382,210,78879,1,8,0:0:0:0:
382,210,78956,1,8,0:0:0:0:
382,210,79033,6,0,P|462:206|459:308,1,180,6|2,0:0|0:0,0:0:0:0:
292,261,79494,2,0,P|286:215|282:163,1,90,8|0,0:0|0:0,0:0:0:0:
377,36,79802,1,2,0:0:0:0:
220,113,79956,1,2,0:0:0:0:
382,210,80110,2,0,P|388:164|392:112,1,90,8|0,0:0|0:0,0:0:0:0:
253,5,80417,5,2,0:0:0:0:
302,156,80571,1,0,0:0:0:0:
127,104,80725,2,0,P|83:98|38:95,1,90,8|0,0:0|0:0,0:0:0:0:
191,213,81033,1,2,0:0:0:0:
16,245,81186,1,2,0:0:0:0:
172,364,81340,1,8,0:0:0:0:
223,120,81494,6,0,B|244:299,1,180,6|2,0:0|0:0,0:0:0:0:
77,344,81956,2,0,L|87:254,1,90,8|0,0:0|0:0,0:0:0:0:
20,97,82263,1,2,0:0:0:0:
151,199,82417,1,2,0:0:0:0:
234,37,82571,2,0,P|278:29|322:23,1,90,8|0,0:0|0:0,0:0:0:0:
116,109,82879,5,2,0:0:0:0:
290,151,83033,1,0,0:0:0:0:
157,288,83186,2,0,L|150:195,1,90,8|0,0:0|0:0,0:0:0:0:
234,37,83494,1,2,0:0:0:0:
84,122,83648,1,8,0:0:0:0:
84,122,83725,1,8,0:0:0:0:
84,122,83802,1,8,0:0:0:0:
332,110,83956,6,0,B|290:78|290:78|135:91,1,180,6|2,0:0|0:0,0:0:0:0:
284,209,84417,2,0,P|328:215|375:218,1,90,8|0,0:0|0:0,0:0:0:0:
476,98,84725,1,2,0:0:0:0:
443,264,84879,1,0,0:0:0:0:
332,110,85033,1,8,0:0:0:0:
497,188,85186,1,0,0:0:0:0:
362,320,85340,6,0,L|352:229,1,90,2|0,0:0|0:0,0:0:0:0:
423,65,85648,2,0,L|413:154,1,90,8|0,0:0|0:0,0:0:0:0:
272,89,85956,1,2,0:0:0:0:
435,185,86110,1,2,0:0:0:0:
339,24,86263,1,8,0:0:0:0:
212,160,86417,6,0,P|289:141|345:214,1,180,6|2,0:0|0:0,0:0:0:0:
328,305,86802,1,2,0:0:0:0:
328,305,86879,2,0,L|427:292,1,90,8|2,0:0|0:0,0:0:0:0:
267,217,87186,1,8,0:0:0:0:
230,374,87340,1,2,0:0:0:0:
267,217,87494,2,0,P|276:167|281:114,1,90,12|0,0:0|0:0,0:0:0:0:
148,290,87802,5,2,0:0:0:0:
57,176,87956,1,8,0:0:0:0:
57,176,88033,1,8,0:0:0:0:
57,176,88110,2,0,L|60:221,1,45,10|0,0:0|0:0,0:0:0:0:
193,178,88263,1,8,0:0:0:0:
193,178,88340,1,8,0:0:0:0:
193,178,88417,2,0,L|190:133,1,45,10|0,0:0|0:0,0:0:0:0:
0,72,88571,5,8,0:0:0:0:
31,82,88648,1,8,0:0:0:0:
63,81,88725,1,8,0:0:0:0:
92,67,88802,1,8,0:0:0:0:
116,45,88879,6,0,L|294:64,1,180,6|2,0:0|0:0,0:0:0:0:
395,215,89340,2,0,P|355:219|290:223,1,90,8|0,0:0|0:0,0:0:0:0:
463,146,89648,1,2,0:0:0:0:
425,306,89802,1,0,0:0:0:0:
275,199,89956,2,0,L|285:297,1,90,8|0,0:0|0:0,0:0:0:0:
432,223,90263,5,2,0:0:0:0:
295,118,90417,1,0,0:0:0:0:
472,56,90571,2,0,L|462:154,1,90,8|0,0:0|0:0,0:0:0:0:
327,219,90879,1,2,0:0:0:0:
368,40,91033,1,2,0:0:0:0:
496,171,91186,1,8,0:0:0:0:
295,118,91340,6,0,B|245:111|245:111|174:140|174:140|121:131,1,180,6|2,0:0|0:0,0:0:0:0:
239,283,91802,2,0,P|247:241|252:170,1,90,8|0,0:0|0:0,0:0:0:0:
165,58,92110,1,2,0:0:0:0:
328,123,92263,1,0,0:0:0:0:
165,58,92417,2,0,L|254:61,1,90,8|0,0:0|0:0,0:0:0:0:
139,174,92725,5,2,0:0:0:0:
78,18,92879,1,0,0:0:0:0:
18,179,93033,2,0,L|119:175,1,90,8|0,0:0|0:0,0:0:0:0:
1,81,93340,1,2,0:0:0:0:
67,266,93494,1,8,0:0:0:0:
67,266,93571,1,8,0:0:0:0:
67,266,93648,1,8,0:0:0:0:
296,183,93802,6,0,P|238:245|148:245,1,180,6|2,0:0|0:0,0:0:0:0:
272,87,94263,2,0,P|319:96|385:113,1,90,8|0,0:0|0:0,0:0:0:0:
431,232,94571,5,2,0:0:0:0:
447,62,94725,2,0,P|457:105|465:149,1,90,0|8,0:0|0:0,0:0:0:0:
348,262,95033,5,0,0:0:0:0:
491,327,95186,2,0,P|447:336|401:339,1,90,2|0,0:0|0:0,0:0:0:0:
259,287,95494,5,8,0:0:0:0:
203,121,95648,2,0,P|200:165|205:210,1,90,0|2,0:0|0:0,0:0:0:0:
305,75,95956,5,2,0:0:0:0:
155,17,96110,2,0,P|110:20|66:29,1,90,8|0,0:0|0:0,0:0:0:0:
23,179,96417,5,12,0:0:0:0:
220,72,96571,1,2,0:0:0:0:
220,72,96648,1,2,0:0:0:0:
220,72,96725,1,2,0:0:0:0:
33,46,96879,5,12,0:0:0:0:
180,160,97033,1,2,0:0:0:0:
180,160,97110,1,2,0:0:0:0:
180,160,97186,1,2,0:0:0:0:
49,314,97340,1,8,0:0:0:0:
49,314,97417,1,8,0:0:0:0:
49,314,97494,1,6,0:0:0:0:
256,192,97571,12,0,98725,0:0:0:0:
256,192,98879,5,6,0:0:0:0:
256,192,98956,12,0,103802,0:0:0:0:
