osu file format v14

[General]
AudioFilename: audio.mp3
AudioLeadIn: 0
PreviewTime: 58740
Countdown: 0
SampleSet: Soft
StackLeniency: 0.5
Mode: 0
LetterboxInBreaks: 0
WidescreenStoryboard: 0

[Editor]
Bookmarks: 96876
DistanceSpacing: 0.2
BeatDivisor: 4
GridSize: 16
TimelineZoom: 3.099999

[Metadata]
Title:LOUDER
TitleUnicode:LOUDER
Artist:Roselia
ArtistUnicode:Roselia
Creator:scanter
Version:Meep's Insane
Source:バンドリ!ガールズバンドパーティ!
Tags:Event Garupa Bandori BanG Dream! ガルパ! Girls Band Party! Minato Yukina 湊友希那 Hikawa Sayo 氷川紗夜 Imai Lisa 今井リサ Udagawa Ako 宇田川あこ Shirogane Rinko 白金燐子 ロゼリア Aiba Aina 相羽あいな Akesaka Satomi 明坂聡美 Endou Yurika 遠藤ゆりか Kudou Haruka 工藤晴香 Sakuragawa Megu 桜川めぐ eLy _Meep_ Meep Yuria Anais CLSW Crystal groundswim JarrenTanJR Ancelyze Rayon BLACK SHOUT Game Version
BeatmapID:1295369
BeatmapSetID:595580

[Difficulty]
HPDrainRate:6
CircleSize:3.7
OverallDifficulty:7
ApproachRate:8.4
SliderMultiplier:1.5
SliderTickRate:1

[Events]
//Background and Video events
0,0,"bg.jpg",0,0
//Break Periods
//Storyboard Layer 0 (Background)
//Storyboard Layer 1 (Fail)
//Storyboard Layer 2 (Pass)
//Storyboard Layer 3 (Foreground)
//Storyboard Sound Samples

[TimingPoints]
-813,307.692307692308,4,2,1,100,1,0
417,-125,4,2,1,70,0,0
7802,-125,4,2,1,40,0,0
8110,-125,4,2,1,50,0,0
8417,-125,4,2,1,60,0,0
8725,-125,4,2,1,70,0,0
9033,-125,4,2,1,30,0,0
10110,-100,4,2,1,90,0,1
10187,-100,4,2,1,90,0,0
29956,-125,4,2,1,70,0,0
39802,-100,4,2,1,70,0,0
49648,-125,4,2,1,90,0,0
50033,-100,4,2,1,90,0,0
50110,-100,4,2,1,90,0,0
57033,-100,4,2,1,90,0,0
59340,-100,4,2,1,100,0,1
69033,-100,4,2,1,100,0,0
69187,-100,4,2,1,100,0,1
79033,-100,4,2,1,90,0,0
97494,-166.666666666667,4,2,1,80,0,0
98879,-166.666666666667,4,2,1,60,0,0
99494,-166.666666666667,4,2,1,50,0,0
100110,-166.666666666667,4,2,1,42,0,0
100725,-166.666666666667,4,2,1,34,0,0
101340,-166.666666666667,4,2,1,26,0,0
101956,-166.666666666667,4,2,1,18,0,0
102571,-166.666666666667,4,2,1,14,0,0
103187,-166.666666666667,4,2,1,10,0,0
103802,-166.666666666667,4,2,1,5,0,0

[Colours]
Combo1 : 128,255,255
Combo2 : 255,128,128
Combo3 : 128,255,128
Combo4 : 255,128,192
Combo5 : 255,128,64

[HitObjects]
226,194,263,5,2,0:0:0:0:
226,194,340,1,2,0:0:0:0:
226,194,417,6,0,P|254:105|135:188,1,360,6|0,0:0|0:0,0:0:0:0:
127,180,1648,6,0,L|139:40,1,120,8|0,0:0|0:0,0:0:0:0:
207,227,2110,2,0,L|219:87,1,120,4|0,3:0|0:0,0:0:0:0:
280,275,2571,2,0,P|318:253|345:248,1,60,2|0,0:0|0:0,0:0:0:0:
500,252,2879,6,0,P|469:288|469:160,1,360,6|0,0:0|0:0,0:0:0:0:
467,159,4110,6,0,L|432:234,1,60,8|4,0:0|3:0,0:0:0:0:
441,213,4571,2,0,L|314:220,1,120,0|2,3:0|0:0,0:0:0:0:
243,265,5033,2,0,P|235:315|242:346,1,60,0|8,0:0|0:0,0:0:0:0:
244,346,5263,1,8,0:0:0:0:
267,352,5340,6,0,P|315:335|386:354,1,120,6|2,0:0|0:0,0:0:0:0:
380,350,5956,6,0,P|389:299|441:247,1,120,2|2,0:0|0:0,0:0:0:0:
435,250,6571,6,0,P|396:216|377:145,1,120,2|2,0:0|0:0,0:0:0:0:
376,152,7187,6,0,P|327:169|257:150,1,120,2|2,0:0|0:0,0:0:0:0:
262,153,7802,6,0,P|252:203|238:227,1,60,8|8,0:0|0:0,0:0:0:0:
154,103,8110,2,0,P|163:153|178:177,1,60,8|8,0:0|0:0,0:0:0:0:
272,156,8417,6,0,P|262:206|248:230,1,60,8|8,0:0|0:0,0:0:0:0:
142,97,8725,2,0,P|151:147|166:171,1,60,8|8,0:0|0:0,0:0:0:0:
171,251,9033,5,0,0:0:0:0:
76,274,9956,1,0,0:0:0:0:
76,274,10033,1,0,0:0:0:0:
76,274,10110,6,0,B|120:304|120:304|232:290,1,150,6|2,0:0|0:0,0:0:0:0:
345,212,10571,2,0,P|300:207|258:224,1,75,8|0,0:0|0:0,0:0:0:0:
406,284,10879,1,2,0:0:0:0:
434,195,11033,1,2,0:0:0:0:
313,299,11187,1,8,0:0:0:0:
272,215,11340,1,0,0:0:0:0:
427,294,11494,6,0,L|523:280,1,75,2|0,0:0|0:0,0:0:0:0:
417,179,11802,1,8,0:0:0:0:
272,215,11956,2,0,L|176:201,1,75,0|2,0:0|0:0,0:0:0:0:
241,113,12263,2,0,L|337:127,1,75,2|8,0:0|0:0,0:0:0:0:
418,14,12571,6,0,L|398:197,1,150,6|2,0:0|0:0,0:0:0:0:
438,253,13033,2,0,P|492:242|529:250,1,75,8|0,0:0|0:0,0:0:0:0:
389,322,13340,1,2,0:0:0:0:
332,213,13494,2,0,L|257:201,1,75,2|8,0:0|0:0,0:0:0:0:
144,216,13802,1,0,0:0:0:0:
201,381,13956,6,0,L|215:290,1,75,2|0,0:0|0:0,0:0:0:0:
192,123,14263,1,8,0:0:0:0:
257,201,14417,1,0,0:0:0:0:
124,306,14571,2,0,L|133:222,1,75,2|8,0:0|0:0,0:0:0:0:
285,190,14879,1,8,0:0:0:0:
203,32,15033,6,0,P|143:44|101:130,1,150,6|2,0:0|0:0,0:0:0:0:
201,197,15494,2,0,L|189:106,1,75,8|0,0:0|0:0,0:0:0:0:
106,209,15802,2,0,L|118:300,1,75,2|0,0:0|0:0,0:0:0:0:
217,355,16110,1,8,0:0:0:0:
299,268,16263,1,0,0:0:0:0:
215,123,16417,6,0,P|202:172|202:215,1,75,2|0,0:0|0:0,0:0:0:0:
299,268,16725,1,8,0:0:0:0:
381,181,16878,1,0,0:0:0:0:
498,282,17033,2,0,L|410:279,1,75,2|0,0:0|0:0,0:0:0:0:
459,139,17341,1,8,0:0:0:0:
321,95,17494,6,0,L|146:111,1,150,6|2,0:0|0:0,0:0:0:0:
1,203,17956,2,0,L|75:196,1,75,8|2,0:0|0:0,0:0:0:0:
244,261,18263,2,0,L|169:267,1,75,8|2,0:0|0:0,0:0:0:0:
0,351,18571,2,0,L|75:345,1,75,12|2,0:0|0:0,0:0:0:0:
212,371,18879,6,0,P|264:359|279:361,3,37.5,8|0|2|2,0:0|0:0|0:0|0:0,0:0:0:0:
277,356,19187,2,0,P|329:368|344:366,3,37.5,8|0|2|0,0:0|0:0|0:0|0:0,0:0:0:0:
342,362,19494,5,8,0:0:0:0:
343,349,19570,1,8,0:0:0:0:
345,336,19647,1,8,0:0:0:0:
347,323,19724,1,8,0:0:0:0:
349,310,19802,1,8,0:0:0:0:
351,298,19878,1,0,0:0:0:0:
353,285,19956,6,0,L|343:112,1,150,6|2,0:0|0:0,0:0:0:0:
182,194,20417,2,0,P|227:212|270:204,1,75,8|0,0:0|0:0,0:0:0:0:
236,96,20725,1,2,0:0:0:0:
75,80,20879,1,2,0:0:0:0:
82,170,21033,1,8,0:0:0:0:
163,33,21187,1,0,0:0:0:0:
68,193,21340,6,0,P|61:244|67:285,1,75,2|0,0:0|0:0,0:0:0:0:
201,353,21648,1,8,0:0:0:0:
170,189,21802,2,0,L|156:269,1,75,0|2,0:0|0:0,0:0:0:0:
223,364,22110,2,0,L|303:356,1,75,2|8,0:0|0:0,0:0:0:0:
407,296,22417,6,0,B|416:187|416:187|390:218,1,150,6|2,0:0|0:0,0:0:0:0:
486,331,22879,2,0,L|493:244,1,75,8|0,0:0|0:0,0:0:0:0:
423,114,23187,1,2,0:0:0:0:
318,229,23340,2,0,P|355:231|389:218,1,75,2|8,0:0|0:0,0:0:0:0:
426,87,23648,1,0,0:0:0:0:
428,79,23725,1,0,0:0:0:0:
430,71,23802,6,0,L|344:79,1,75,2|0,0:0|0:0,0:0:0:0:
224,165,24110,1,8,0:0:0:0:
318,229,24263,2,0,P|355:231|389:218,1,75,0|2,0:0|0:0,0:0:0:0:
208,287,24571,1,8,0:0:0:0:
201,291,24648,1,8,0:0:0:0:
194,295,24725,1,8,0:0:0:0:
81,185,24879,6,0,B|138:156|138:156|223:164,1,150,6|2,0:0|0:0,0:0:0:0:
368,106,25340,2,0,L|293:97,1,75,8|0,0:0|0:0,0:0:0:0:
206,75,25648,5,2,0:0:0:0:
223,164,25802,2,0,L|215:239,1,75,0|8,0:0|0:0,0:0:0:0:
200,70,26110,5,0,0:0:0:0:
298,92,26263,2,0,L|373:101,1,75,2|0,0:0|0:0,0:0:0:0:
195,65,26571,5,8,0:0:0:0:
218,169,26725,2,0,L|210:244,1,75,0|2,0:0|0:0,0:0:0:0:
190,60,27033,5,0,0:0:0:0:
303,87,27187,2,0,L|378:96,1,75,8|0,0:0|0:0,0:0:0:0:
486,170,27494,6,0,P|494:209|492:257,1,75,12|2,0:0|0:0,0:0:0:0:
358,331,27802,1,2,0:0:0:0:
350,333,27879,1,2,0:0:0:0:
342,335,27956,2,0,P|334:296|336:248,1,75,12|2,0:0|0:0,0:0:0:0:
372,120,28263,1,2,0:0:0:0:
380,118,28340,1,2,0:0:0:0:
388,116,28417,1,8,0:0:0:0:
214,39,28571,5,6,0:0:0:0:
214,39,29340,6,0,L|217:127,1,75,0|2,0:0|0:0,0:0:0:0:
265,175,29571,1,2,0:0:0:0:
270,181,29648,2,0,L|273:269,1,75,8|0,0:0|0:0,0:0:0:0:
374,131,29956,6,0,P|413:161|428:190,1,60,12|0,0:0|0:0,0:0:0:0:
448,288,30263,1,8,0:0:0:0:
444,311,30571,1,8,0:0:0:0:
440,334,30879,2,0,L|360:318,1,60,8|0,0:0|0:0,0:0:0:0:
326,264,31187,6,0,P|296:277|253:281,1,60,8|0,0:0|0:0,0:0:0:0:
153,259,31494,1,8,0:0:0:0:
130,250,31802,1,8,0:0:0:0:
108,239,32110,2,0,L|103:152,1,60,8|0,0:0|0:0,0:0:0:0:
147,72,32417,6,0,P|181:56|218:55,1,60,8|0,0:0|0:0,0:0:0:0:
321,83,32725,1,8,0:0:0:0:
342,94,33033,1,8,0:0:0:0:
364,103,33340,2,0,L|373:173,1,60,8|0,0:0|0:0,0:0:0:0:
376,283,33648,6,0,P|368:331|350:361,1,60,8|0,0:0|0:0,0:0:0:0:
254,379,33956,1,8,0:0:0:0:
164,275,34110,1,2,0:0:0:0:
158,274,34187,1,2,0:0:0:0:
152,273,34263,2,0,L|78:265,1,60,8|2,0:0|0:0,0:0:0:0:
158,166,34571,1,8,0:0:0:0:
54,180,34725,1,2,0:0:0:0:
143,70,34879,6,0,P|193:75|227:92,1,60,12|0,0:0|0:0,0:0:0:0:
313,166,35187,1,8,0:0:0:0:
324,187,35494,1,8,0:0:0:0:
335,208,35802,2,0,L|252:214,1,60,8|0,0:0|0:0,0:0:0:0:
211,278,36110,6,0,L|215:361,1,60,8|0,0:0|0:0,0:0:0:0:
136,196,36417,1,8,0:0:0:0:
139,172,36725,1,8,0:0:0:0:
142,148,37033,2,0,L|224:140,1,60,8|0,0:0|0:0,0:0:0:0:
307,114,37340,6,0,P|301:164|307:192,1,60,12|0,0:0|0:0,0:0:0:0:
336,292,37648,1,8,0:0:0:0:
345,314,37956,1,8,0:0:0:0:
356,334,38263,2,0,L|351:256,1,60,8|0,0:0|0:0,0:0:0:0:
407,159,38571,5,8,0:0:0:0:
275,195,38725,1,2,0:0:0:0:
269,197,38802,1,2,0:0:0:0:
263,199,38879,1,12,0:0:0:0:
429,237,39033,1,4,3:0:0:0:
372,87,39187,5,2,0:0:0:0:
439,244,39340,2,0,L|485:240,2,30,8|8|8,0:0|0:0|0:0,0:0:0:0:
308,367,39648,1,2,0:0:0:0:
309,361,39725,1,2,0:0:0:0:
310,354,39802,6,0,L|319:243,1,75,6|0,0:0|0:0,0:0:0:0:
285,142,40110,2,0,P|264:174|261:230,1,75,8|0,0:0|0:0,0:0:0:0:
371,109,40417,1,2,0:0:0:0:
354,203,40571,1,2,0:0:0:0:
228,74,40725,2,0,L|154:77,1,75,8|0,0:0|0:0,0:0:0:0:
80,128,41033,6,0,P|34:112|-5:119,1,75,2|0,0:0|0:0,0:0:0:0:
132,194,41340,2,0,L|127:278,1,75,8|0,0:0|0:0,0:0:0:0:
176,335,41648,2,0,P|210:349|248:349,1,75,2|2,0:0|0:0,0:0:0:0:
322,223,41956,1,8,0:0:0:0:
228,257,42110,1,0,0:0:0:0:
356,319,42263,6,0,L|441:296,1,75,2|0,0:0|0:0,0:0:0:0:
490,156,42571,2,0,P|461:183|446:216,1,75,8|0,0:0|0:0,0:0:0:0:
387,84,42879,1,2,0:0:0:0:
478,66,43033,1,2,0:0:0:0:
300,131,43187,2,0,L|308:220,1,75,8|0,0:0|0:0,0:0:0:0:
300,131,43494,6,0,P|290:90|296:49,1,75,2|0,0:0|0:0,0:0:0:0:
390,186,43802,1,8,0:0:0:0:
219,216,43956,2,0,L|126:213,1,75,0|2,0:0|0:0,0:0:0:0:
390,186,44263,1,2,0:0:0:0:
334,324,44417,1,8,0:0:0:0:
330,330,44494,1,0,0:0:0:0:
327,337,44571,6,0,B|300:370|300:370|245:341|183:366,1,150,6|2,0:0|0:0,0:0:0:0:
93,268,45033,2,0,P|80:222|89:180,1,75,8|0,0:0|0:0,0:0:0:0:
175,281,45340,1,2,0:0:0:0:
58,343,45494,1,0,0:0:0:0:
189,293,45648,2,0,L|289:297,1,75,8|2,0:0|0:0,0:0:0:0:
366,226,45956,6,0,P|375:187|367:126,1,75,0|2,0:0|0:0,0:0:0:0:
224,191,46263,1,8,0:0:0:0:
263,295,46417,1,0,0:0:0:0:
292,121,46571,2,0,P|255:98|191:97,2,75,2|0|8,0:0|0:0|0:0,0:0:0:0:
128,142,47033,1,0,0:0:0:0:
53,230,47187,6,0,L|60:316,1,75,6|0,0:0|0:0,0:0:0:0:
128,142,47494,1,8,0:0:0:0:
178,243,47648,1,0,0:0:0:0:
239,89,47802,2,0,P|271:68|319:67,1,75,2|0,0:0|0:0,0:0:0:0:
392,188,48110,1,8,0:0:0:0:
301,156,48263,1,0,0:0:0:0:
437,86,48417,6,0,L|536:80,1,75,2|2,0:0|0:0,0:0:0:0:
392,188,48725,1,8,0:0:0:0:
501,281,48879,1,8,0:0:0:0:
507,285,48956,1,8,0:0:0:0:
512,290,49033,2,0,L|413:284,1,75,8|2,0:0|0:0,0:0:0:0:
347,282,49340,2,0,L|248:288,1,75,4|2,3:0|0:0,0:0:0:0:
172,311,49648,5,6,0:0:0:0:
172,311,49802,1,2,0:0:0:0:
155,131,50110,2,0,L|149:286,1,150,8|0,0:0|0:0,0:0:0:0:
287,355,50571,5,2,0:0:0:0:
287,355,50725,1,2,0:0:0:0:
346,205,51033,2,0,P|305:266|313:339,1,150,8|0,0:0|0:0,0:0:0:0:
450,297,51494,5,2,0:0:0:0:
450,297,51648,1,2,0:0:0:0:
458,195,51802,2,0,L|468:285,1,75,8|0,0:0|0:0,0:0:0:0:
391,127,52110,5,6,0:0:0:0:
391,127,52263,1,2,0:0:0:0:
216,83,52571,2,0,L|387:98,1,150,8|0,0:0|0:0,0:0:0:0:
300,216,53033,5,2,0:0:0:0:
300,216,53187,1,2,0:0:0:0:
155,213,53494,2,0,P|218:196|285:258,1,150,8|2,0:0|0:0,0:0:0:0:
294,327,53879,5,8,0:0:0:0:
297,333,53956,2,0,P|354:358|384:356,1,75,8|4,0:0|3:0,0:0:0:0:
418,267,54263,2,0,P|394:238|362:221,1,75,2|2,0:0|0:0,0:0:0:0:
169,340,54571,5,6,0:0:0:0:
119,90,55187,1,0,0:0:0:0:
343,340,55802,5,0,0:0:0:0:
393,90,56418,1,0,0:0:0:0:
390,90,56725,5,8,0:0:0:0:
382,91,56802,1,2,0:0:0:0:
374,92,56879,1,2,0:0:0:0:
366,93,56956,1,2,0:0:0:0:
358,94,57033,6,0,P|346:142|347:173,1,75,12|0,0:0|0:0,0:0:0:0:
309,334,57340,2,0,P|321:286|320:255,1,75,8|8,0:0|0:0,0:0:0:0:
228,121,57648,1,8,0:0:0:0:
410,268,57802,1,8,0:0:0:0:
254,199,57956,1,8,0:0:0:0:
466,199,58110,1,8,0:0:0:0:
473,199,58187,1,8,0:0:0:0:
480,199,58263,6,0,L|473:118,1,75,2|0,0:0|0:0,0:0:0:0:
465,292,58571,6,0,L|458:217,1,75
450,384,58879,6,0,L|444:310,1,75
480,199,59187,5,0,0:0:0:0:
296,191,59340,6,0,B|250:236|297:299|297:299|327:284,1,150,6|2,0:0|0:0,0:0:0:0:
200,182,59802,2,0,P|163:179|113:147,1,75,8|0,0:0|0:0,0:0:0:0:
255,16,60110,1,2,0:0:0:0:
189,90,60263,1,0,0:0:0:0:
356,24,60417,1,8,0:0:0:0:
175,96,60571,6,0,B|122:81|122:81|77:91|77:91|10:69,1,150,2|2,0:0|0:0,0:0:0:0:
55,176,61033,2,0,L|144:159,1,75,8|0,0:0|0:0,0:0:0:0:
276,152,61340,2,0,P|243:169|192:166,1,75,2|0,0:0|0:0,0:0:0:0:
356,24,61648,1,8,0:0:0:0:
423,158,61802,6,0,L|413:334,1,150,6|2,0:0|0:0,0:0:0:0:
297,358,62263,2,0,P|250:338|202:341,1,75,8|0,0:0|0:0,0:0:0:0:
336,284,62571,1,2,0:0:0:0:
265,179,62725,1,2,0:0:0:0:
226,336,62879,1,8,0:0:0:0:
99,251,63033,6,0,B|80:204|90:154|90:154|119:98,1,150,2|2,0:0|0:0,0:0:0:0:
260,59,63494,1,8,0:0:0:0:
202,192,63648,1,0,0:0:0:0:
173,29,63802,1,2,0:0:0:0:
293,156,63956,1,8,0:0:0:0:
298,160,64033,1,8,0:0:0:0:
303,164,64110,1,8,0:0:0:0:
211,290,64263,6,0,L|49:278,1,150,6|2,0:0|0:0,0:0:0:0:
0,174,64725,2,0,P|-1:130|18:92,1,75,8|0,0:0|0:0,0:0:0:0:
124,168,65033,1,2,0:0:0:0:
61,278,65187,1,2,0:0:0:0:
137,154,65340,1,8,0:0:0:0:
261,241,65494,6,0,B|310:234|310:234|355:247|355:247|417:242,1,150,0|0,0:0|0:0,0:0:0:0:
225,128,65956,2,0,L|136:138,1,75,8|0,0:0|0:0,0:0:0:0:
101,261,66263,2,0,L|190:251,1,75,2|8,0:0|0:0,0:0:0:0:
50,158,66571,1,8,0:0:0:0:
43,54,66725,6,0,P|110:71|152:154,1,150,6|2,0:0|0:0,0:0:0:0:
135,214,67110,1,0,0:0:0:0:
133,221,67187,6,0,L|136:318,1,75,8|2,0:0|0:0,0:0:0:0:
322,218,67494,2,0,L|308:314,1,75,8|2,0:0|0:0,0:0:0:0:
120,208,67802,6,0,L|123:305,1,75,8|2,0:0|0:0,0:0:0:0:
332,208,68110,2,0,L|318:304,1,75,8|2,0:0|0:0,0:0:0:0:
110,198,68417,6,0,L|113:295,1,75,8|2,0:0|0:0,0:0:0:0:
342,198,68725,1,8,0:0:0:0:
339,216,68801,1,8,0:0:0:0:
336,235,68878,1,8,0:0:0:0:
333,253,68955,1,8,0:0:0:0:
331,272,69033,1,8,0:0:0:0:
152,302,69187,6,0,L|144:117,1,150,6|0,0:0|0:0,0:0:0:0:
200,34,69648,2,0,P|243:22|286:28,1,75,8|0,0:0|0:0,0:0:0:0:
385,92,69956,1,2,0:0:0:0:
351,228,70110,1,0,0:0:0:0:
251,139,70263,1,8,0:0:0:0:
432,178,70417,6,0,B|460:244|421:298|421:298|407:282|379:263,1,150,2|2,0:0|0:0,0:0:0:0:
278,322,70879,2,0,P|315:328|351:341,1,75,8|0,0:0|0:0,0:0:0:0:
223,262,71187,2,0,P|223:204|235:166,1,75,2|2,0:0|0:0,0:0:0:0:
137,306,71494,1,8,0:0:0:0:
81,156,71648,6,0,B|69:109|69:109|113:-7,1,150,6|2,0:0|0:0,0:0:0:0:
226,187,72110,2,0,P|192:203|155:205,1,75,8|0,0:0|0:0,0:0:0:0:
310,220,72417,1,2,0:0:0:0:
169,104,72571,1,0,0:0:0:0:
151,299,72725,1,8,0:0:0:0:
57,296,72879,6,0,P|86:229|155:205,1,150
295,285,73340,1,8,0:0:0:0:
151,299,73494,1,0,0:0:0:0:
253,201,73648,1,8,0:0:0:0:
228,347,73802,1,8,0:0:0:0:
226,354,73879,1,8,0:0:0:0:
224,361,73956,1,8,0:0:0:0:
369,365,74110,6,0,L|351:193,1,150,6|2,0:0|0:0,0:0:0:0:
222,125,74571,2,0,P|241:160|278:182,1,75,8|0,0:0|0:0,0:0:0:0:
420,156,74879,2,0,P|435:122|434:85,1,75,2|0,0:0|0:0,0:0:0:0:
353,215,75187,5,8,0:0:0:0:
309,98,75340,2,0,L|149:53,1,150,2|2,0:0|0:0,0:0:0:0:
107,161,75802,2,0,P|98:209|100:246,1,75,8|0,0:0|0:0,0:0:0:0:
227,291,76110,2,0,P|226:253|218:217,1,75,2|2,0:0|0:0,0:0:0:0:
138,348,76417,1,8,0:0:0:0:
286,361,76571,5,2,0:0:0:0:
293,360,76648,1,0,0:0:0:0:
300,359,76725,2,0,L|350:354,3,37.5,12|8|8|8,0:0|0:0|0:0|0:0,0:0:0:0:
370,361,77033,2,0,L|407:355,3,37.5,8|8|4|4,0:0|0:0|3:0|3:0,0:0:0:0:
432,335,77340,6,0,P|443:296|443:274,3,37.5,4|4|4|4,3:0|3:0|3:0|3:0,0:0:0:0:
434,268,77648,2,0,P|423:229|423:207,3,37.5,2|2|2|2,0:0|0:0|0:0|0:0,0:0:0:0:
425,200,77956,5,8,0:0:0:0:
258,123,78879,5,8,0:0:0:0:
250,123,78956,1,8,0:0:0:0:
242,122,79033,2,0,B|144:111|144:111|88:156,1,150,6|2,0:0|0:0,0:0:0:0:
166,270,79494,2,0,P|175:220|163:176,1,75,8|0,0:0|0:0,0:0:0:0:
71,230,79802,1,2,0:0:0:0:
118,370,79956,1,2,0:0:0:0:
258,322,80110,1,8,0:0:0:0:
166,270,80263,1,0,0:0:0:0:
318,223,80417,6,0,P|363:222|415:239,1,75,2|0,0:0|0:0,0:0:0:0:
258,322,80725,1,8,0:0:0:0:
166,270,80879,1,2,0:0:0:0:
222,166,81033,2,0,P|200:126|159:89,2,75,0|2|8,0:0|0:0|0:0,0:0:0:0:
318,223,81494,6,0,L|338:67,1,150,6|2,0:0|0:0,0:0:0:0:
424,162,81956,2,0,L|416:236,1,75,8|0,0:0|0:0,0:0:0:0:
314,322,82263,2,0,P|265:306|231:265,1,75,2|2,0:0|0:0,0:0:0:0:
226,164,82571,1,8,0:0:0:0:
319,223,82725,1,0,0:0:0:0:
140,242,82879,6,0,P|91:226|57:185,1,75,2|0,0:0|0:0,0:0:0:0:
226,164,83187,1,8,0:0:0:0:
319,223,83340,2,0,L|393:216,1,75,0|2,0:0|0:0,0:0:0:0:
485,131,83648,1,8,0:0:0:0:
491,126,83725,1,8,0:0:0:0:
497,121,83802,1,8,0:0:0:0:
349,46,83956,6,0,L|171:63,1,150,6|2,0:0|0:0,0:0:0:0:
109,133,84417,2,0,L|90:225,1,75,8|0,0:0|0:0,0:0:0:0:
208,250,84725,2,0,P|208:201|196:155,1,75,2|0,0:0|0:0,0:0:0:0:
111,327,85033,1,8,0:0:0:0:
215,371,85187,1,0,0:0:0:0:
317,300,85340,6,0,L|416:291,1,75,2|0,0:0|0:0,0:0:0:0:
481,183,85648,2,0,L|382:192,1,75,8|0,0:0|0:0,0:0:0:0:
253,199,85956,1,2,0:0:0:0:
317,300,86110,1,0,0:0:0:0:
327,147,86263,1,8,0:0:0:0:
191,267,86417,6,0,P|137:275|56:208,1,150,6|2,0:0|0:0,0:0:0:0:
134,107,86879,2,0,P|138:158|161:190,1,75,8|2,0:0|0:0,0:0:0:0:
282,164,87187,2,0,P|235:142|213:110,1,75,8|2,0:0|0:0,0:0:0:0:
305,4,87494,2,0,P|291:53|301:91,1,75,12|2,0:0|0:0,0:0:0:0:
346,231,87802,6,0,P|351:274|349:301,3,37.5,8|0|2|8,0:0|0:0|0:0|0:0,0:0:0:0:
349,300,88110,2,0,P|350:318|353:337,3,37.5,8|0|2|2,0:0|0:0|0:0|0:0,0:0:0:0:
361,366,88417,5,8,0:0:0:0:
353,363,88494,1,0,0:0:0:0:
345,361,88571,1,2,0:0:0:0:
337,358,88648,1,2,0:0:0:0:
329,356,88725,1,8,0:0:0:0:
321,354,88802,1,8,0:0:0:0:
313,352,88879,6,0,B|235:325|235:325|203:353|145:341,1,150,6|2,0:0|0:0,0:0:0:0:
272,254,89340,2,0,L|361:282,1,75,8|0,0:0|0:0,0:0:0:0:
314,138,89648,1,2,0:0:0:0:
175,240,89802,1,2,0:0:0:0:
241,88,89956,1,8,0:0:0:0:
272,254,90110,1,0,0:0:0:0:
143,140,90263,6,0,L|68:147,1,75,2|0,0:0|0:0,0:0:0:0:
175,240,90571,1,8,0:0:0:0:
241,88,90725,2,0,L|315:80,1,75,0|2,0:0|0:0,0:0:0:0:
439,164,91033,2,0,P|396:162|351:141,1,75,2|8,0:0|0:0,0:0:0:0:
467,95,91340,6,0,B|462:138|441:164|441:164|467:192|477:235,1,150,6|2,0:0|0:0,0:0:0:0:
343,306,91802,2,0,P|365:259|393:227,1,75,8|0,0:0|0:0,0:0:0:0:
259,224,92110,1,2,0:0:0:0:
332,141,92263,1,2,0:0:0:0:
441,164,92417,2,0,P|463:195|477:232,1,75,8|0,0:0|0:0,0:0:0:0:
303,129,92725,6,0,L|205:121,1,75,2|0,0:0|0:0,0:0:0:0:
122,217,93033,1,8,0:0:0:0:
231,304,93187,2,0,P|233:263|215:218,1,75,0|2,0:0|0:0,0:0:0:0:
121,112,93494,1,8,0:0:0:0:
114,108,93571,1,8,0:0:0:0:
107,104,93648,1,8,0:0:0:0:
29,202,93802,6,0,B|32:252|14:307|14:307|53:289,1,150,6|2,0:0|0:0,0:0:0:0:
151,317,94263,2,0,P|187:299|226:298,1,75,8|0,0:0|0:0,0:0:0:0:
315,321,94571,5,2,0:0:0:0:
288,226,94725,2,0,P|290:188|307:155,1,75,0|8,0:0|0:0,0:0:0:0:
325,331,95033,5,0,0:0:0:0:
211,287,95187,2,0,P|174:289|141:307,1,75,2|0,0:0|0:0,0:0:0:0:
335,341,95494,5,8,0:0:0:0:
278,216,95648,2,0,P|280:178|297:145,1,75,0|2,0:0|0:0,0:0:0:0:
345,351,95956,5,0,0:0:0:0:
201,277,96110,2,0,P|163:279|130:296,1,75,8|2,0:0|0:0,0:0:0:0:
355,361,96417,6,0,L|364:252,1,75,12|2,0:0|0:0,0:0:0:0:
372,152,96725,1,2,0:0:0:0:
373,144,96802,1,2,0:0:0:0:
373,136,96879,2,0,L|296:173,1,75,12|2,0:0|0:0,0:0:0:0:
183,225,97186,1,2,0:0:0:0:
176,228,97263,1,2,0:0:0:0:
169,232,97340,1,8,0:0:0:0:
355,361,97494,5,6,0:0:0:0:
256,192,98879,5,6,0:0:0:0:
256,192,98956,12,0,103802,0:0:0:0:
