osu file format v14

[General]
AudioFilename: audio.mp3
AudioLeadIn: 0
PreviewTime: 58740
Countdown: 0
SampleSet: Soft
StackLeniency: 0.7
Mode: 0
LetterboxInBreaks: 0
WidescreenStoryboard: 0

[Editor]
DistanceSpacing: 0.8
BeatDivisor: 4
GridSize: 4
TimelineZoom: 2.1

[Metadata]
Title:LOUDER
TitleUnicode:LOUDER
Artist:Roselia
ArtistUnicode:Roselia
Creator:scanter
Version:LOUDER
Source:バンドリ!ガールズバンドパーティ!
Tags:Event Garupa Bandori BanG Dream! ガルパ! Girls Band Party! Minato Yukina 湊友希那 Hikawa Sayo 氷川紗夜 Imai Lisa 今井リサ Udagawa Ako 宇田川あこ Shirogane Rinko 白金燐子 ロゼリア Aiba Aina 相羽あいな Akesaka Satomi 明坂聡美 Endou Yurika 遠藤ゆりか Kudou Haruka 工藤晴香 Sakuragawa Megu 桜川めぐ eLy _Meep_ Meep Yuria Anais CLSW Crystal groundswim JarrenTanJR Ancelyze Rayon BLACK SHOUT Game Version
BeatmapID:1259431
BeatmapSetID:595580

[Difficulty]
HPDrainRate:6.2
CircleSize:4
OverallDifficulty:8.3
ApproachRate:9.4
SliderMultiplier:2
SliderTickRate:1

[Events]
//Background and Video events
0,0,"bg.jpg",0,0
//Break Periods
//Storyboard Layer 0 (Background)
//Storyboard Layer 1 (Fail)
//Storyboard Layer 2 (Pass)
//Storyboard Layer 3 (Foreground)
//Storyboard Sound Samples

[TimingPoints]
-813,307.692307692308,4,2,1,70,1,0
417,-166.666666666667,4,2,1,70,0,0
7802,-166.666666666667,4,2,1,40,0,0
8110,-166.666666666667,4,2,1,50,0,0
8417,-166.666666666667,4,2,1,60,0,0
8725,-166.666666666667,4,2,1,70,0,0
9033,-166.666666666667,4,2,1,30,0,0
10110,-100,4,2,1,90,0,1
10187,-100,4,2,1,90,0,0
28571,-166.666666666667,4,2,1,70,0,0
39802,-100,4,2,1,90,0,0
49648,-125,4,2,1,90,0,0
57033,-100,4,2,1,90,0,0
58263,-166.666666666667,4,2,1,90,0,0
59340,-90.909090909091,4,2,1,100,0,1
69033,-90.909090909091,4,2,1,100,0,0
69187,-90.909090909091,4,2,1,100,0,1
79033,-100,4,2,1,90,0,0
97494,-166.666666666667,4,2,1,80,0,0
98725,-166.666666666667,4,2,1,30,0,0
98879,-166.666666666667,4,2,1,60,0,0
99494,-166.666666666667,4,2,1,50,0,0
100110,-166.666666666667,4,2,1,42,0,0
100725,-166.666666666667,4,2,1,34,0,0
101340,-166.666666666667,4,2,1,26,0,0
101956,-166.666666666667,4,2,1,18,0,0
102571,-166.666666666667,4,2,1,14,0,0
103187,-166.666666666667,4,2,1,10,0,0
103802,-166.666666666667,4,2,1,5,0,0

[Colours]
Combo1 : 128,255,255
Combo2 : 255,128,128
Combo3 : 128,255,128
Combo4 : 255,128,192
Combo5 : 255,128,64

[HitObjects]
398,99,263,5,2,0:0:0:0:
398,99,340,1,2,0:0:0:0:
398,99,417,6,0,B|412:120|440:136|475:136|475:136|346:248|346:248|392:252|422:260|440:284,1,359.999989013672,6|0,0:0|0:0,0:0:0:0:
178,379,1648,2,0,P|142:336|142:265,1,119.999996337891,8|0,0:0|0:0,0:0:0:0:
0,180,2110,2,0,P|55:170|116:205,1,119.999996337891,4|0,3:0|0:0,0:0:0:0:
227,165,2571,2,0,P|213:190|186:209,1,59.9999981689454,2|0,0:0|0:0,0:0:0:0:
98,46,2879,6,0,B|158:11|219:27|253:76|318:99|376:63|376:63|342:35|292:59,1,359.999989013672,6|0,0:0|0:0,0:0:0:0:
166,138,3956,1,8,0:0:0:0:
166,138,4033,1,8,0:0:0:0:
166,138,4110,5,8,0:0:0:0:
314,285,4263,2,0,P|379:277|419:234,1,119.999996337891,4|0,3:0|3:0,0:0:0:0:
199,253,4879,1,2,0:0:0:0:
83,366,5033,1,0,0:0:0:0:
8,175,5187,1,8,0:0:0:0:
8,175,5263,1,8,0:0:0:0:
8,175,5340,6,0,L|-1:114,1,59.9999981689454,6|0,0:0|0:0,0:0:0:0:
73,232,5648,2,0,L|64:291,1,59.9999981689454,2|0,0:0|0:0,0:0:0:0:
34,158,5956,6,0,L|25:97,1,59.9999981689454,2|0,0:0|0:0,0:0:0:0:
99,249,6264,2,0,L|90:308,1,59.9999981689454,2|0,0:0|0:0,0:0:0:0:
60,141,6571,6,0,L|51:81,1,59.9999981689454,2|0,0:0|0:0,0:0:0:0:
125,266,6879,2,0,L|116:325,1,59.9999981689454,2|0,0:0|0:0,0:0:0:0:
86,124,7187,6,0,L|77:64,1,59.9999981689454,2|0,0:0|0:0,0:0:0:0:
151,283,7495,2,0,L|142:344,1,59.9999981689454,2|0,0:0|0:0,0:0:0:0:
44,203,7802,5,8,0:0:0:0:
59,213,7879,1,8,0:0:0:0:
75,219,7956,1,8,0:0:0:0:
93,219,8033,1,8,0:0:0:0:
119,256,8110,5,8,0:0:0:0:
142,264,8187,1,8,0:0:0:0:
166,265,8264,1,8,0:0:0:0:
189,260,8341,1,8,0:0:0:0:
215,297,8417,5,8,0:0:0:0:
245,299,8494,1,8,0:0:0:0:
275,293,8571,1,8,0:0:0:0:
301,279,8648,1,8,0:0:0:0:
332,312,8725,5,8,0:0:0:0:
366,304,8802,1,8,0:0:0:0:
399,288,8879,1,8,0:0:0:0:
425,264,8956,1,8,0:0:0:0:
458,295,9033,6,0,P|453:327|458:358,2,59.9999981689454
509,204,9494,2,0,P|514:172|509:141,2,59.9999981689454
371,214,9956,1,0,0:0:0:0:
347,212,10033,1,0,0:0:0:0:
323,210,10110,6,0,L|163:198,1,150,6|0,0:0|0:0,0:0:0:0:
68,137,10417,2,0,L|137:131,1,50,2|0,0:0|0:0,0:0:0:0:
224,282,10571,2,0,L|115:272,1,100,8|0,0:0|0:0,0:0:0:0:
30,40,10879,1,2,0:0:0:0:
199,124,11033,1,2,0:0:0:0:
149,355,11187,1,8,0:0:0:0:
284,88,11340,1,0,0:0:0:0:
284,88,11417,1,0,0:0:0:0:
284,88,11494,6,0,L|286:31,1,50,2|0,0:0|0:0,0:0:0:0:
387,59,11648,2,0,L|385:116,1,50
302,61,11802,6,0,L|304:4,1,50,8|0,0:0|0:0,0:0:0:0:
405,32,11956,2,0,L|404:137,1,100,0|2,0:0|0:0,0:0:0:0:
291,292,12263,1,2,0:0:0:0:
469,202,12417,1,8,0:0:0:0:
269,127,12571,6,0,P|211:105|131:169,1,150,6|0,0:0|0:0,0:0:0:0:
215,240,12879,2,0,P|219:214|214:184,1,50,2|0,0:0|0:0,0:0:0:0:
70,100,13033,2,0,P|58:131|77:205,1,100,8|0,0:0|0:0,0:0:0:0:
302,204,13340,1,2,0:0:0:0:
186,31,13494,1,2,0:0:0:0:
386,155,13648,1,8,0:0:0:0:
137,241,13802,1,0,0:0:0:0:
137,241,13879,1,0,0:0:0:0:
137,241,13956,6,0,P|111:267|78:274,1,50,2|0,0:0|0:0,0:0:0:0:
113,113,14110,2,0,P|139:87|172:80,1,50
62,183,14263,2,0,P|36:157|29:124,1,50,8|0,0:0|0:0,0:0:0:0:
189,165,14417,2,0,P|221:203|227:258,1,100,0|2,0:0|0:0,0:0:0:0:
52,352,14725,1,8,0:0:0:0:
113,113,14879,1,8,0:0:0:0:
348,281,15033,6,0,B|391:303|453:291|476:239|476:239|494:271|475:303,1,200,6|2,0:0|0:0,0:0:0:0:
386,193,15494,1,8,0:0:0:0:
308,372,15648,1,0,0:0:0:0:
191,161,15802,1,2,0:0:0:0:
348,281,15956,1,0,0:0:0:0:
420,97,16110,1,8,0:0:0:0:
240,264,16263,1,0,0:0:0:0:
347,30,16417,5,2,0:0:0:0:
347,30,16571,1,0,0:0:0:0:
191,161,16725,1,8,0:0:0:0:
191,161,16879,1,0,0:0:0:0:
414,216,17033,1,2,0:0:0:0:
293,344,17187,1,0,0:0:0:0:
384,123,17340,1,8,0:0:0:0:
127,236,17494,6,0,P|172:256|222:250,1,100,6|0,0:0|0:0,0:0:0:0:
246,34,17802,1,2,0:0:0:0:
246,34,17879,1,2,0:0:0:0:
246,34,17956,1,8,0:0:0:0:
413,193,18110,1,2,0:0:0:0:
205,337,18263,1,8,0:0:0:0:
392,186,18417,1,2,0:0:0:0:
90,146,18571,1,12,0:0:0:0:
370,179,18725,1,2,0:0:0:0:
65,303,18879,5,8,0:0:0:0:
180,90,19033,1,2,0:0:0:0:
180,90,19110,1,2,0:0:0:0:
180,90,19187,1,8,0:0:0:0:
342,281,19340,1,2,0:0:0:0:
121,175,19494,1,8,0:0:0:0:
93,153,19570,1,8,0:0:0:0:
75,123,19647,1,8,0:0:0:0:
70,89,19724,1,8,0:0:0:0:
77,55,19802,2,0,P|95:20|120:4,1,50,8|0,0:0|0:0,0:0:0:0:
197,178,19956,6,0,L|14:174,1,150,6|0,0:0|0:0,0:0:0:0:
264,118,20263,2,0,L|323:110,1,50,2|0,0:0|0:0,0:0:0:0:
172,254,20417,2,0,L|59:251,1,100,8|0,0:0|0:0,0:0:0:0:
180,90,20725,1,2,0:0:0:0:
398,163,20879,1,2,0:0:0:0:
297,366,21033,1,8,0:0:0:0:
471,98,21187,1,0,0:0:0:0:
471,98,21263,1,0,0:0:0:0:
471,98,21340,6,0,L|475:37,1,50,2|0,0:0|0:0,0:0:0:0:
398,163,21494,2,0,L|402:224,1,50
493,122,21648,6,0,L|497:61,1,50,8|0,0:0|0:0,0:0:0:0:
420,187,21802,2,0,L|427:291,1,100,0|2,0:0|0:0,0:0:0:0:
332,63,22110,1,2,0:0:0:0:
139,144,22263,1,8,0:0:0:0:
259,350,22417,6,0,B|296:374|296:374|424:345,1,150,6|0,0:0|0:0,0:0:0:0:
205,288,22725,2,0,B|183:273|183:273|145:283,1,50,2|0,0:0|0:0,0:0:0:0:
283,275,22879,2,0,B|310:293|310:293|406:271,1,100,8|0,0:0|0:0,0:0:0:0:
171,378,23187,1,2,0:0:0:0:
324,197,23340,1,2,0:0:0:0:
86,330,23494,1,8,0:0:0:0:
53,82,23648,1,0,0:0:0:0:
53,82,23725,1,0,0:0:0:0:
53,82,23802,6,0,L|49:22,1,50,2|0,0:0|0:0,0:0:0:0:
141,85,23956,2,0,L|138:135,1,50
28,126,24110,6,0,L|24:66,1,50,8|0,0:0|0:0,0:0:0:0:
116,129,24264,2,0,L|112:228,1,100,0|2,0:0|0:0,0:0:0:0:
204,25,24571,1,8,0:0:0:0:
204,25,24648,1,8,0:0:0:0:
204,25,24725,1,8,0:0:0:0:
247,222,24879,6,0,P|295:215|333:183,1,100,6|0,0:0|0:0,0:0:0:0:
505,302,25187,1,2,0:0:0:0:
333,183,25340,1,8,0:0:0:0:
298,382,25494,1,0,0:0:0:0:
484,279,25648,5,2,0:0:0:0:
312,160,25801,1,0,0:0:0:0:
277,359,25955,1,8,0:0:0:0:
463,256,26110,5,0,0:0:0:0:
291,137,26263,1,2,0:0:0:0:
256,336,26417,1,0,0:0:0:0:
442,233,26571,5,8,0:0:0:0:
270,114,26725,1,0,0:0:0:0:
235,313,26878,1,2,0:0:0:0:
400,127,27033,5,0,0:0:0:0:
179,52,27187,2,0,L|72:48,1,100,8|0,0:0|0:0,0:0:0:0:
351,9,27494,5,12,0:0:0:0:
390,5,27571,1,2,0:0:0:0:
429,13,27647,1,2,0:0:0:0:
463,33,27724,1,2,0:0:0:0:
489,63,27802,2,0,P|502:87|506:115,1,50,2|2,0:0|0:0,0:0:0:0:
412,266,27956,5,12,0:0:0:0:
371,268,28033,1,2,0:0:0:0:
332,260,28109,1,2,0:0:0:0:
298,239,28186,1,2,0:0:0:0:
272,210,28264,2,0,P|258:185|254:157,1,50,2|2,0:0|0:0,0:0:0:0:
412,109,28417,5,8,0:0:0:0:
412,109,28494,1,8,0:0:0:0:
412,109,28571,2,0,P|419:157|395:97,1,239.999992675781,6|0,0:0|0:0,0:0:0:0:
387,267,29340,6,0,L|389:310,1,29.9999990844727
300,273,29494,2,0,L|302:316,1,29.9999990844727,2|2,0:0|0:0,0:0:0:0:
213,279,29648,2,0,L|215:322,1,29.9999990844727,8|0,0:0|0:0,0:0:0:0:
126,285,29802,2,0,L|128:328,1,29.9999990844727
165,208,29956,6,0,P|144:201|123:199,1,29.9999990844727,12|0,0:0|0:0,0:0:0:0:
57,206,30110,2,0,P|45:214|23:234,1,29.9999990844727
5,304,30263,2,0,P|-2:337|1:370,1,59.9999981689454,8|0,0:0|0:0,0:0:0:0:
95,126,30571,1,8,0:0:0:0:
347,145,30725,2,0,L|372:129,1,29.9999990844727,2|0,0:0|0:0,0:0:0:0:
204,138,30879,2,0,L|174:134,1,29.9999990844727,8|0,0:0|0:0,0:0:0:0:
316,227,31033,2,0,L|338:246,1,29.9999990844727
278,90,31186,6,0,L|271:60,1,29.9999990844727,8|0,0:0|0:0,0:0:0:0:
228,223,31340,2,0,L|216:250,1,29.9999990844727
353,165,31494,2,0,L|417:131,1,59.9999981689454,8|0,0:0|0:0,0:0:0:0:
204,138,31802,1,8,0:0:0:0:
308,316,31956,1,2,0:0:0:0:
281,325,32033,1,0,0:0:0:0:
253,323,32110,1,8,0:0:0:0:
121,225,32263,1,0,0:0:0:0:
1,346,32417,6,0,L|0:384,1,29.9999990844727,8|0,0:0|0:0,0:0:0:0:
82,333,32571,2,0,L|81:371,1,29.9999990844727
163,316,32725,2,0,L|161:384,1,59.9999981689454,8|0,0:0|0:0,0:0:0:0:
121,225,33033,1,8,0:0:0:0:
322,288,33187,2,0,L|305:323,1,29.9999990844727,2|0,0:0|0:0,0:0:0:0:
394,129,33340,2,0,L|406:101,1,29.9999990844727,8|0,0:0|0:0,0:0:0:0:
270,218,33494,2,0,L|240:220,1,29.9999990844727
446,199,33648,6,0,L|475:196,1,29.9999990844727,8|0,0:0|0:0,0:0:0:0:
306,137,33802,2,0,L|288:112,1,29.9999990844727
410,280,33956,2,0,L|432:311,1,29.9999990844727,8|0,0:0|0:0,0:0:0:0:
366,215,34110,1,2,0:0:0:0:
366,215,34187,1,2,0:0:0:0:
366,215,34263,1,8,0:0:0:0:
487,115,34417,1,2,0:0:0:0:
503,272,34571,2,0,L|506:334,1,59.9999981689454,8|2,0:0|0:0,0:0:0:0:
320,381,34879,6,0,L|311:336,1,29.9999990844727,12|0,0:0|0:0,0:0:0:0:
233,357,35033,2,0,L|224:312,1,29.9999990844727
148,341,35187,2,0,L|136:281,1,59.9999981689454,8|0,0:0|0:0,0:0:0:0:
0,192,35494,1,8,0:0:0:0:
214,115,35648,2,0,L|240:99,1,29.9999990844727,2|0,0:0|0:0,0:0:0:0:
72,108,35802,2,0,L|42:104,1,29.9999990844727,8|0,0:0|0:0,0:0:0:0:
183,197,35956,2,0,L|205:215,1,29.9999990844727
145,59,36110,6,0,L|136:20,1,29.9999990844727,8|0,0:0|0:0,0:0:0:0:
95,193,36263,2,0,L|83:219,1,29.9999990844727
214,135,36417,2,0,L|278:101,1,59.9999981689454,8|0,0:0|0:0,0:0:0:0:
379,225,36725,1,8,0:0:0:0:
354,352,36879,1,2,0:0:0:0:
374,353,36956,1,2,0:0:0:0:
394,354,37033,2,0,L|467:358,1,59.9999981689454,8|0,0:0|0:0,0:0:0:0:
307,186,37340,6,0,P|296:209|293:228,1,29.9999990844727,12|0,0:0|0:0,0:0:0:0:
216,216,37494,2,0,P|219:241|228:259,1,29.9999990844727
166,310,37648,2,0,P|199:327|233:327,1,59.9999981689454,8|0,0:0|0:0,0:0:0:0:
379,225,37956,1,8,0:0:0:0:
131,230,38110,1,2,0:0:0:0:
131,230,38187,1,2,0:0:0:0:
131,230,38263,2,0,L|58:233,1,59.9999981689454,8|0,0:0|0:0,0:0:0:0:
238,127,38571,5,8,0:0:0:0:
339,331,38725,1,2,0:0:0:0:
339,331,38802,1,2,0:0:0:0:
339,331,38879,1,12,0:0:0:0:
461,198,39033,1,4,3:0:0:0:
289,221,39187,1,2,0:0:0:0:
374,10,39340,1,8,0:0:0:0:
374,10,39417,1,8,0:0:0:0:
374,10,39494,1,8,0:0:0:0:
134,92,39648,1,8,0:0:0:0:
134,92,39725,1,8,0:0:0:0:
134,92,39802,6,0,P|116:143|131:199,1,100,6|0,0:0|0:0,0:0:0:0:
185,361,40110,2,0,P|203:310|188:254,1,100,8|0,0:0|0:0,0:0:0:0:
99,305,40417,1,2,0:0:0:0:
218,150,40571,1,2,0:0:0:0:
373,292,40725,1,8,0:0:0:0:
216,127,40879,1,0,0:0:0:0:
290,357,41033,5,2,0:0:0:0:
382,171,41187,1,0,0:0:0:0:
230,249,41340,1,8,0:0:0:0:
470,270,41494,1,0,0:0:0:0:
420,64,41648,1,2,0:0:0:0:
313,226,41802,1,2,0:0:0:0:
512,120,41956,1,8,0:0:0:0:
312,83,42110,6,0,L|210:88,1,100,0|2,0:0|0:0,0:0:0:0:
418,342,42417,2,0,P|474:360|514:349,1,100,0|8,0:0|0:0,0:0:0:0:
403,204,42725,1,0,0:0:0:0:
301,340,42879,1,2,0:0:0:0:
512,226,43033,1,2,0:0:0:0:
283,91,43187,1,8,0:0:0:0:
334,258,43340,1,0,0:0:0:0:
478,120,43494,5,2,0:0:0:0:
258,183,43648,1,0,0:0:0:0:
429,310,43802,1,8,0:0:0:0:
315,92,43956,1,0,0:0:0:0:
175,299,44110,2,0,L|64:287,1,100,2|0,0:0|0:0,0:0:0:0:
179,86,44417,1,8,0:0:0:0:
307,275,44571,6,0,B|474:296|474:296|438:265,1,200,6|2,0:0|0:0,0:0:0:0:
238,202,45033,2,0,P|208:238|205:298,1,100,8|0,0:0|0:0,0:0:0:0:
272,372,45340,1,2,0:0:0:0:
396,193,45494,1,0,0:0:0:0:
160,129,45648,1,8,0:0:0:0:
374,196,45802,1,2,0:0:0:0:
154,269,45956,5,0,0:0:0:0:
288,76,46110,1,2,0:0:0:0:
403,285,46263,1,8,0:0:0:0:
177,143,46417,1,0,0:0:0:0:
391,96,46571,1,2,0:0:0:0:
240,218,46725,1,0,0:0:0:0:
130,28,46879,1,8,0:0:0:0:
309,153,47033,1,0,0:0:0:0:
204,350,47187,6,0,P|159:362|103:351,1,100,6|0,0:0|0:0,0:0:0:0:
0,151,47494,1,8,0:0:0:0:
152,263,47648,1,0,0:0:0:0:
322,135,47802,2,0,B|334:98|334:98|311:33,1,100,2|0,0:0|0:0,0:0:0:0:
251,272,48110,1,8,0:0:0:0:
421,342,48263,2,0,P|375:360|329:346,1,100,0|2,0:0|0:0,0:0:0:0:
100,187,48571,6,0,P|146:169|193:184,1,100,2|8,0:0|0:0,0:0:0:0:
371,275,48879,1,8,0:0:0:0:
371,275,48956,1,8,0:0:0:0:
371,275,49033,1,8,0:0:0:0:
152,263,49187,1,2,0:0:0:0:
374,180,49340,1,4,3:0:0:0:
143,83,49494,1,2,0:0:0:0:
416,96,49648,5,6,0:0:0:0:
416,96,49802,1,2,0:0:0:0:
238,304,50110,2,0,B|240:315|240:315|231:318|231:318|231:329|231:329|218:333|218:333|216:345|216:345|205:343|205:343|199:356|199:356|185:354|185:354|178:363|178:363|167:359|167:359|160:366|160:366|147:361|147:361|135:365|135:365|127:356,1,160,8|0,0:0|0:0,0:0:0:0:
152,263,50571,1,2,0:0:0:0:
152,263,50725,1,2,0:0:0:0:
358,351,51033,6,0,B|366:343|366:343|373:351|373:351|382:343|382:343|389:351|389:351|395:343|395:343|403:351|403:351|410:343|410:343|417:351|417:351|424:343|424:343|430:351|430:351|438:343|438:343|445:351|445:351|452:343|452:343|458:351|458:351|465:343|465:343|471:351|471:351,1,160,8|0,0:0|0:0,0:0:0:0:
359,248,51494,1,2,0:0:0:0:
330,249,51571,1,2,0:0:0:0:
302,251,51648,1,2,0:0:0:0:
274,253,51725,1,2,0:0:0:0:
246,254,51802,1,8,0:0:0:0:
490,47,52110,5,6,0:0:0:0:
490,47,52263,1,2,0:0:0:0:
223,111,52571,6,0,B|213:117|213:117|208:108|208:108|197:114|197:114|192:105|192:105|185:112|185:112|178:103|178:103|170:109|170:109|164:100|164:100|156:107|156:107|152:98|152:98|142:104|142:104|137:95|137:95|129:102|129:102|124:93|124:93|116:100|116:100|111:91|111:91,1,160,8|0,0:0|0:0,0:0:0:0:
38,167,53033,1,2,0:0:0:0:
38,167,53187,1,2,0:0:0:0:
304,159,53494,5,8,0:0:0:0:
304,159,53648,1,8,0:0:0:0:
466,301,53802,1,2,0:0:0:0:
466,301,53879,1,8,0:0:0:0:
466,301,53956,1,8,0:0:0:0:
368,333,54110,1,4,3:0:0:0:
287,262,54263,1,2,0:0:0:0:
385,230,54417,1,2,0:0:0:0:
270,365,54571,5,6,0:0:0:0:
256,240,56725,1,8,0:0:0:0:
256,212,56802,1,2,0:0:0:0:
256,184,56879,1,2,0:0:0:0:
256,156,56956,1,2,0:0:0:0:
256,121,57033,6,0,L|256:21,1,100,12|0,0:0|0:0,0:0:0:0:
256,320,57340,1,8,0:0:0:0:
160,128,57494,1,8,0:0:0:0:
160,128,57571,1,2,0:0:0:0:
160,128,57648,2,0,P|131:132|99:161,1,50,8|0,0:0|0:0,0:0:0:0:
352,128,57802,1,8,0:0:0:0:
352,128,57879,1,2,0:0:0:0:
352,128,57956,2,0,P|381:132|410:155,1,50,8|0,0:0|0:0,0:0:0:0:
256,320,58110,1,8,0:0:0:0:
256,320,58187,1,8,0:0:0:0:
256,320,58263,6,0,L|257:234,3,59.9999981689454,2|0|0|0,0:0|0:0|0:0|0:0,0:0:0:0:
256,180,58879,6,0,L|257:94,1,59.9999981689454
256,36,59187,5,0,0:0:0:0:
472,272,59340,6,0,B|492:299|483:322|483:322|440:276|376:270|323:301,1,220.000006713867,6|2,0:0|0:0,0:0:0:0:
426,65,59802,2,0,P|437:123|424:180,1,110.000003356934,8|0,0:0|0:0,0:0:0:0:
330,296,60110,1,2,0:0:0:0:
512,195,60263,1,0,0:0:0:0:
299,60,60417,1,8,0:0:0:0:
336,266,60571,6,0,B|272:253|272:253|185:274|185:274|116:259,1,220.000006713867,2|2,0:0|0:0,0:0:0:0:
274,348,61033,1,8,0:0:0:0:
184,180,61187,1,0,0:0:0:0:
383,100,61340,1,2,0:0:0:0:
120,260,61494,2,0,P|85:205|86:154,1,110.000003356934,0|8,0:0|0:0,0:0:0:0:
383,99,61802,6,0,B|297:176|271:108|184:180,1,220.000006713867,6|2,0:0|0:0,0:0:0:0:
477,119,62263,2,0,P|472:64|441:20,1,110.000003356934,8|0,0:0|0:0,0:0:0:0:
272,244,62571,1,2,0:0:0:0:
297,40,62725,1,2,0:0:0:0:
419,203,62879,1,8,0:0:0:0:
184,179,63033,6,0,B|148:173|148:173|60:190,1,110.000003356934,2|0,0:0|0:0,0:0:0:0:
229,335,63340,1,2,0:0:0:0:
283,139,63494,2,0,P|291:193|272:244,1,110.000003356934,8|0,0:0|0:0,0:0:0:0:
151,269,63802,1,2,0:0:0:0:
186,76,63956,1,8,0:0:0:0:
186,76,64033,1,8,0:0:0:0:
186,76,64110,1,8,0:0:0:0:
419,203,64263,6,0,B|458:205|486:172|486:172|447:315,1,220.000006713867,6|2,0:0|0:0,0:0:0:0:
416,110,64725,1,8,0:0:0:0:
512,384,64879,1,0,0:0:0:0:
264,290,65033,1,2,0:0:0:0:
502,234,65187,1,2,0:0:0:0:
289,285,65340,1,8,0:0:0:0:
431,122,65494,6,0,L|425:12,1,110.000003356934,0|2,0:0|0:0,0:0:0:0:
269,196,65802,1,0,0:0:0:0:
97,35,65956,1,8,0:0:0:0:
244,201,66110,1,0,0:0:0:0:
17,338,66263,1,2,0:0:0:0:
219,209,66417,1,8,0:0:0:0:
248,216,66494,1,8,0:0:0:0:
277,224,66571,1,8,0:0:0:0:
9,225,66725,6,0,P|6:168|48:112,1,110.000003356934,6|0,0:0|0:0,0:0:0:0:
216,330,67033,1,2,0:0:0:0:
347,83,67187,1,8,0:0:0:0:
216,330,67340,1,2,0:0:0:0:
177,52,67494,1,8,0:0:0:0:
372,254,67647,1,2,0:0:0:0:
94,207,67802,1,8,0:0:0:0:
369,82,67955,1,2,0:0:0:0:
78,194,68110,5,8,0:0:0:0:
379,274,68263,1,2,0:0:0:0:
182,32,68417,1,8,0:0:0:0:
199,342,68570,1,2,0:0:0:0:
272,68,68725,1,8,0:0:0:0:
315,65,68802,1,8,0:0:0:0:
358,62,68879,1,8,0:0:0:0:
401,59,68956,1,8,0:0:0:0:
445,57,69033,2,0,L|509:54,1,55.0000016784668,8|0,0:0|0:0,0:0:0:0:
234,154,69187,6,0,B|180:139|150:73|186:14|186:14|112:59,1,220.000006713867,6|0,0:0|0:0,0:0:0:0:
60,280,69648,2,0,B|84:293|99:323|97:358|97:358|132:338,1,110.000003356934,8|0,0:0|0:0,0:0:0:0:
103,180,69956,2,0,P|48:170|-18:207,1,110.000003356934,2|0,0:0|0:0,0:0:0:0:
257,288,70263,1,8,0:0:0:0:
257,288,70417,6,0,B|328:279|328:279|394:302|394:302|476:291,1,220.000006713867,2|2,0:0|0:0,0:0:0:0:
421,104,70879,2,0,P|430:145|401:208,1,110.000003356934,8|0,0:0|0:0,0:0:0:0:
315,372,71187,1,2,0:0:0:0:
336,137,71340,1,2,0:0:0:0:
471,291,71494,1,8,0:0:0:0:
221,178,71648,6,0,P|173:181|98:140,1,110.000003356934,6|0,0:0|0:0,0:0:0:0:
189,72,71956,1,2,0:0:0:0:
51,244,72110,2,0,L|42:366,1,110.000003356934,8|0,0:0|0:0,0:0:0:0:
250,308,72417,1,2,0:0:0:0:
116,157,72571,1,0,0:0:0:0:
270,300,72725,1,8,0:0:0:0:
422,116,72879,6,0,L|431:6,1,110.000003356934,0|2,0:0|0:0,0:0:0:0:
260,159,73187,1,0,0:0:0:0:
512,115,73340,1,8,0:0:0:0:
421,341,73494,1,0,0:0:0:0:
260,159,73648,1,8,0:0:0:0:
228,137,73724,1,8,0:0:0:0:
191,128,73801,1,8,0:0:0:0:
152,131,73879,1,8,0:0:0:0:
118,148,73956,2,0,P|90:174|74:204,1,55.0000016784668,8|0,0:0|0:0,0:0:0:0:
292,259,74110,6,0,P|355:194|305:70,1,220.000006713867,6|2,0:0|0:0,0:0:0:0:
184,236,74571,1,8,0:0:0:0:
416,185,74725,1,0,0:0:0:0:
238,37,74879,1,2,0:0:0:0:
387,181,75033,1,0,0:0:0:0:
242,351,75187,1,8,0:0:0:0:
191,128,75340,6,0,P|138:136|84:195,1,110.000003356934,2|0,0:0|0:0,0:0:0:0:
363,278,75648,1,2,0:0:0:0:
238,37,75802,1,8,0:0:0:0:
184,236,75956,1,0,0:0:0:0:
436,212,76110,1,2,0:0:0:0:
265,285,76263,1,2,0:0:0:0:
318,76,76417,1,8,0:0:0:0:
446,313,76571,1,2,0:0:0:0:
199,367,76725,5,12,0:0:0:0:
172,339,76801,1,8,0:0:0:0:
157,304,76878,1,8,0:0:0:0:
156,265,76955,1,8,0:0:0:0:
168,229,77032,1,8,0:0:0:0:
192,199,77109,1,8,0:0:0:0:
229,185,77187,5,4,3:0:0:0:
191,176,77263,1,4,3:0:0:0:
153,167,77340,1,4,3:0:0:0:
115,158,77417,1,4,3:0:0:0:
77,149,77494,1,4,3:0:0:0:
39,141,77571,1,4,3:0:0:0:
1,133,77648,5,2,0:0:0:0:
38,119,77726,1,2,0:0:0:0:
62,89,77802,1,2,0:0:0:0:
74,53,77880,1,2,0:0:0:0:
73,14,77957,5,8,0:0:0:0:
375,230,78571,2,0,L|379:168,1,55.0000016784668
424,308,78725,2,0,L|428:370,1,55.0000016784668
469,230,78879,1,8,0:0:0:0:
469,230,78956,1,8,0:0:0:0:
469,230,79033,6,0,L|480:74,1,150,6|0,0:0|0:0,0:0:0:0:
424,308,79340,2,0,P|453:320|485:316,1,50,2|0,0:0|0:0,0:0:0:0:
375,230,79494,2,0,P|312:238|261:277,1,100,8|0,0:0|0:0,0:0:0:0:
157,384,79802,1,2,0:0:0:0:
225,188,79956,1,2,0:0:0:0:
12,214,80110,1,8,0:0:0:0:
229,61,80263,1,0,0:0:0:0:
229,61,80340,1,0,0:0:0:0:
229,61,80417,6,0,P|259:69|289:65,1,50,2|0,0:0|0:0,0:0:0:0:
294,147,80571,2,0,P|323:136|345:115,1,50
394,182,80725,2,0,P|409:163|417:139,1,50,8|0,0:0|0:0,0:0:0:0:
457,236,80879,2,0,L|461:348,1,100,0|2,0:0|0:0,0:0:0:0:
289,384,81187,1,2,0:0:0:0:
362,209,81340,1,8,0:0:0:0:
181,202,81494,6,0,P|136:185|44:240,1,150,6|0,0:0|0:0,0:0:0:0:
247,261,81802,2,0,P|277:259|301:246,1,50,2|0,0:0|0:0,0:0:0:0:
197,123,81956,2,0,P|141:106|93:110,1,100,8|0,0:0|0:0,0:0:0:0:
137,290,82263,1,2,0:0:0:0:
362,209,82417,1,2,0:0:0:0:
290,15,82571,1,8,0:0:0:0:
474,204,82725,1,0,0:0:0:0:
474,204,82802,1,0,0:0:0:0:
474,204,82879,6,0,L|481:259,1,50,2|0,0:0|0:0,0:0:0:0:
379,317,83033,2,0,L|372:262,1,50
452,180,83187,6,0,L|459:235,1,50,8|0,0:0|0:0,0:0:0:0:
357,293,83341,2,0,L|341:188,1,100,0|2,0:0|0:0,0:0:0:0:
386,6,83648,1,8,0:0:0:0:
386,6,83725,1,8,0:0:0:0:
386,6,83802,1,8,0:0:0:0:
259,152,83956,6,0,B|219:167|173:155|146:126|146:126|127:170|78:175,1,200,6|2,0:0|0:0,0:0:0:0:
222,52,84417,1,8,0:0:0:0:
167,248,84571,1,0,0:0:0:0:
56,78,84725,1,2,0:0:0:0:
259,152,84879,1,0,0:0:0:0:
69,264,85033,1,8,0:0:0:0:
205,46,85187,1,0,0:0:0:0:
370,185,85340,5,2,0:0:0:0:
147,129,85494,1,0,0:0:0:0:
140,353,85648,1,8,0:0:0:0:
164,136,85802,1,0,0:0:0:0:
301,330,85956,1,2,0:0:0:0:
180,143,86110,1,0,0:0:0:0:
369,26,86263,1,8,0:0:0:0:
485,219,86417,6,0,P|491:266|475:323,1,100,6|0,0:0|0:0,0:0:0:0:
217,237,86725,1,2,0:0:0:0:
217,237,86802,1,2,0:0:0:0:
217,237,86879,1,8,0:0:0:0:
395,260,87033,1,2,0:0:0:0:
127,226,87187,5,8,0:0:0:0:
305,250,87341,1,2,0:0:0:0:
38,212,87494,5,12,0:0:0:0:
217,237,87648,1,2,0:0:0:0:
46,339,87802,5,8,0:0:0:0:
72,98,87956,1,2,0:0:0:0:
72,98,88033,1,8,0:0:0:0:
72,98,88110,1,8,0:0:0:0:
174,358,88263,1,2,0:0:0:0:
174,358,88340,1,2,0:0:0:0:
174,358,88417,1,8,0:0:0:0:
200,117,88571,1,2,0:0:0:0:
234,121,88648,1,2,0:0:0:0:
268,125,88725,1,8,0:0:0:0:
302,129,88802,1,8,0:0:0:0:
336,133,88879,6,0,B|377:109|377:109|358:223|358:223,1,150,6|0,0:0|0:0,0:0:0:0:
366,30,89187,2,0,P|397:32|427:49,1,50,2|0,0:0|0:0,0:0:0:0:
387,287,89340,2,0,P|336:287|281:238,1,100,8|0,0:0|0:0,0:0:0:0:
499,181,89648,1,2,0:0:0:0:
419,376,89802,1,2,0:0:0:0:
456,112,89956,1,8,0:0:0:0:
221,227,90110,1,0,0:0:0:0:
221,227,90187,1,0,0:0:0:0:
221,227,90263,6,0,L|171:219,1,50,2|0,0:0|0:0,0:0:0:0:
124,313,90417,2,0,L|174:321,1,50
234,248,90571,6,0,L|184:240,1,50,8|0,0:0|0:0,0:0:0:0:
137,334,90725,2,0,L|242:350,1,100,0|2,0:0|0:0,0:0:0:0:
76,232,91033,1,2,0:0:0:0:
326,303,91187,1,8,0:0:0:0:
233,103,91340,6,0,B|271:116|271:116|397:79,1,150,6|0,0:0|0:0,0:0:0:0:
433,200,91648,2,0,B|429:174|429:174|383:132,1,50,2|0,0:0|0:0,0:0:0:0:
493,0,91802,2,0,B|471:18|471:18|450:107,1,100,8|0,0:0|0:0,0:0:0:0:
341,230,92110,1,2,0:0:0:0:
271,11,92263,1,2,0:0:0:0:
250,281,92417,1,8,0:0:0:0:
87,124,92571,1,0,0:0:0:0:
87,124,92648,1,0,0:0:0:0:
87,124,92725,6,0,P|65:111|27:109,1,50,2|0,0:0|0:0,0:0:0:0:
46,195,92879,2,0,P|17:196|-7:212,1,50
42,277,93033,2,0,P|15:306|7:334,1,50,8|0,0:0|0:0,0:0:0:0:
88,344,93187,2,0,L|199:333,1,100,0|2,0:0|0:0,0:0:0:0:
304,127,93494,1,8,0:0:0:0:
304,127,93571,1,8,0:0:0:0:
304,127,93648,1,8,0:0:0:0:
464,357,93802,6,0,L|356:369,1,100,6|0,0:0|0:0,0:0:0:0:
197,234,94110,1,2,0:0:0:0:
383,72,94263,1,8,0:0:0:0:
383,72,94417,1,0,0:0:0:0:
278,260,94571,5,2,0:0:0:0:
181,33,94725,1,0,0:0:0:0:
181,33,94879,1,8,0:0:0:0:
328,192,95034,5,0,0:0:0:0:
81,213,95186,1,2,0:0:0:0:
81,213,95340,1,0,0:0:0:0:
278,123,95494,5,8,0:0:0:0:
222,364,95648,1,0,0:0:0:0:
222,364,95802,1,2,0:0:0:0:
197,149,95956,5,0,0:0:0:0:
409,277,96110,1,8,0:0:0:0:
409,277,96264,1,2,0:0:0:0:
214,67,96417,5,12,0:0:0:0:
179,66,96493,1,8,0:0:0:0:
146,78,96570,1,2,0:0:0:0:
122,103,96647,1,2,0:0:0:0:
109,135,96725,2,0,P|111:174|126:200,1,50,2|2,0:0|0:0,0:0:0:0:
245,266,96879,5,12,0:0:0:0:
246,302,96956,1,8,0:0:0:0:
232,334,97033,1,2,0:0:0:0:
208,359,97110,1,2,0:0:0:0:
175,371,97187,2,0,P|141:373|109:368,1,50,2|2,0:0|0:0,0:0:0:0:
215,164,97340,5,8,0:0:0:0:
215,164,97417,1,8,0:0:0:0:
215,164,97494,2,0,P|416:131|425:376,1,509.999984436036,6|0,0:0|0:0,0:0:0:0:
335,256,98879,5,6,0:0:0:0:
256,192,98956,12,0,103802,0:0:0:0:
