osu file format v14

[General]
AudioFilename: audio.mp3
AudioLeadIn: 0
PreviewTime: 58740
Countdown: 0
SampleSet: Soft
StackLeniency: 0.7
Mode: 2
LetterboxInBreaks: 0
WidescreenStoryboard: 0

[Editor]
DistanceSpacing: 0.4
BeatDivisor: 4
GridSize: 16
TimelineZoom: 2.1

[Metadata]
Title:LOUDER
TitleUnicode:LOUDER
Artist:Roselia
ArtistUnicode:Roselia
Creator:scanter
Version:Crystal's Rain
Source:バンドリ!ガールズバンドパーティ!
Tags:Event Garupa Bandori BanG Dream! ガルパ! Girls Band Party! Minato Yukina 湊友希那 Hikawa Sayo 氷川紗夜 Imai Lisa 今井リサ Udagawa Ako 宇田川あこ Shirogane Rinko 白金燐子 ロゼリア Aiba Aina 相羽あいな Akesaka Satomi 明坂聡美 Endou Yurika 遠藤ゆりか Kudou Haruka 工藤晴香 Sakuragawa Megu 桜川めぐ eLy _Meep_ Meep Yuria Anais CLSW Crystal groundswim JarrenTanJR Ancelyze Rayon BLACK SHOUT Game Version
BeatmapID:1270273
BeatmapSetID:595580

[Difficulty]
HPDrainRate:5.5
CircleSize:4
OverallDifficulty:9.1
ApproachRate:9.1
SliderMultiplier:2
SliderTickRate:1

[Events]
//Background and Video events
0,0,"yukina.jpg",0,0
//Break Periods
//Storyboard Layer 0 (Background)
//Storyboard Layer 1 (Fail)
//Storyboard Layer 2 (Pass)
//Storyboard Layer 3 (Foreground)
//Storyboard Sound Samples

[TimingPoints]
-813,307.692307692308,4,2,1,100,1,0
417,-166.666666666667,4,2,1,70,0,0
3956,-100,4,2,1,70,0,0
4110,-166.666666666667,4,2,1,70,0,0
7802,-166.666666666667,4,2,1,40,0,0
8110,-166.666666666667,4,2,1,50,0,0
8417,-125,4,2,1,60,0,0
8725,-100,4,2,1,70,0,0
9033,-166.666666666667,4,2,1,30,0,0
10110,-125,4,2,1,90,0,1
10187,-125,4,2,1,90,0,0
28571,-166.666666666667,4,2,1,70,0,0
39187,-142.857142857143,4,2,1,70,0,0
39802,-125,4,2,1,90,0,0
49648,-142.857142857143,4,2,1,90,0,0
57033,-125,4,2,1,90,0,0
58263,-166.666666666667,4,2,1,90,0,0
59340,-100,4,2,1,100,0,1
69033,-100,4,2,1,100,0,0
69187,-100,4,2,1,100,0,1
79033,-125,4,2,1,90,0,0
97494,-166.666666666667,4,2,1,80,0,0
98879,-166.666666666667,4,2,1,60,0,0
99494,-166.666666666667,4,2,1,50,0,0
100110,-166.666666666667,4,2,1,42,0,0
100725,-166.666666666667,4,2,1,34,0,0
101340,-166.666666666667,4,2,1,26,0,0
101956,-166.666666666667,4,2,1,18,0,0
102571,-166.666666666667,4,2,1,14,0,0
103187,-166.666666666667,4,2,1,10,0,0
103802,-166.666666666667,4,2,1,5,0,0

[Colours]
Combo1 : 128,255,255
Combo2 : 255,128,128
Combo3 : 128,255,128
Combo4 : 255,128,192
Combo5 : 255,128,64

[HitObjects]
188,138,263,6,0,L|183:202,1,50,2|2,0:0|0:0,0:0:0:0:
352,192,417,1,6,0:0:0:0:
133,149,1340,6,0,P|106:187|126:270,1,119.999996337891,0|8,0:0|0:0,0:0:0:0:
350,186,2110,2,0,L|353:211,1,14.9999995422363,4|0,3:0|0:0,0:0:0:0:
165,184,2571,1,2,0:0:0:0:
400,144,2879,5,6,0:0:0:0:
127,194,3802,1,0,0:0:0:0:
385,194,4110,5,8,0:0:0:0:
256,139,4263,2,0,L|377:136,1,119.999996337891,4|0,3:0|3:0,0:0:0:0:
137,136,4879,1,2,0:0:0:0:
336,129,5187,2,0,L|341:175,1,29.9999990844727,8|8,0:0|0:0,0:0:0:0:
123,168,5340,5,6,0:0:0:0:
85,210,5494,1,0,0:0:0:0:
103,264,5648,1,2,0:0:0:0:
160,274,5802,1,0,0:0:0:0:
293,259,5956,2,0,L|362:262,1,59.9999981689454,2|0,0:0|0:0,0:0:0:0:
220,211,6263,2,0,L|151:214,1,59.9999981689454,2|0,0:0|0:0,0:0:0:0:
389,168,6571,5,2,0:0:0:0:
427,210,6725,1,0,0:0:0:0:
409,264,6879,1,2,0:0:0:0:
352,274,7033,1,0,0:0:0:0:
219,259,7187,2,0,L|150:262,1,59.9999981689454,2|0,0:0|0:0,0:0:0:0:
292,211,7494,2,0,L|361:214,1,59.9999981689454,2|0,0:0|0:0,0:0:0:0:
65,120,7802,6,0,L|62:199,1,59.9999981689454,8|8,0:0|0:0,0:0:0:0:
447,120,8110,2,0,L|450:199,1,59.9999981689454,8|8,0:0|0:0,0:0:0:0:
198,93,8417,5,8,0:0:0:0:
162,124,8494,1,8,0:0:0:0:
141,167,8571,1,8,0:0:0:0:
141,214,8648,1,8,0:0:0:0:
160,258,8725,1,8,0:0:0:0:
196,289,8802,1,8,0:0:0:0:
242,303,8879,1,8,0:0:0:0:
290,297,8956,1,8,0:0:0:0:
450,264,9033,6,0,L|453:193,1,59.9999981689454,0|0,0:0|0:0,0:0:0:0:
318,197,9340,2,0,L|315:126,1,59.9999981689454,0|0,0:0|0:0,0:0:0:0:
450,131,9648,2,0,L|379:128,2,59.9999981689454,0|0|0,0:0|0:0|0:0,0:0:0:0:
198,118,10110,6,0,P|149:156|207:230,1,160,6|2,0:0|0:0,0:0:0:0:
353,234,10571,2,0,L|261:232,1,80,8|0,0:0|0:0,0:0:0:0:
403,236,10879,2,0,L|407:147,1,80,2|2,0:0|0:0,0:0:0:0:
324,152,11187,1,8,0:0:0:0:
487,160,11340,1,0,0:0:0:0:
250,110,11494,6,0,L|159:106,2,80,2|0|8,0:0|0:0|0:0,0:0:0:0:
123,106,11956,2,0,L|117:191,1,80,0|2,0:0|0:0,0:0:0:0:
273,177,12263,2,0,L|279:262,1,80,2|8,0:0|0:0,0:0:0:0:
23,286,12571,6,0,L|207:286,1,160,6|2,0:0|0:0,0:0:0:0:
341,283,13033,2,0,L|253:283,1,80,8|0,0:0|0:0,0:0:0:0:
101,224,13340,1,2,0:0:0:0:
240,222,13494,2,0,L|242:133,1,80,2|8,0:0|0:0,0:0:0:0:
103,141,13802,1,0,0:0:0:0:
332,136,13956,6,0,L|421:138,2,80,2|0|8,0:0|0:0|0:0,0:0:0:0:
465,137,14417,2,0,L|469:221,1,80,0|2,0:0|0:0,0:0:0:0:
238,217,14725,1,8,0:0:0:0:
234,256,14802,1,8,0:0:0:0:
231,296,14879,1,8,0:0:0:0:
469,291,15033,6,0,L|301:288,1,160,6|2,0:0|0:0,0:0:0:0:
451,257,15494,2,0,L|454:173,1,80,8|0,0:0|0:0,0:0:0:0:
309,181,15802,2,0,L|393:178,1,80,2|0,0:0|0:0,0:0:0:0:
243,178,16110,2,0,L|240:94,1,80,8|0,0:0|0:0,0:0:0:0:
479,84,16417,6,0,L|389:79,1,80,2|0,0:0|0:0,0:0:0:0:
238,67,16725,2,0,L|328:72,1,80,8|0,0:0|0:0,0:0:0:0:
160,62,17033,2,0,L|156:145,1,80,2|0,0:0|0:0,0:0:0:0:
289,153,17340,1,8,0:0:0:0:
48,150,17494,6,0,P|19:188|101:248,1,160,6|2,0:0|0:0,0:0:0:0:
232,254,17956,2,0,L|142:255,1,80,8|2,0:0|0:0,0:0:0:0:
314,203,18263,2,0,L|404:204,1,80,8|2,0:0|0:0,0:0:0:0:
151,197,18571,2,0,L|61:198,1,80,12|2,0:0|0:0,0:0:0:0:
315,101,18879,5,8,0:0:0:0:
196,100,19033,1,2,0:0:0:0:
155,125,19110,1,2,0:0:0:0:
138,168,19187,1,8,0:0:0:0:
151,214,19263,1,2,0:0:0:0:
187,242,19340,1,2,0:0:0:0:
235,244,19417,1,0,0:0:0:0:
403,218,19494,6,0,L|466:221,1,40,8|8,0:0|0:0,0:0:0:0:
393,178,19648,2,0,L|330:181,1,40,8|8,0:0|0:0,0:0:0:0:
403,218,19802,2,0,L|466:221,1,40,8|0,0:0|0:0,0:0:0:0:
255,132,19956,6,0,P|198:128|144:37,1,160,6|2,0:0|0:0,0:0:0:0:
306,43,20417,2,0,L|392:46,1,80,8|0,0:0|0:0,0:0:0:0:
227,47,20725,2,0,L|221:152,1,80,2|2,0:0|0:0,0:0:0:0:
306,132,21033,1,8,0:0:0:0:
140,135,21187,1,0,0:0:0:0:
369,185,21340,6,0,L|375:290,1,80,2|0,0:0|0:0,0:0:0:0:
290,270,21648,1,8,0:0:0:0:
447,303,21802,2,0,L|339:303,1,80,0|2,0:0|0:0,0:0:0:0:
207,297,22110,2,0,L|315:297,1,80,2|8,0:0|0:0,0:0:0:0:
50,293,22417,6,0,P|85:224|161:209,1,160,6|2,0:0|0:0,0:0:0:0:
319,160,22879,2,0,L|231:160,1,80,8|0,0:0|0:0,0:0:0:0:
401,156,23187,2,0,L|408:243,1,80,2|2,0:0|0:0,0:0:0:0:
270,226,23494,2,0,L|263:313,1,80,8|0,0:0|0:0,0:0:0:0:
486,284,23802,6,0,L|404:283,2,80,2|0|8,0:0|0:0|0:0,0:0:0:0:
327,234,24263,2,0,L|406:234,1,80,0|2,0:0|0:0,0:0:0:0:
190,231,24571,1,8,0:0:0:0:
150,231,24648,1,8,0:0:0:0:
110,231,24725,1,8,0:0:0:0:
333,138,24879,6,0,L|159:135,1,160,6|2,0:0|0:0,0:0:0:0:
400,170,25340,2,0,L|405:257,1,80,8|0,0:0|0:0,0:0:0:0:
95,270,25648,2,0,L|182:265,1,80,2|0,0:0|0:0,0:0:0:0:
66,230,25956,1,8,0:0:0:0:
288,243,26110,6,0,L|293:156,1,80,0|2,0:0|0:0,0:0:0:0:
192,131,26417,1,0,0:0:0:0:
461,126,26571,2,0,L|381:130,1,80,8|0,0:0|0:0,0:0:0:0:
498,124,26879,1,2,0:0:0:0:
236,152,27033,6,0,L|231:65,1,80,0|8,0:0|0:0,0:0:0:0:
361,72,27340,1,0,0:0:0:0:
99,78,27494,5,12,0:0:0:0:
60,106,27571,1,0,0:0:0:0:
46,151,27648,1,2,0:0:0:0:
59,196,27725,1,2,0:0:0:0:
96,226,27802,1,2,0:0:0:0:
143,230,27879,1,2,0:0:0:0:
310,176,27956,5,12,0:0:0:0:
347,204,28033,1,0,0:0:0:0:
361,249,28110,1,2,0:0:0:0:
348,294,28187,1,2,0:0:0:0:
311,324,28263,1,2,0:0:0:0:
264,328,28340,1,2,0:0:0:0:
96,302,28417,6,0,L|45:298,1,40,8|0,0:0|0:0,0:0:0:0:
336,243,28571,6,0,P|392:223|288:88,1,299.999990844727,6|0,0:0|0:0,0:0:0:0:
149,89,29494,1,2,0:0:0:0:
393,133,29648,1,8,0:0:0:0:
163,171,29956,6,0,L|241:172,1,59.9999981689454,12|0,0:0|0:0,0:0:0:0:
95,178,30263,2,0,L|90:238,1,59.9999981689454,8|0,0:0|0:0,0:0:0:0:
224,233,30571,2,0,L|229:293,1,59.9999981689454,8|2,0:0|0:0,0:0:0:0:
62,291,30879,2,0,L|57:351,1,59.9999981689454,8|0,0:0|0:0,0:0:0:0:
349,171,31187,6,0,L|271:172,1,59.9999981689454,8|0,0:0|0:0,0:0:0:0:
417,178,31494,2,0,L|422:238,1,59.9999981689454,8|0,0:0|0:0,0:0:0:0:
288,233,31802,2,0,L|283:293,1,59.9999981689454,8|2,0:0|0:0,0:0:0:0:
450,291,32110,2,0,L|455:351,1,59.9999981689454,8|0,0:0|0:0,0:0:0:0:
227,349,32417,6,0,L|222:281,1,59.9999981689454,8|0,0:0|0:0,0:0:0:0:
350,220,32725,2,0,L|282:225,1,59.9999981689454,8|0,0:0|0:0,0:0:0:0:
162,220,33033,2,0,L|230:225,1,59.9999981689454,8|2,0:0|0:0,0:0:0:0:
96,220,33340,2,0,L|28:225,1,59.9999981689454,8|0,0:0|0:0,0:0:0:0:
285,349,33648,6,0,L|290:281,1,59.9999981689454,8|0,0:0|0:0,0:0:0:0:
162,220,33956,2,0,L|230:225,1,59.9999981689454,8|2,0:0|0:0,0:0:0:0:
350,220,34263,2,0,L|282:225,1,59.9999981689454,8|2,0:0|0:0,0:0:0:0:
416,220,34571,2,0,L|484:225,1,59.9999981689454,8|2,0:0|0:0,0:0:0:0:
230,113,34879,6,0,L|159:111,1,59.9999981689454,12|0,0:0|0:0,0:0:0:0:
305,110,35187,2,0,L|319:175,1,59.9999981689454,8|0,0:0|0:0,0:0:0:0:
188,178,35494,2,0,L|178:243,1,59.9999981689454,8|2,0:0|0:0,0:0:0:0:
49,239,35802,2,0,L|17:297,1,59.9999981689454,8|0,0:0|0:0,0:0:0:0:
282,113,36110,6,0,L|353:111,1,59.9999981689454,8|0,0:0|0:0,0:0:0:0:
207,110,36417,2,0,L|193:175,1,59.9999981689454,8|0,0:0|0:0,0:0:0:0:
240,193,36648,1,0,0:0:0:0:
324,178,36725,2,0,L|333:243,1,59.9999981689454,8|2,0:0|0:0,0:0:0:0:
463,239,37033,2,0,L|494:297,1,59.9999981689454,8|0,0:0|0:0,0:0:0:0:
184,277,37340,6,0,L|110:280,1,59.9999981689454,12|0,0:0|0:0,0:0:0:0:
254,250,37648,2,0,L|260:186,1,59.9999981689454,8|0,0:0|0:0,0:0:0:0:
134,185,37956,2,0,L|208:182,1,59.9999981689454,8|2,0:0|0:0,0:0:0:0:
64,212,38263,2,0,L|58:276,1,59.9999981689454,8|0,0:0|0:0,0:0:0:0:
315,176,38571,6,0,L|318:250,1,59.9999981689454,8|2,0:0|0:0,0:0:0:0:
197,176,38879,2,0,L|194:250,1,59.9999981689454,12|4,0:0|3:0,0:0:0:0:
414,311,39187,1,2,0:0:0:0:
435,278,39263,1,0,0:0:0:0:
434,238,39340,1,8,0:0:0:0:
408,209,39417,1,8,0:0:0:0:
369,202,39494,1,8,0:0:0:0:
204,199,39648,2,0,L|238:195,1,34.9999989318848,2|2,0:0|0:0,0:0:0:0:
387,183,39802,6,0,P|422:153|356:82,1,160,6|8,0:0|0:0,0:0:0:0:
285,82,40263,1,0,0:0:0:0:
444,75,40417,2,0,L|450:166,1,80,2|2,0:0|0:0,0:0:0:0:
370,164,40725,1,8,0:0:0:0:
240,174,40879,1,0,0:0:0:0:
401,204,41033,6,0,L|487:199,1,80,2|0,0:0|0:0,0:0:0:0:
336,216,41340,2,0,L|331:302,1,80,8|0,0:0|0:0,0:0:0:0:
181,296,41648,2,0,L|95:291,1,80,2|2,0:0|0:0,0:0:0:0:
258,219,41956,1,8,0:0:0:0:
25,133,42110,6,0,L|206:140,1,160,0|0,0:0|0:0,0:0:0:0:
57,173,42571,2,0,L|53:256,1,80,8|0,0:0|0:0,0:0:0:0:
196,270,42879,2,0,L|113:266,1,80,2|2,0:0|0:0,0:0:0:0:
234,204,43187,1,8,0:0:0:0:
92,198,43340,1,0,0:0:0:0:
337,143,43494,6,0,L|339:230,1,80,2|0,0:0|0:0,0:0:0:0:
256,238,43802,1,8,0:0:0:0:
420,268,43956,2,0,L|326:270,1,80,0|2,0:0|0:0,0:0:0:0:
92,268,44263,2,0,L|186:270,1,80,2|8,0:0|0:0,0:0:0:0:
417,268,44571,6,0,P|463:227|405:153,1,160,6|2,0:0|0:0,0:0:0:0:
258,154,45033,2,0,L|351:157,1,80,8|0,0:0|0:0,0:0:0:0:
172,153,45340,2,0,L|171:247,1,80,2|0,0:0|0:0,0:0:0:0:
307,234,45648,1,8,0:0:0:0:
78,278,45802,6,0,L|251:276,1,160,2|2,0:0|0:0,0:0:0:0:
108,265,46263,2,0,L|107:178,1,80,8|0,0:0|0:0,0:0:0:0:
271,178,46571,2,0,L|181:181,2,80,2|0|8,0:0|0:0|0:0,0:0:0:0:
33,177,47033,6,0,L|31:262,1,80,0|6,0:0|0:0,0:0:0:0:
192,243,47340,2,0,L|194:328,1,80,0|8,0:0|0:0,0:0:0:0:
341,313,47648,2,0,L|256:315,1,80,0|2,0:0|0:0,0:0:0:0:
391,253,47956,2,0,L|476:255,1,80,0|8,0:0|0:0,0:0:0:0:
331,257,48263,6,0,L|331:172,1,80,0|2,0:0|0:0,0:0:0:0:
182,181,48571,2,0,L|182:96,1,80,2|8,0:0|0:0,0:0:0:0:
407,105,48879,2,0,L|455:108,2,40,8|8|8,0:0|0:0|0:0,0:0:0:0:
172,143,49187,2,0,L|269:141,2,80,2|4|2,0:0|3:0|0:0,0:0:0:0:
408,148,49648,6,0,L|412:242,1,69.9999978637696,6|2,0:0|0:0,0:0:0:0:
183,213,50110,2,0,L|328:212,1,139.999995727539,8|0,0:0|0:0,0:0:0:0:
104,148,50571,6,0,L|100:242,1,69.9999978637696,2|2,0:0|0:0,0:0:0:0:
329,213,51033,2,0,L|184:212,1,139.999995727539,8|0,0:0|0:0,0:0:0:0:
408,148,51494,6,0,L|411:208,1,34.9999989318848,2|2,0:0|0:0,0:0:0:0:
371,194,51648,1,2,0:0:0:0:
103,148,51802,2,0,L|99:223,1,69.9999978637696,8|0,0:0|0:0,0:0:0:0:
330,243,52110,6,0,L|250:239,1,69.9999978637696,6|2,0:0|0:0,0:0:0:0:
449,235,52571,2,0,P|465:183|389:138,1,139.999995727539,8|0,0:0|0:0,0:0:0:0:
182,243,53033,6,0,L|262:239,1,69.9999978637696,2|2,0:0|0:0,0:0:0:0:
62,241,53494,2,0,L|57:170,1,69.9999978637696,8|8,0:0|0:0,0:0:0:0:
331,141,53802,6,0,L|376:145,2,34.9999989318848,2|8|8,0:0|0:0|0:0,0:0:0:0:
187,137,54110,2,0,L|263:140,2,69.9999978637696,2|2|2,0:0|0:0|0:0,0:0:0:0:
427,86,54571,6,0,P|475:206|370:283,1,279.999991455078,6|0,0:0|0:0,0:0:0:0:
85,86,55802,2,0,P|36:206|141:283,1,279.999991455078
382,133,56725,2,0,L|445:132,2,34.9999989318848,8|2|2,0:0|0:0|0:0,0:0:0:0:
101,121,57033,6,0,L|93:208,1,80,12|0,0:0|0:0,0:0:0:0:
411,121,57340,2,0,L|419:208,1,80,8|8,0:0|0:0,0:0:0:0:
195,255,57648,1,8,0:0:0:0:
317,255,57802,1,8,0:0:0:0:
181,191,57956,1,8,0:0:0:0:
331,191,58110,1,8,0:0:0:0:
62,188,58263,6,0,L|56:259,1,59.9999981689454,2|0,0:0|0:0,0:0:0:0:
92,240,58571,2,0,L|86:311,1,59.9999981689454,0|0,0:0|0:0,0:0:0:0:
122,294,58879,2,0,L|116:365,1,59.9999981689454,0|0,0:0|0:0,0:0:0:0:
151,354,59187,1,0,0:0:0:0:
437,87,59340,6,0,P|473:125|376:207,1,200,6|2,0:0|0:0,0:0:0:0:
124,175,59802,2,0,L|224:177,1,100,8|0,0:0|0:0,0:0:0:0:
385,176,60110,2,0,L|285:178,2,100,2|0|8,0:0|0:0|0:0,0:0:0:0:
75,87,60571,6,0,P|39:125|136:207,1,200,2|2,0:0|0:0,0:0:0:0:
388,175,61033,2,0,L|288:177,1,100,8|0,0:0|0:0,0:0:0:0:
127,176,61340,2,0,L|227:178,2,100,2|0|8,0:0|0:0|0:0,0:0:0:0:
366,130,61802,6,0,P|365:184|246:251,1,200,6|2,0:0|0:0,0:0:0:0:
486,252,62263,2,0,L|385:249,1,100,8|0,0:0|0:0,0:0:0:0:
223,182,62571,1,2,0:0:0:0:
358,187,62725,2,0,L|366:291,1,100,2|8,0:0|0:0,0:0:0:0:
138,287,63033,6,0,L|229:342,1,100,2|0,0:0|0:0,0:0:0:0:
64,288,63340,2,0,L|57:178,1,100,2|8,0:0|0:0,0:0:0:0:
161,175,63648,1,0,0:0:0:0:
387,179,63802,1,2,0:0:0:0:
255,97,63956,2,0,L|176:101,2,50,8|8|8,0:0|0:0|0:0,0:0:0:0:
492,107,64263,6,0,L|284:102,1,200,6|2,0:0|0:0,0:0:0:0:
135,143,64725,2,0,L|237:81,1,100,8|0,0:0|0:0,0:0:0:0:
65,148,65033,2,0,L|55:258,1,100,2|2,0:0|0:0,0:0:0:0:
193,255,65340,1,8,0:0:0:0:
44,284,65494,6,0,P|144:307|252:289,1,200,0|0,0:0|0:0,0:0:0:0:
368,243,65956,2,0,L|276:301,1,100,8|0,0:0|0:0,0:0:0:0:
430,240,66263,2,0,L|440:130,1,100,2|8,0:0|0:0,0:0:0:0:
282,138,66571,1,8,0:0:0:0:
501,183,66725,6,0,P|488:129|356:65,1,200,6|2,0:0|0:0,0:0:0:0:
144,57,67187,2,0,L|241:104,1,100,8|2,0:0|0:0,0:0:0:0:
21,102,67494,2,0,L|27:212,1,100,8|2,0:0|0:0,0:0:0:0:
362,101,67802,2,0,L|356:211,1,100,8|2,0:0|0:0,0:0:0:0:
136,59,68110,6,0,L|245:59,1,100,8|2,0:0|0:0,0:0:0:0:
495,62,68417,2,0,L|386:62,1,100,8|2,0:0|0:0,0:0:0:0:
100,80,68725,1,8,0:0:0:0:
62,117,68802,1,8,0:0:0:0:
62,171,68879,1,8,0:0:0:0:
100,209,68956,1,8,0:0:0:0:
153,210,69033,1,8,0:0:0:0:
417,172,69187,6,0,L|209:169,1,200,6|0,0:0|0:0,0:0:0:0:
480,172,69648,2,0,L|490:283,1,100,8|0,0:0|0:0,0:0:0:0:
326,276,69956,2,0,L|442:214,2,100,2|0|8,0:0|0:0|0:0,0:0:0:0:
95,172,70417,6,0,L|303:169,1,200,2|2,0:0|0:0,0:0:0:0:
32,172,70879,2,0,L|22:283,1,100,8|0,0:0|0:0,0:0:0:0:
186,276,71187,2,0,L|70:214,2,100,2|2|8,0:0|0:0|0:0,0:0:0:0:
448,271,71648,6,0,P|488:232|393:156,1,200,6|2,0:0|0:0,0:0:0:0:
159,220,72110,2,0,L|151:121,1,100,8|0,0:0|0:0,0:0:0:0:
288,148,72417,1,0,0:0:0:0:
152,160,72571,1,2,0:0:0:0:
297,222,72725,1,8,0:0:0:0:
18,262,72879,6,0,L|137:255,1,100,2|0,0:0|0:0,0:0:0:0:
494,262,73187,2,0,L|375:255,1,100,2|8,0:0|0:0,0:0:0:0:
257,252,73494,1,0,0:0:0:0:
394,256,73648,1,8,0:0:0:0:
120,192,73802,2,0,L|62:190,2,50,8|8|8,0:0|0:0|0:0,0:0:0:0:
388,191,74110,6,0,P|429:156|334:78,1,200,6|2,0:0|0:0,0:0:0:0:
193,64,74571,2,0,L|185:168,1,100,8|0,0:0|0:0,0:0:0:0:
353,187,74879,2,0,L|267:242,1,100,2|0,0:0|0:0,0:0:0:0:
432,225,75187,1,8,0:0:0:0:
268,240,75340,6,0,L|276:344,1,100,2|0,0:0|0:0,0:0:0:0:
434,327,75648,2,0,L|330:335,1,100,2|8,0:0|0:0,0:0:0:0:
171,331,75956,1,0,0:0:0:0:
334,334,76110,2,0,L|342:230,1,100,2|2,0:0|0:0,0:0:0:0:
202,231,76417,1,8,0:0:0:0:
361,169,76571,1,2,0:0:0:0:
119,180,76725,5,12,0:0:0:0:
69,160,76802,1,8,0:0:0:0:
60,107,76879,1,8,0:0:0:0:
100,73,76956,1,8,0:0:0:0:
258,61,77033,2,0,L|311:61,1,50,8|8,0:0|0:0,0:0:0:0:
229,91,77187,2,0,L|179:91,1,50,4|4,3:0|3:0,0:0:0:0:
350,290,77340,5,4,3:0:0:0:
398,270,77417,1,4,3:0:0:0:
407,217,77494,1,4,3:0:0:0:
367,183,77571,1,4,3:0:0:0:
325,167,77648,1,2,0:0:0:0:
277,148,77725,1,2,0:0:0:0:
268,95,77802,1,2,0:0:0:0:
308,61,77879,1,2,0:0:0:0:
486,78,77956,5,8,0:0:0:0:
160,81,78879,2,0,L|152:141,1,50,8|8,0:0|0:0,0:0:0:0:
317,124,79033,6,0,P|366:162|308:236,1,160,6|2,0:0|0:0,0:0:0:0:
162,240,79494,2,0,L|254:238,1,80,8|0,0:0|0:0,0:0:0:0:
109,236,79802,2,0,L|105:147,1,80,2|2,0:0|0:0,0:0:0:0:
188,152,80110,1,8,0:0:0:0:
25,160,80263,1,0,0:0:0:0:
262,110,80417,6,0,L|353:106,2,80,2|0|8,0:0|0:0|0:0,0:0:0:0:
420,105,80879,2,0,L|426:190,1,80,0|2,0:0|0:0,0:0:0:0:
264,169,81187,2,0,L|258:254,1,80,2|8,0:0|0:0,0:0:0:0:
489,286,81494,6,0,L|305:286,1,160,6|2,0:0|0:0,0:0:0:0:
171,283,81956,2,0,L|259:283,1,80,8|0,0:0|0:0,0:0:0:0:
411,224,82263,1,2,0:0:0:0:
272,222,82417,2,0,L|270:133,1,80,2|8,0:0|0:0,0:0:0:0:
409,141,82725,1,0,0:0:0:0:
180,136,82879,6,0,L|91:138,2,80,2|0|8,0:0|0:0|0:0,0:0:0:0:
47,137,83340,2,0,L|43:221,1,80,0|2,0:0|0:0,0:0:0:0:
274,217,83648,1,8,0:0:0:0:
277,256,83725,1,8,0:0:0:0:
280,296,83802,1,8,0:0:0:0:
43,291,83956,6,0,L|211:288,1,160,6|2,0:0|0:0,0:0:0:0:
61,257,84417,2,0,L|58:173,1,80,8|0,0:0|0:0,0:0:0:0:
203,181,84725,2,0,L|119:178,1,80,2|0,0:0|0:0,0:0:0:0:
269,178,85033,2,0,L|272:94,1,80,8|0,0:0|0:0,0:0:0:0:
33,84,85340,6,0,L|123:79,1,80,2|0,0:0|0:0,0:0:0:0:
274,67,85648,2,0,L|184:72,1,80,8|0,0:0|0:0,0:0:0:0:
352,62,85956,2,0,L|356:145,1,80,2|0,0:0|0:0,0:0:0:0:
223,153,86263,1,8,0:0:0:0:
464,150,86417,6,0,P|493:188|411:248,1,160,6|2,0:0|0:0,0:0:0:0:
280,254,86879,2,0,L|370:255,1,80,8|2,0:0|0:0,0:0:0:0:
198,203,87187,2,0,L|108:204,1,80,8|2,0:0|0:0,0:0:0:0:
361,197,87494,2,0,L|451:198,1,80,12|2,0:0|0:0,0:0:0:0:
197,101,87802,5,8,0:0:0:0:
316,100,87956,1,2,0:0:0:0:
357,125,88033,1,2,0:0:0:0:
374,168,88110,1,8,0:0:0:0:
361,214,88186,1,2,0:0:0:0:
325,242,88263,1,2,0:0:0:0:
277,244,88340,1,2,0:0:0:0:
109,218,88417,6,0,L|46:221,1,40,10|2,0:0|0:0,0:0:0:0:
119,178,88571,2,0,L|182:181,1,40,2|2,0:0|0:0,0:0:0:0:
109,218,88725,2,0,L|46:221,1,40,8|10,0:0|0:0,0:0:0:0:
257,132,88879,6,0,P|314:128|368:37,1,160,6|2,0:0|0:0,0:0:0:0:
206,43,89340,2,0,L|120:46,1,80,8|0,0:0|0:0,0:0:0:0:
257,62,89648,2,0,L|263:167,1,80,2|2,0:0|0:0,0:0:0:0:
178,147,89956,1,8,0:0:0:0:
344,150,90110,1,0,0:0:0:0:
111,191,90263,6,0,L|105:296,1,80,2|0,0:0|0:0,0:0:0:0:
190,276,90571,1,8,0:0:0:0:
33,309,90725,2,0,L|141:309,1,80,0|2,0:0|0:0,0:0:0:0:
273,303,91033,2,0,L|165:303,1,80,2|8,0:0|0:0,0:0:0:0:
462,293,91340,6,0,P|427:224|351:209,1,160,6|2,0:0|0:0,0:0:0:0:
193,160,91802,2,0,L|281:160,1,80,8|0,0:0|0:0,0:0:0:0:
111,156,92110,2,0,L|104:243,1,80,2|2,0:0|0:0,0:0:0:0:
242,226,92417,2,0,L|249:313,1,80,8|0,0:0|0:0,0:0:0:0:
26,284,92725,6,0,L|108:283,2,80,2|0|8,0:0|0:0|0:0,0:0:0:0:
185,284,93187,2,0,L|103:283,1,80,0|2,0:0|0:0,0:0:0:0:
327,283,93494,1,8,0:0:0:0:
366,283,93571,1,8,0:0:0:0:
406,283,93648,1,8,0:0:0:0:
179,138,93802,6,0,L|353:135,1,160,6|2,0:0|0:0,0:0:0:0:
112,170,94263,2,0,L|107:257,1,80,8|0,0:0|0:0,0:0:0:0:
341,262,94571,2,0,L|254:257,1,80,2|0,0:0|0:0,0:0:0:0:
425,270,94879,1,8,0:0:0:0:
194,251,95033,6,0,L|189:164,1,80,0|2,0:0|0:0,0:0:0:0:
319,171,95340,1,0,0:0:0:0:
93,131,95494,2,0,L|173:135,1,80,8|0,0:0|0:0,0:0:0:0:
14,124,95802,1,2,0:0:0:0:
276,152,95956,6,0,L|281:65,1,80,0|8,0:0|0:0,0:0:0:0:
151,72,96263,1,2,0:0:0:0:
413,78,96417,5,12,0:0:0:0:
452,106,96494,1,8,0:0:0:0:
466,151,96571,1,2,0:0:0:0:
453,196,96648,1,2,0:0:0:0:
416,226,96725,1,2,0:0:0:0:
369,230,96802,1,2,0:0:0:0:
202,176,96879,5,12,0:0:0:0:
165,204,96956,1,8,0:0:0:0:
151,249,97033,1,2,0:0:0:0:
164,294,97110,1,2,0:0:0:0:
201,324,97186,1,2,0:0:0:0:
248,328,97263,1,2,0:0:0:0:
416,302,97340,6,0,L|467:298,1,40,8|8,0:0|0:0,0:0:0:0:
176,243,97494,6,0,P|146:217|259:252,1,539.999983520508,6|6,0:0|0:0,0:0:0:0:
256,192,99033,12,0,103802,0:0:0:0:
