osu file format v14

[General]
AudioFilename: audio.mp3
AudioLeadIn: 0
PreviewTime: 58740
Countdown: 0
SampleSet: Soft
StackLeniency: 0.7
Mode: 2
LetterboxInBreaks: 0
WidescreenStoryboard: 0

[Editor]
DistanceSpacing: 0.4
BeatDivisor: 4
GridSize: 16
TimelineZoom: 2.1

[Metadata]
Title:LOUDER
TitleUnicode:LOUDER
Artist:Roselia
ArtistUnicode:Roselia
Creator:scanter
Version:Crystal's Captivation
Source:バンドリ!ガールズバンドパーティ!
Tags:Event Garupa Bandori BanG Dream! ガルパ! Girls Band Party! Minato Yukina 湊友希那 Hikawa Sayo 氷川紗夜 Imai Lisa 今井リサ Udagawa Ako 宇田川あこ Shirogane Rinko 白金燐子 ロゼリア Aiba Aina 相羽あいな Akesaka Satomi 明坂聡美 Endou Yurika 遠藤ゆりか Kudou Haruka 工藤晴香 Sakuragawa Megu 桜川めぐ eLy _Meep_ Meep Yuria Anais CLSW Crystal groundswim JarrenTanJR Ancelyze Rayon BLACK SHOUT Game Version
BeatmapID:1270272
BeatmapSetID:595580

[Difficulty]
HPDrainRate:6
CircleSize:4.5
OverallDifficulty:9.6
ApproachRate:9.6
SliderMultiplier:2
SliderTickRate:1

[Events]
//Background and Video events
0,0,"yukina.jpg",0,0
//Break Periods
//Storyboard Layer 0 (Background)
//Storyboard Layer 1 (Fail)
//Storyboard Layer 2 (Pass)
//Storyboard Layer 3 (Foreground)
//Storyboard Sound Samples

[TimingPoints]
-813,307.692307692308,4,2,1,100,1,0
417,-166.666666666667,4,2,1,70,0,0
3956,-100,4,2,1,70,0,0
4110,-166.666666666667,4,2,1,70,0,0
7802,-166.666666666667,4,2,1,40,0,0
8110,-166.666666666667,4,2,1,50,0,0
8417,-125,4,2,1,60,0,0
8725,-100,4,2,1,70,0,0
9033,-166.666666666667,4,2,1,30,0,0
9956,-166.666666666667,4,2,1,50,0,0
10110,-100,4,2,1,90,0,1
10187,-100,4,2,1,90,0,0
28571,-166.666666666667,4,2,1,70,0,0
39187,-125,4,2,1,70,0,0
39802,-100,4,2,1,90,0,0
49648,-125,4,2,1,90,0,0
57033,-100,4,2,1,90,0,0
58263,-166.666666666667,4,2,1,90,0,0
59340,-90.909090909091,4,2,1,100,0,1
69033,-90.909090909091,4,2,1,100,0,0
69187,-90.909090909091,4,2,1,100,0,1
79033,-100,4,2,1,90,0,0
97494,-166.666666666667,4,2,1,80,0,0
98879,-166.666666666667,4,2,1,60,0,0
99494,-166.666666666667,4,2,1,50,0,0
100110,-166.666666666667,4,2,1,42,0,0
100725,-166.666666666667,4,2,1,34,0,0
101340,-166.666666666667,4,2,1,26,0,0
101956,-166.666666666667,4,2,1,18,0,0
102571,-166.666666666667,4,2,1,14,0,0
103187,-166.666666666667,4,2,1,10,0,0
103802,-166.666666666667,4,2,1,5,0,0

[Colours]
Combo1 : 128,255,255
Combo2 : 255,128,128
Combo3 : 128,255,128
Combo4 : 255,128,192
Combo5 : 255,128,64

[HitObjects]
166,113,263,6,0,L|109:108,1,50,2|2,0:0|0:0,0:0:0:0:
308,102,417,6,0,P|426:144|344:330,1,359.999989013672,6|0,0:0|0:0,0:0:0:0:
93,188,1648,5,8,0:0:0:0:
285,146,2110,2,0,L|290:122,1,14.9999995422363,4|0,3:0|0:0,0:0:0:0:
64,128,2571,1,2,0:0:0:0:
345,182,2879,6,0,P|362:124|216:185,1,359.999989013672,6|0,0:0|0:0,0:0:0:0:
354,244,3956,2,0,L|292:243,1,50,0|0,0:0|0:0,0:0:0:0:
139,227,4110,5,8,0:0:0:0:
266,193,4263,1,4,3:0:0:0:
96,153,4571,1,0,3:0:0:0:
258,206,4879,1,2,0:0:0:0:
58,201,5187,2,0,L|55:243,1,29.9999990844727,8|8,0:0|0:0,0:0:0:0:
211,252,5340,6,0,L|281:252,1,59.9999981689454,6|0,0:0|0:0,0:0:0:0:
152,227,5648,2,0,L|146:160,1,59.9999981689454,2|0,0:0|0:0,0:0:0:0:
277,162,5956,2,0,L|283:95,1,59.9999981689454,2|0,0:0|0:0,0:0:0:0:
422,98,6263,2,0,L|416:31,1,59.9999981689454,2|0,0:0|0:0,0:0:0:0:
288,40,6571,6,0,L|358:40,1,59.9999981689454,2|0,0:0|0:0,0:0:0:0:
225,44,6879,2,0,L|155:44,1,59.9999981689454,2|0,0:0|0:0,0:0:0:0:
286,90,7187,1,2,0:0:0:0:
165,90,7340,1,0,0:0:0:0:
301,138,7494,1,2,0:0:0:0:
146,138,7648,1,0,0:0:0:0:
391,140,7802,6,0,L|397:227,1,59.9999981689454,8|8,0:0|0:0,0:0:0:0:
135,187,8110,2,0,L|122:237,1,29.9999990844727,8|8,0:0|0:0,0:0:0:0:
207,215,8263,2,0,L|218:263,1,29.9999990844727,8|8,0:0|0:0,0:0:0:0:
125,261,8417,6,0,L|176:268,1,40,8|8,0:0|0:0,0:0:0:0:
321,258,8571,2,0,L|270:251,1,40,8|8,0:0|0:0,0:0:0:0:
115,300,8725,2,0,L|66:295,1,50,8|8,0:0|0:0,0:0:0:0:
317,294,8879,2,0,L|366:299,1,50,8|8,0:0|0:0,0:0:0:0:
175,201,9033,6,0,L|91:197,3,59.9999981689454,0|0|0|0,0:0|0:0|0:0|0:0,0:0:0:0:
235,151,9648,2,0,L|151:147,1,59.9999981689454,0|0,0:0|0:0,0:0:0:0:
330,153,9956,2,0,L|336:201,1,29.9999990844727
58,252,10110,6,0,L|266:261,1,200,6|2,0:0|0:0,0:0:0:0:
35,242,10571,2,0,L|27:127,1,100,8|0,0:0|0:0,0:0:0:0:
256,127,10879,2,0,L|156:131,2,100,2|2|8,0:0|0:0|0:0,0:0:0:0:
28,142,11340,2,0,L|25:202,1,50,0|0,0:0|0:0,0:0:0:0:
321,130,11494,5,2,0:0:0:0:
192,140,11648,2,0,L|186:252,1,100,0|8,0:0|0:0,0:0:0:0:
481,312,11956,2,0,L|346:307,1,100,0|2,0:0|0:0,0:0:0:0:
152,307,12263,2,0,L|287:302,1,100,2|8,0:0|0:0,0:0:0:0:
26,308,12571,6,0,P|24:237|132:180,1,200,6|2,0:0|0:0,0:0:0:0:
356,153,13033,2,0,L|233:149,1,100,8|0,0:0|0:0,0:0:0:0:
477,153,13340,2,0,L|481:260,1,100,2|2,0:0|0:0,0:0:0:0:
357,252,13648,1,8,0:0:0:0:
492,306,13802,2,0,L|496:249,1,50,0|0,0:0|0:0,0:0:0:0:
251,271,13956,6,0,L|108:271,2,100,2|0|8,0:0|0:0|0:0,0:0:0:0:
22,261,14417,2,0,L|15:153,1,100,0|2,0:0|0:0,0:0:0:0:
260,171,14725,1,8,0:0:0:0:
126,155,14879,1,8,0:0:0:0:
379,143,15033,6,0,P|454:168|388:252,1,200,6|2,0:0|0:0,0:0:0:0:
161,199,15494,1,8,0:0:0:0:
288,200,15648,1,0,0:0:0:0:
34,205,15802,2,0,L|25:313,1,100,2|0,0:0|0:0,0:0:0:0:
288,200,16110,1,8,0:0:0:0:
161,199,16263,1,0,0:0:0:0:
399,158,16417,6,0,L|543:152,1,100,2|0,0:0|0:0,0:0:0:0:
207,96,16725,2,0,L|351:90,1,100,8|0,0:0|0:0,0:0:0:0:
21,174,17033,1,2,0:0:0:0:
142,170,17187,1,0,0:0:0:0:
21,174,17340,1,8,0:0:0:0:
281,213,17494,6,0,P|322:169|253:137,1,150,6|0,0:0|0:0,0:0:0:0:
182,168,17802,2,0,L|242:169,1,50,2|2,0:0|0:0,0:0:0:0:
387,167,17956,1,8,0:0:0:0:
257,243,18110,1,2,0:0:0:0:
482,198,18263,2,0,L|486:303,1,100,8|2,0:0|0:0,0:0:0:0:
130,253,18571,2,0,L|126:148,1,100,12|2,0:0|0:0,0:0:0:0:
349,111,18879,6,0,L|401:112,1,50,8|2,0:0|0:0,0:0:0:0:
325,83,19033,2,0,L|273:82,1,50,2|2,0:0|0:0,0:0:0:0:
353,56,19187,2,0,L|403:56,1,50,8|2,0:0|0:0,0:0:0:0:
188,37,19340,2,0,L|139:36,1,50,2|0,0:0|0:0,0:0:0:0:
377,24,19494,5,8,0:0:0:0:
411,56,19571,1,8,0:0:0:0:
394,100,19648,1,8,0:0:0:0:
347,102,19725,1,8,0:0:0:0:
196,95,19802,2,0,L|136:98,1,50,8|0,0:0|0:0,0:0:0:0:
445,167,19956,6,0,P|497:218|402:267,1,200,6|2,0:0|0:0,0:0:0:0:
204,244,20417,2,0,L|313:236,1,100,8|0,0:0|0:0,0:0:0:0:
90,209,20725,2,0,L|83:104,1,100,2|2,0:0|0:0,0:0:0:0:
223,87,21033,1,8,0:0:0:0:
16,76,21187,2,0,L|16:133,1,50
322,108,21340,6,0,L|325:217,1,100,2|0,0:0|0:0,0:0:0:0:
186,211,21648,1,8,0:0:0:0:
484,155,21802,2,0,L|385:159,1,100,0|2,0:0|0:0,0:0:0:0:
152,132,22110,1,2,0:0:0:0:
279,129,22263,1,8,0:0:0:0:
47,234,22417,6,0,L|254:230,1,200,6|2,0:0|0:0,0:0:0:0:
33,180,22879,2,0,L|32:284,1,100,8|0,0:0|0:0,0:0:0:0:
256,170,23187,2,0,L|150:166,2,100,2|2|8,0:0|0:0|0:0,0:0:0:0:
34,202,23648,2,0,L|30:261,1,50,0|0,0:0|0:0,0:0:0:0:
258,263,23802,6,0,L|146:258,2,100,2|0|8,0:0|0:0|0:0,0:0:0:0:
35,239,24263,2,0,L|26:351,1,100,0|2,0:0|0:0,0:0:0:0:
321,198,24571,1,8,0:0:0:0:
257,193,24648,1,8,0:0:0:0:
194,188,24725,1,8,0:0:0:0:
477,239,24879,6,0,L|486:351,1,100,6|0,0:0|0:0,0:0:0:0:
144,320,25187,5,2,0:0:0:0:
288,304,25340,1,8,0:0:0:0:
432,288,25494,1,0,0:0:0:0:
128,256,25648,5,2,0:0:0:0:
272,240,25802,1,0,0:0:0:0:
416,224,25956,1,8,0:0:0:0:
112,192,26110,5,0,0:0:0:0:
256,176,26263,1,2,0:0:0:0:
400,160,26417,1,0,0:0:0:0:
96,144,26571,5,8,0:0:0:0:
240,128,26725,1,0,0:0:0:0:
384,112,26879,1,2,0:0:0:0:
80,96,27033,5,0,0:0:0:0:
304,64,27187,1,8,0:0:0:0:
160,64,27340,1,0,0:0:0:0:
441,54,27494,6,0,L|459:107,1,50,12|0,0:0|0:0,0:0:0:0:
250,98,27648,2,0,L|242:156,1,50,2|2,0:0|0:0,0:0:0:0:
319,153,27802,2,0,L|327:211,1,50,2|2,0:0|0:0,0:0:0:0:
128,197,27956,2,0,L|109:257,1,50,12|0,0:0|0:0,0:0:0:0:
333,256,28110,5,2,0:0:0:0:
379,245,28187,1,2,0:0:0:0:
396,200,28263,1,2,0:0:0:0:
367,161,28340,1,2,0:0:0:0:
179,161,28417,2,0,L|105:159,1,50,8|0,0:0|0:0,0:0:0:0:
429,258,28571,6,0,P|472:222|399:87,1,239.999992675781,6|0,0:0|0:0,0:0:0:0:
192,55,29340,1,0,0:0:0:0:
312,94,29494,2,0,L|313:138,1,29.9999990844727,2|2,0:0|0:0,0:0:0:0:
106,133,29648,2,0,L|103:216,1,59.9999981689454,8|2,0:0|0:0,0:0:0:0:
320,190,29956,6,0,L|242:187,1,59.9999981689454,12|0,0:0|0:0,0:0:0:0:
487,190,30263,2,0,L|490:268,1,59.9999981689454,8|0,0:0|0:0,0:0:0:0:
365,236,30571,2,0,L|362:314,1,59.9999981689454,8|2,0:0|0:0,0:0:0:0:
489,249,30879,2,0,L|492:327,1,59.9999981689454,8|0,0:0|0:0,0:0:0:0:
252,296,31187,6,0,L|330:299,1,59.9999981689454,8|0,0:0|0:0,0:0:0:0:
199,216,31494,2,0,L|196:138,1,59.9999981689454,8|0,0:0|0:0,0:0:0:0:
337,233,31802,1,8,0:0:0:0:
211,216,31956,2,0,L|210:178,1,29.9999990844727,2|0,0:0|0:0,0:0:0:0:
435,188,32110,2,0,L|438:110,1,59.9999981689454,8|0,0:0|0:0,0:0:0:0:
197,96,32417,6,0,L|270:95,1,59.9999981689454,8|0,0:0|0:0,0:0:0:0:
28,146,32725,2,0,L|24:209,1,59.9999981689454,8|0,0:0|0:0,0:0:0:0:
149,206,33033,2,0,L|153:269,1,59.9999981689454,8|2,0:0|0:0,0:0:0:0:
24,205,33340,2,0,L|20:268,1,59.9999981689454,8|0,0:0|0:0,0:0:0:0:
256,285,33648,6,0,L|183:286,1,59.9999981689454,8|0,0:0|0:0,0:0:0:0:
431,253,33956,1,8,0:0:0:0:
305,244,34110,2,0,L|301:212,1,29.9999990844727,2|2,0:0|0:0,0:0:0:0:
467,190,34263,2,0,L|471:127,1,59.9999981689454,8|2,0:0|0:0,0:0:0:0:
102,180,34571,2,0,L|98:117,1,59.9999981689454,8|2,0:0|0:0,0:0:0:0:
319,96,34879,5,12,0:0:0:0:
192,93,35033,1,0,0:0:0:0:
432,141,35187,2,0,L|507:139,1,59.9999981689454,8|0,0:0|0:0,0:0:0:0:
341,165,35494,2,0,L|339:240,1,59.9999981689454,8|2,0:0|0:0,0:0:0:0:
492,230,35802,2,0,L|417:228,1,59.9999981689454,8|0,0:0|0:0,0:0:0:0:
193,96,36110,5,8,0:0:0:0:
320,93,36263,1,0,0:0:0:0:
99,136,36417,2,0,L|94:201,1,59.9999981689454,8|0,0:0|0:0,0:0:0:0:
319,191,36725,1,8,0:0:0:0:
189,190,36879,2,0,L|190:223,1,29.9999990844727,2|2,0:0|0:0,0:0:0:0:
413,136,37033,2,0,L|420:203,1,59.9999981689454,8|0,0:0|0:0,0:0:0:0:
193,96,37340,5,12,0:0:0:0:
320,93,37494,1,0,0:0:0:0:
91,150,37648,2,0,L|17:149,1,59.9999981689454,8|0,0:0|0:0,0:0:0:0:
196,236,37956,2,0,L|122:235,1,59.9999981689454,8|2,0:0|0:0,0:0:0:0:
305,235,38263,2,0,L|364:234,1,59.9999981689454,8|0,0:0|0:0,0:0:0:0:
75,155,38571,6,0,L|70:219,1,59.9999981689454,8|2,0:0|0:0,0:0:0:0:
213,151,38879,2,0,L|218:215,1,59.9999981689454,12|4,0:0|3:0,0:0:0:0:
92,277,39187,2,0,L|148:275,1,40,2|0,0:0|0:0,0:0:0:0:
210,277,39340,2,0,L|154:275,1,40,8|8,0:0|0:0,0:0:0:0:
89,243,39494,2,0,L|145:241,1,40,8|0,0:0|0:0,0:0:0:0:
293,224,39648,2,0,L|237:222,1,40,2|2,0:0|0:0,0:0:0:0:
27,210,39802,6,0,L|23:103,1,100,6|0,0:0|0:0,0:0:0:0:
173,96,40110,2,0,L|74:96,2,100,8|0|2,0:0|0:0|0:0,0:0:0:0:
405,98,40571,1,2,0:0:0:0:
269,99,40725,2,0,L|266:220,1,100,8|0,0:0|0:0,0:0:0:0:
496,218,41033,6,0,L|391:217,1,100,2|0,0:0|0:0,0:0:0:0:
155,241,41340,2,0,L|260:240,1,100,8|0,0:0|0:0,0:0:0:0:
16,217,41648,2,0,L|121:216,2,100,2|2|8,0:0|0:0|0:0,0:0:0:0:
305,180,42110,6,0,L|188:177,1,100,0|2,0:0|0:0,0:0:0:0:
496,218,42417,2,0,L|397:221,2,100,0|8|0,0:0|0:0|0:0,0:0:0:0:
188,85,42879,1,2,0:0:0:0:
425,86,43033,2,0,L|310:87,1,100,2|8,0:0|0:0,0:0:0:0:
92,84,43340,1,0,0:0:0:0:
484,90,43494,6,0,L|369:89,2,100,2|0|8,0:0|0:0|0:0,0:0:0:0:
94,94,43956,2,0,L|194:94,1,100,0|2,0:0|0:0,0:0:0:0:
484,90,44263,2,0,L|384:90,1,100,2|8,0:0|0:0,0:0:0:0:
158,198,44571,6,0,L|387:195,1,200,6|2,0:0|0:0,0:0:0:0:
116,129,45033,2,0,L|103:240,1,100,8|0,0:0|0:0,0:0:0:0:
253,234,45340,1,2,0:0:0:0:
22,281,45494,2,0,L|130:284,1,100,0|8,0:0|0:0,0:0:0:0:
344,200,45802,6,0,L|115:197,1,200,2|2,0:0|0:0,0:0:0:0:
269,197,46263,2,0,L|270:302,1,100,8|0,0:0|0:0,0:0:0:0:
16,301,46571,2,0,L|134:303,2,100,2|0|8,0:0|0:0|0:0,0:0:0:0:
360,64,47033,6,0,L|376:177,1,100,0|6,0:0|0:0,0:0:0:0:
206,182,47340,2,0,L|319:166,1,100,0|8,0:0|0:0,0:0:0:0:
34,77,47648,2,0,L|18:190,1,100,0|2,0:0|0:0,0:0:0:0:
188,195,47956,2,0,L|75:179,1,100,0|8,0:0|0:0,0:0:0:0:
394,191,48263,6,0,L|519:176,1,100,0|2,0:0|0:0,0:0:0:0:
196,121,48571,1,2,0:0:0:0:
319,124,48725,1,8,0:0:0:0:
27,168,48879,2,0,L|25:224,1,50,8|8,0:0|0:0,0:0:0:0:
101,220,49033,1,8,0:0:0:0:
342,204,49187,1,2,0:0:0:0:
476,149,49340,1,4,3:0:0:0:
323,90,49494,1,2,0:0:0:0:
105,98,49648,6,0,L|98:193,1,80,6|2,0:0|0:0,0:0:0:0:
368,134,50110,6,0,L|214:133,1,120,8|0,0:0|0:0,0:0:0:0:
168,133,50417,1,0,0:0:0:0:
407,98,50571,6,0,L|414:193,1,80,2|2,0:0|0:0,0:0:0:0:
144,250,51033,6,0,L|298:251,1,120,8|0,0:0|0:0,0:0:0:0:
344,251,51340,1,0,0:0:0:0:
32,223,51494,6,0,L|28:279,1,40,2|2,0:0|0:0,0:0:0:0:
108,270,51648,1,2,0:0:0:0:
318,198,51802,6,0,L|175:195,1,120,8|0,0:0|0:0,0:0:0:0:
407,98,52110,6,0,L|414:193,1,80,6|2,0:0|0:0,0:0:0:0:
144,134,52571,6,0,L|298:133,1,120,8|0,0:0|0:0,0:0:0:0:
344,133,52879,1,0,0:0:0:0:
105,98,53033,6,0,L|98:193,1,80,2|2,0:0|0:0,0:0:0:0:
369,166,53494,1,8,0:0:0:0:
143,145,53648,2,0,L|139:195,1,40,8|0,0:0|0:0,0:0:0:0:
223,183,53802,2,0,L|227:233,1,40,2|8,0:0|0:0,0:0:0:0:
31,242,53956,6,0,L|121:242,1,80,8|2,0:0|0:0,0:0:0:0:
255,197,54263,2,0,L|165:197,1,80,2|2,0:0|0:0,0:0:0:0:
400,102,54571,5,6,0:0:0:0:
312,97,55187,1,0,0:0:0:0:
219,93,55802,1,0,0:0:0:0:
129,95,56417,1,0,0:0:0:0:
351,98,56725,6,0,L|395:101,1,40,8|2,0:0|0:0,0:0:0:0:
191,138,56879,2,0,L|147:135,1,40,2|2,0:0|0:0,0:0:0:0:
394,163,57033,6,0,P|402:217|318:261,1,150,12|0,0:0|0:0,0:0:0:0:
256,229,57340,1,8,0:0:0:0:
418,230,57494,1,8,0:0:0:0:
168,82,57648,6,0,L|175:134,1,50,8|8,0:0|0:0,0:0:0:0:
259,138,57802,2,0,L|294:176,1,50,8|10,0:0|0:0,0:0:0:0:
371,182,57956,2,0,L|422:193,1,50,8|8,0:0|0:0,0:0:0:0:
262,221,58110,2,0,L|269:273,1,50,8|8,0:0|0:0,0:0:0:0:
481,259,58263,6,0,L|404:261,6,59.9999981689454,2|0|0|0|0|0|0,0:0|0:0|0:0|0:0|0:0|0:0|0:0,0:0:0:0:
143,165,59340,6,0,L|392:161,1,220.000006713867,6|2,0:0|0:0,0:0:0:0:
29,160,59802,2,0,L|25:279,1,110.000003356934,8|0,0:0|0:0,0:0:0:0:
251,200,60110,2,0,L|259:323,1,110.000003356934,2|0,0:0|0:0,0:0:0:0:
113,308,60417,1,8,0:0:0:0:
369,165,60571,6,0,L|120:161,1,220.000006713867,2|2,0:0|0:0,0:0:0:0:
483,160,61033,2,0,L|487:279,1,110.000003356934,8|0,0:0|0:0,0:0:0:0:
261,200,61340,1,2,0:0:0:0:
403,200,61494,2,0,L|411:323,1,110.000003356934,0|8,0:0|0:0,0:0:0:0:
140,244,61802,6,0,L|371:245,1,220.000006713867,6|2,0:0|0:0,0:0:0:0:
33,159,62263,2,0,L|29:268,1,110.000003356934,8|0,0:0|0:0,0:0:0:0:
256,192,62571,2,0,L|122:186,2,110.000003356934,2|2|8,0:0|0:0|0:0,0:0:0:0:
29,268,63033,6,0,L|33:159,1,110.000003356934,2|0,0:0|0:0,0:0:0:0:
337,226,63340,2,0,L|333:116,1,110.000003356934,2|8,0:0|0:0,0:0:0:0:
179,116,63648,1,0,0:0:0:0:
483,117,63802,1,2,0:0:0:0:
338,121,63956,2,0,L|332:190,1,55.0000016784668,8|8,0:0|0:0,0:0:0:0:
486,179,64110,2,0,L|492:248,1,55.0000016784668,8|8,0:0|0:0,0:0:0:0:
247,225,64263,6,0,P|177:201|218:86,1,220.000006713867,6|2,0:0|0:0,0:0:0:0:
486,96,64725,2,0,L|338:95,1,110.000003356934,8|0,0:0|0:0,0:0:0:0:
147,123,65033,2,0,L|295:122,1,110.000003356934,2|2,0:0|0:0,0:0:0:0:
28,130,65340,1,8,0:0:0:0:
317,89,65494,6,0,L|323:207,1,110.000003356934,0|2,0:0|0:0,0:0:0:0:
183,193,65802,1,0,0:0:0:0:
425,142,65956,2,0,L|315:142,1,110.000003356934,8|0,0:0|0:0,0:0:0:0:
86,141,66263,2,0,L|196:141,2,110.000003356934,2|8|8,0:0|0:0|0:0,0:0:0:0:
487,77,66725,6,0,L|260:74,1,220.000006713867,6|2,0:0|0:0,0:0:0:0:
185,74,67110,1,0,0:0:0:0:
401,115,67187,2,0,L|416:227,1,110.000003356934,8|2,0:0|0:0,0:0:0:0:
111,115,67494,2,0,L|96:229,1,110.000003356934,8|2,0:0|0:0,0:0:0:0:
355,218,67802,2,0,L|372:326,1,110.000003356934,8|2,0:0|0:0,0:0:0:0:
18,320,68110,5,8,0:0:0:0:
254,314,68263,1,2,0:0:0:0:
111,269,68417,2,0,L|106:151,1,110.000003356934,8|2,0:0|0:0,0:0:0:0:
383,154,68725,2,0,L|447:159,1,55.0000016784668,8|8,0:0|0:0,0:0:0:0:
253,83,68879,2,0,L|189:88,1,55.0000016784668,8|8,0:0|0:0,0:0:0:0:
383,154,69033,2,0,L|447:159,1,55.0000016784668,8|8,0:0|0:0,0:0:0:0:
75,126,69187,6,0,P|39:172|150:249,1,220.000006713867,6|0,0:0|0:0,0:0:0:0:
431,224,69648,2,0,L|301:217,1,110.000003356934,8|0,0:0|0:0,0:0:0:0:
88,162,69956,2,0,L|218:155,2,110.000003356934,2|0|8,0:0|0:0|0:0,0:0:0:0:
488,123,70417,6,0,L|493:242,1,110.000003356934,2|0,0:0|0:0,0:0:0:0:
368,233,70725,1,2,0:0:0:0:
142,214,70879,2,0,L|261:219,1,110.000003356934,8|0,0:0|0:0,0:0:0:0:
24,123,71187,2,0,L|147:123,2,110.000003356934,2|2|8,0:0|0:0|0:0,0:0:0:0:
437,126,71648,6,0,P|473:172|362:249,1,220.000006713867,6|2,0:0|0:0,0:0:0:0:
85,223,72110,2,0,L|215:216,1,110.000003356934,8|0,0:0|0:0,0:0:0:0:
428,161,72417,2,0,L|298:154,2,110.000003356934,2|0|8,0:0|0:0|0:0,0:0:0:0:
27,134,72879,5,2,0:0:0:0:
368,79,73033,1,0,0:0:0:0:
143,103,73187,2,0,L|140:219,1,110.000003356934,2|8,0:0|0:0,0:0:0:0:
256,205,73494,1,0,0:0:0:0:
19,203,73648,1,8,0:0:0:0:
315,131,73802,2,0,L|381:134,1,55.0000016784668,8|8,0:0|0:0,0:0:0:0:
197,131,73956,2,0,L|131:134,1,55.0000016784668,8|8,0:0|0:0,0:0:0:0:
425,151,74110,6,0,P|464:193|360:274,1,220.000006713867,6|2,0:0|0:0,0:0:0:0:
149,242,74571,2,0,L|264:232,1,110.000003356934,8|0,0:0|0:0,0:0:0:0:
19,173,74879,2,0,L|134:163,2,110.000003356934,2|0|8,0:0|0:0|0:0,0:0:0:0:
363,156,75340,6,0,L|132:140,1,220.000006713867,2|2,0:0|0:0,0:0:0:0:
363,242,75802,2,0,L|248:232,1,110.000003356934,8|0,0:0|0:0,0:0:0:0:
493,173,76110,2,0,L|378:163,2,110.000003356934,2|2|8,0:0|0:0|0:0,0:0:0:0:
255,159,76571,1,2,0:0:0:0:
496,68,76725,6,0,L|487:129,1,55.0000016784668,12|8,0:0|0:0,0:0:0:0:
411,126,76879,2,0,L|381:180,1,55.0000016784668,8|8,0:0|0:0,0:0:0:0:
306,172,77033,2,0,L|259:212,1,55.0000016784668,8|8,0:0|0:0,0:0:0:0:
105,223,77187,2,0,L|47:245,1,55.0000016784668,4|4,3:0|3:0,0:0:0:0:
286,252,77340,5,4,3:0:0:0:
340,249,77417,1,4,3:0:0:0:
382,215,77494,1,4,3:0:0:0:
397,163,77571,1,4,3:0:0:0:
378,112,77648,1,2,0:0:0:0:
333,82,77725,1,2,0:0:0:0:
177,81,77802,2,0,L|111:87,1,55.0000016784668,2|2,0:0|0:0,0:0:0:0:
390,85,77956,5,8,0:0:0:0:
206,154,78879,2,0,L|193:218,1,55.0000016784668,8|8,0:0|0:0,0:0:0:0:
454,252,79033,6,0,L|246:261,1,200,6|2,0:0|0:0,0:0:0:0:
477,242,79494,2,0,L|485:127,1,100,8|0,0:0|0:0,0:0:0:0:
256,127,79802,2,0,L|355:131,2,100,2|2|8,0:0|0:0|0:0,0:0:0:0:
484,142,80263,2,0,L|487:202,1,50,0|0,0:0|0:0,0:0:0:0:
191,130,80417,5,2,0:0:0:0:
320,140,80571,2,0,L|326:252,1,100,0|8,0:0|0:0,0:0:0:0:
31,312,80879,2,0,L|166:307,1,100,0|2,0:0|0:0,0:0:0:0:
360,307,81187,2,0,L|225:302,1,100,2|8,0:0|0:0,0:0:0:0:
486,308,81494,6,0,P|488:237|380:180,1,200,6|2,0:0|0:0,0:0:0:0:
156,153,81956,2,0,L|279:149,1,100,8|0,0:0|0:0,0:0:0:0:
35,153,82263,2,0,L|31:260,1,100,2|2,0:0|0:0,0:0:0:0:
155,252,82571,1,8,0:0:0:0:
20,306,82725,2,0,L|16:249,1,50,0|0,0:0|0:0,0:0:0:0:
261,271,82879,6,0,L|404:271,2,100,2|0|8,0:0|0:0|0:0,0:0:0:0:
490,261,83340,6,0,L|497:153,1,100,0|2,0:0|0:0,0:0:0:0:
252,171,83648,1,8,0:0:0:0:
318,163,83725,1,8,0:0:0:0:
386,155,83802,1,8,0:0:0:0:
133,143,83956,6,0,P|58:168|124:252,1,200,6|2,0:0|0:0,0:0:0:0:
351,199,84417,1,8,0:0:0:0:
224,200,84571,1,0,0:0:0:0:
478,205,84725,2,0,L|487:313,1,100,2|0,0:0|0:0,0:0:0:0:
224,200,85033,1,8,0:0:0:0:
351,199,85187,1,0,0:0:0:0:
113,158,85340,6,0,L|-31:152,1,100,2|0,0:0|0:0,0:0:0:0:
305,96,85648,2,0,L|161:90,1,100,8|0,0:0|0:0,0:0:0:0:
491,174,85956,1,2,0:0:0:0:
370,170,86110,1,0,0:0:0:0:
491,174,86263,1,8,0:0:0:0:
231,213,86417,6,0,P|194:164|266:119,1,150,6|0,0:0|0:0,0:0:0:0:
330,168,86725,2,0,L|270:169,1,50,2|2,0:0|0:0,0:0:0:0:
125,167,86879,1,8,0:0:0:0:
255,243,87033,1,2,0:0:0:0:
30,198,87187,2,0,L|26:303,1,100,8|2,0:0|0:0,0:0:0:0:
382,253,87494,2,0,L|386:148,1,100,12|2,0:0|0:0,0:0:0:0:
163,111,87802,6,0,L|111:112,1,50,8|2,0:0|0:0,0:0:0:0:
271,102,87956,2,2,L|323:101,1,50
247,71,88110,2,0,L|197:71,1,50,8|2,0:0|0:0,0:0:0:0:
354,64,88263,2,2,L|403:63,1,50
125,45,88417,5,10,0:0:0:0:
91,77,88494,1,2,0:0:0:0:
108,121,88571,1,2,0:0:0:0:
155,123,88648,1,2,0:0:0:0:
311,97,88725,2,10,L|371:100,1,50,8|10,0:0|0:0,0:0:0:0:
65,174,88879,6,0,P|13:225|108:274,1,200,6|2,0:0|0:0,0:0:0:0:
307,250,89340,2,0,L|198:242,1,100,8|0,0:0|0:0,0:0:0:0:
432,232,89648,2,0,L|439:127,1,100,2|2,0:0|0:0,0:0:0:0:
293,108,89956,1,8,0:0:0:0:
461,81,90110,2,0,L|461:138,1,50
190,108,90263,6,0,L|187:217,1,100,2|0,0:0|0:0,0:0:0:0:
326,211,90571,1,8,0:0:0:0:
28,155,90725,2,0,L|127:159,1,100,0|2,0:0|0:0,0:0:0:0:
353,154,91033,2,0,L|252:145,1,100,2|8,0:0|0:0,0:0:0:0:
465,234,91340,6,0,L|258:230,1,200,6|2,0:0|0:0,0:0:0:0:
479,180,91802,2,0,L|480:284,1,100,8|0,0:0|0:0,0:0:0:0:
154,148,92110,2,0,L|260:144,2,100,2|2|8,0:0|0:0|0:0,0:0:0:0:
371,140,92571,2,0,L|375:199,1,50,0|0,0:0|0:0,0:0:0:0:
151,248,92725,6,0,L|263:243,2,100,2|0|8,0:0|0:0|0:0,0:0:0:0:
477,239,93187,2,0,L|486:351,1,100,0|2,0:0|0:0,0:0:0:0:
121,153,93494,2,0,L|175:152,1,50,8|8,0:0|0:0,0:0:0:0:
331,143,93648,1,8,0:0:0:0:
35,239,93802,6,0,L|26:351,1,100,6|0,0:0|0:0,0:0:0:0:
368,320,94110,5,2,0:0:0:0:
224,304,94263,1,8,0:0:0:0:
80,288,94417,1,0,0:0:0:0:
384,256,94571,5,2,0:0:0:0:
240,240,94725,1,0,0:0:0:0:
96,224,94879,1,8,0:0:0:0:
400,192,95033,5,0,0:0:0:0:
256,176,95187,1,2,0:0:0:0:
112,160,95340,1,0,0:0:0:0:
416,144,95494,5,8,0:0:0:0:
272,128,95648,1,0,0:0:0:0:
128,112,95802,5,2,0:0:0:0:
432,96,95956,1,0,0:0:0:0:
208,64,96110,1,8,0:0:0:0:
352,64,96263,1,2,0:0:0:0:
71,54,96417,6,0,L|54:102,1,50,12|8,0:0|0:0,0:0:0:0:
262,98,96571,2,0,L|270:156,1,50,2|2,0:0|0:0,0:0:0:0:
193,153,96725,2,0,L|185:211,1,50,2|2,0:0|0:0,0:0:0:0:
384,197,96879,2,0,L|402:247,1,50,12|8,0:0|0:0,0:0:0:0:
179,256,97033,5,2,0:0:0:0:
133,245,97110,1,2,0:0:0:0:
116,200,97187,1,2,0:0:0:0:
145,161,97263,1,2,0:0:0:0:
333,161,97340,2,0,L|407:159,1,50,8|8,0:0|0:0,0:0:0:0:
56,258,97494,6,0,P|141:85|204:268,1,479.999985351563,6|0,0:0|0:0,0:0:0:0:
56,258,98879,1,6,0:0:0:0:
256,192,99033,12,0,103802,0:0:0:0:
