osu file format v14

[General]
AudioFilename: audio.mp3
AudioLeadIn: 0
PreviewTime: 58740
Countdown: 0
SampleSet: Soft
StackLeniency: 0.7
Mode: 0
LetterboxInBreaks: 0
WidescreenStoryboard: 0

[Editor]
Bookmarks: 96876
DistanceSpacing: 1
BeatDivisor: 2
GridSize: 4
TimelineZoom: 2.1

[Metadata]
Title:LOUDER
TitleUnicode:LOUDER
Artist:Roselia
ArtistUnicode:Roselia
Creator:scanter
Version:Normal
Source:バンドリ!ガールズバンドパーティ!
Tags:Event Garupa Bandori BanG Dream! ガルパ! Girls Band Party! Minato Yukina 湊友希那 Hikawa Sayo 氷川紗夜 Imai Lisa 今井リサ Udagawa Ako 宇田川あこ Shirogane Rinko 白金燐子 ロゼリア Aiba Aina 相羽あいな Akesaka Satomi 明坂聡美 Endou Yurika 遠藤ゆりか Kudou Haruka 工藤晴香 Sakuragawa Megu 桜川めぐ eLy _Meep_ Meep Yuria Anais CLSW Crystal groundswim JarrenTanJR Ancelyze Rayon BLACK SHOUT Game Version
BeatmapID:1262421
BeatmapSetID:595580

[Difficulty]
HPDrainRate:4
CircleSize:3.5
OverallDifficulty:4
ApproachRate:5.5
SliderMultiplier:1.1
SliderTickRate:1

[Events]
//Background and Video events
0,0,"bg.jpg",0,0
//Break Periods
//Storyboard Layer 0 (Background)
//Storyboard Layer 1 (Fail)
//Storyboard Layer 2 (Pass)
//Storyboard Layer 3 (Foreground)
//Storyboard Sound Samples

[TimingPoints]
-813,307.692307692308,4,2,1,100,1,0
417,-100,4,2,1,70,0,0
7802,-100,4,2,1,40,0,0
8110,-100,4,2,1,50,0,0
8417,-100,4,2,1,60,0,0
8725,-100,4,2,1,70,0,0
9033,-100,4,2,1,30,0,0
10110,-100,4,2,1,90,0,1
10187,-100,4,2,1,90,0,0
28571,-100,4,2,1,70,0,0
39802,-100,4,2,1,90,0,0
59340,-100,4,2,1,100,0,1
69033,-100,4,2,1,100,0,0
69187,-100,4,2,1,100,0,1
79033,-100,4,2,1,90,0,0
97494,-100,4,2,1,80,0,0
98879,-100,4,2,1,60,0,0
99494,-100,4,2,1,50,0,0
100110,-100,4,2,1,42,0,0
100725,-100,4,2,1,34,0,0
101340,-100,4,2,1,26,0,0
101956,-100,4,2,1,18,0,0
102571,-100,4,2,1,14,0,0
103187,-100,4,2,1,10,0,0
103802,-100,4,2,1,5,0,0

[Colours]
Combo1 : 128,255,255
Combo2 : 255,128,128
Combo3 : 128,255,128
Combo4 : 255,128,192
Combo5 : 255,128,64

[HitObjects]
86,325,417,6,0,P|188:353|268:283,1,220,12|0,0:0|0:0,0:0:0:0:
157,87,1648,2,0,P|137:166|163:244,2,165,8|4|2,0:0|3:0|0:0,0:0:0:0:
256,38,2879,6,0,B|327:53|327:53|398:30|398:30|482:50,1,220,6|0,0:0|0:0,0:0:0:0:
363,240,4110,2,0,P|448:263|519:219,2,165,8|4|2,0:0|3:0|0:0,0:0:0:0:
430,153,5340,6,0,P|354:129|313:140,1,110,6|2,0:0|0:0,0:0:0:0:
262,224,5956,2,0,P|203:231|153:209,1,110,2|2,0:0|0:0,0:0:0:0:
63,154,6571,2,0,L|77:33,1,110,2|2,0:0|0:0,0:0:0:0:
181,14,7187,2,0,L|168:137,1,110,2|2,0:0|0:0,0:0:0:0:
256,192,7802,12,0,9033,0:0:0:0:
254,321,10110,6,0,L|388:328,1,110,6|2,0:0|0:0,0:0:0:0:
418,317,10571,2,0,P|443:267|442:251,1,55,8|0,0:0|0:0,0:0:0:0:
445,214,10879,2,0,L|430:86,2,110,2|8|2,0:0|0:0|0:0,0:0:0:0:
337,236,11802,1,8,0:0:0:0:
319,127,12110,2,0,L|327:65,2,55,2|0|8,0:0|0:0|0:0,0:0:0:0:
268,148,12571,6,0,P|221:162|151:134,1,110,6|2,0:0|0:0,0:0:0:0:
124,105,13033,1,8,0:0:0:0:
45,181,13340,1,2,0:0:0:0:
135,244,13648,2,0,B|147:318|147:318|139:360,1,110,8|2,0:0|0:0,0:0:0:0:
50,289,14263,2,0,B|38:215|38:215|46:173,1,110,8|2,0:0|0:0,0:0:0:0:
124,105,14879,1,8,0:0:0:0:
124,105,15033,6,0,P|185:94|240:125,1,110,6|2,0:0|0:0,0:0:0:0:
275,138,15494,2,0,L|286:18,1,110,8|2,0:0|0:0,0:0:0:0:
381,81,16110,2,0,L|392:201,1,110,8|2,0:0|0:0,0:0:0:0:
364,297,16725,1,8,0:0:0:0:
262,253,17033,1,2,0:0:0:0:
196,344,17340,1,8,0:0:0:0:
196,344,17494,6,0,P|156:292|149:246,1,110,6|2,0:0|0:0,0:0:0:0:
164,196,17956,1,8,0:0:0:0:
109,100,18263,1,8,0:0:0:0:
197,35,18571,1,12,0:0:0:0:
256,127,18879,2,0,P|315:113|367:128,1,110,8|8,0:0|0:0,0:0:0:0:
404,227,19494,2,0,L|400:341,1,110,8|8,0:0|0:0,0:0:0:0:
357,372,19956,6,0,B|314:375|314:375|238:350,1,110,6|2,0:0|0:0,0:0:0:0:
196,340,20417,1,8,0:0:0:0:
89,369,20725,1,2,0:0:0:0:
26,278,21033,2,0,P|10:203|29:154,1,110,8|2,0:0|0:0,0:0:0:0:
119,216,21648,2,0,P|128:162|111:110,1,110,8|2,0:0|0:0,0:0:0:0:
209,60,22263,1,8,0:0:0:0:
209,60,22417,6,0,B|256:72|256:72|325:56,1,110,6|2,0:0|0:0,0:0:0:0:
369,45,22879,1,8,0:0:0:0:
466,95,23187,1,2,0:0:0:0:
503,198,23494,2,0,L|490:311,1,110,8|2,0:0|0:0,0:0:0:0:
394,361,24110,1,8,0:0:0:0:
311,288,24417,2,0,L|307:201,2,55,2|8|8,0:0|0:0|0:0,0:0:0:0:
268,324,24879,6,0,P|213:349|157:337,1,110,6|2,0:0|0:0,0:0:0:0:
115,318,25340,1,8,0:0:0:0:
69,217,25648,2,0,L|76:103,2,110,2|8|2,0:0|0:0|0:0,0:0:0:0:
178,230,26571,1,8,0:0:0:0:
271,171,26879,1,2,0:0:0:0:
380,184,27187,1,8,0:0:0:0:
256,192,27494,12,6,28571,0:0:0:0:
392,81,29648,5,8,0:0:0:0:
453,172,29956,6,0,P|460:229|434:281,1,110,12|8,0:0|0:0,0:0:0:0:
328,278,30571,1,8,0:0:0:0:
275,377,30879,2,0,L|216:383,1,55,8|2,0:0|0:0,0:0:0:0:
171,356,31187,2,0,L|47:343,1,110,8|8,0:0|0:0,0:0:0:0:
117,250,31802,2,0,P|137:199|122:147,1,110,8|8,0:0|0:0,0:0:0:0:
50,65,32417,6,0,P|102:39|161:44,1,110,8|8,0:0|0:0,0:0:0:0:
262,55,33033,1,8,0:0:0:0:
371,65,33340,2,0,L|377:125,1,55,8|2,0:0|0:0,0:0:0:0:
424,146,33648,2,0,L|421:268,1,110,8|8,0:0|0:0,0:0:0:0:
334,323,34263,2,0,P|287:307|214:330,1,110,8|8,0:0|0:0,0:0:0:0:
125,358,34879,6,0,P|95:365|66:363,1,55,12|0,0:0|0:0,0:0:0:0:
30,326,35187,2,0,B|8:290|8:290|0:214,1,110,8|8,0:0|0:0,0:0:0:0:
93,163,35802,2,0,L|99:105,1,55,8|2,0:0|0:0,0:0:0:0:
82,55,36110,2,0,P|119:79|199:67,1,110,8|8,0:0|0:0,0:0:0:0:
287,41,36725,2,0,P|329:37|349:40,1,55,8|2,0:0|0:0,0:0:0:0:
392,60,37033,2,0,P|431:68|454:87,1,55,8|0,0:0|0:0,0:0:0:0:
467,125,37340,6,0,P|484:185|466:243,1,110,12|8,0:0|0:0,0:0:0:0:
362,231,37956,1,8,0:0:0:0:
345,339,38263,2,0,L|278:352,1,55,8|2,0:0|0:0,0:0:0:0:
236,359,38571,1,8,0:0:0:0:
126,346,38879,1,12,0:0:0:0:
54,261,39187,2,0,P|59:229|54:196,1,55,2|8,0:0|0:0,0:0:0:0:
73,154,39494,2,0,P|60:114|48:100,1,55,8|8,0:0|0:0,0:0:0:0:
15,62,39802,6,0,P|58:70|120:44,1,110,6|8,0:0|0:0,0:0:0:0:
226,30,40417,1,2,0:0:0:0:
319,100,40725,1,8,0:0:0:0:
319,100,40879,2,0,L|330:217,1,110,2|2,0:0|0:0,0:0:0:0:
337,263,41340,1,8,0:0:0:0:
259,341,41648,1,2,0:0:0:0:
159,288,41956,6,0,L|151:176,1,110,8|2,0:0|0:0,0:0:0:0:
212,86,42571,2,0,P|285:101|328:84,1,110,8|2,0:0|0:0,0:0:0:0:
410,30,43187,1,8,0:0:0:0:
410,30,43340,2,0,B|421:88|421:88|409:144,1,110,2|0,0:0|0:0,0:0:0:0:
397,191,43802,1,8,0:0:0:0:
408,300,44110,1,2,0:0:0:0:
304,324,44417,1,8,0:0:0:0:
304,324,44571,6,0,P|247:306|190:319,1,110,6|2,0:0|0:0,0:0:0:0:
155,349,45033,1,8,0:0:0:0:
70,279,45340,1,2,0:0:0:0:
125,183,45648,2,0,L|131:66,1,110,8|2,0:0|0:0,0:0:0:0:
239,88,46263,1,8,0:0:0:0:
344,117,46571,2,0,B|350:87|350:87|346:60,2,55,2|2|8,0:0|0:0|0:0,0:0:0:0:
346,227,47187,5,6,0:0:0:0:
278,313,47494,2,0,P|335:337|386:329,1,110,8|2,0:0|0:0,0:0:0:0:
460,253,48110,2,0,L|463:130,1,110,8|2,0:0|0:0,0:0:0:0:
360,102,48725,2,0,L|356:41,1,55,8|8,0:0|0:0,0:0:0:0:
305,25,49033,2,0,P|237:17|198:37,1,110,8|2,0:0|0:0,0:0:0:0:
130,118,49648,6,0,L|129:179,1,55,6|2,0:0|0:0,0:0:0:0:
60,259,50110,1,8,0:0:0:0:
176,376,50571,2,0,L|177:315,1,55,2|2,0:0|0:0,0:0:0:0:
246,235,51033,1,8,0:0:0:0:
359,354,51494,2,0,P|393:368|422:370,1,55,2|2,0:0|0:0,0:0:0:0:
465,363,51802,1,8,0:0:0:0:
418,262,52110,6,0,L|420:197,1,55,6|2,0:0|0:0,0:0:0:0:
469,108,52571,1,8,0:0:0:0:
334,12,53033,2,0,L|332:77,1,55,2|2,0:0|0:0,0:0:0:0:
283,166,53494,1,8,0:0:0:0:
127,109,53956,2,0,P|118:145|119:170,1,55,8|4,0:0|3:0,0:0:0:0:
121,217,54263,2,0,P|121:246|111:270,1,55,2|2,0:0|0:0,0:0:0:0:
85,318,54571,5,6,0:0:0:0:
406,71,56725,1,8,0:0:0:0:
466,163,57033,6,0,P|476:222|452:279,1,110,12|8,0:0|0:0,0:0:0:0:
426,312,57494,2,0,P|379:328|309:305,1,110,2|2,0:0|0:0,0:0:0:0:
277,281,57956,2,0,P|264:242|270:213,1,55,8|8,0:0|0:0,0:0:0:0:
142,28,59340,6,0,P|87:36|41:91,1,110,6|2,0:0|0:0,0:0:0:0:
36,126,59802,1,8,0:0:0:0:
99,215,60110,1,2,0:0:0:0:
40,307,60417,1,8,0:0:0:0:
40,307,60571,2,0,P|105:324|152:311,1,110,2|0,0:0|0:0,0:0:0:0:
188,279,61033,1,8,0:0:0:0:
297,283,61340,2,0,P|360:286|406:327,1,110,2|8,0:0|0:0,0:0:0:0:
436,351,61802,6,0,B|451:313|451:313|447:233,1,110,6|2,0:0|0:0,0:0:0:0:
443,189,62263,1,8,0:0:0:0:
402,86,62571,2,0,P|440:76|469:78,2,55,2|2|8,0:0|0:0|0:0,0:0:0:0:
349,104,63033,2,0,B|306:112|306:112|221:88,1,110,2|2,0:0|0:0,0:0:0:0:
190,76,63494,1,8,0:0:0:0:
84,103,63802,2,0,P|78:66|84:45,2,55,2|8|8,0:0|0:0|0:0,0:0:0:0:
94,157,64263,6,0,B|105:199|105:199|93:276,1,110,6|2,0:0|0:0,0:0:0:0:
83,319,64725,1,8,0:0:0:0:
176,376,65033,1,2,0:0:0:0:
265,312,65340,1,8,0:0:0:0:
265,312,65494,2,0,P|318:296|380:322,1,110,2|2,0:0|0:0,0:0:0:0:
414,343,65956,1,8,0:0:0:0:
474,251,66263,1,2,0:0:0:0:
439,149,66571,1,8,0:0:0:0:
439,149,66725,6,0,P|386:165|324:139,1,110,6|2,0:0|0:0,0:0:0:0:
303,102,67187,1,8,0:0:0:0:
193,121,67494,1,8,0:0:0:0:
155,226,67802,1,8,0:0:0:0:
227,311,68109,1,8,0:0:0:0:
336,291,68417,1,8,0:0:0:0:
374,187,68725,2,0,L|430:179,2,55,8|2|8,0:0|0:0|0:0,0:0:0:0:
319,199,69187,6,0,L|188:217,1,110,6|2,0:0|0:0,0:0:0:0:
155,226,69648,1,8,0:0:0:0:
47,194,69956,1,2,0:0:0:0:
70,304,70263,1,8,0:0:0:0:
70,304,70417,2,0,P|120:336|170:338,1,110,2|0,0:0|0:0,0:0:0:0:
221,320,70879,1,8,0:0:0:0:
328,294,71187,2,0,L|449:312,1,110,2|8,0:0|0:0,0:0:0:0:
473,351,71648,6,0,L|485:208,1,110,6|2,0:0|0:0,0:0:0:0:
487,186,72110,1,8,0:0:0:0:
435,89,72417,2,0,P|465:77|492:76,2,55,2|2|8,0:0|0:0|0:0,0:0:0:0:
386,115,72879,2,0,B|339:132|339:132|250:116,1,110,2|2,0:0|0:0,0:0:0:0:
227,105,73340,1,8,0:0:0:0:
120,134,73648,2,0,P|116:100|120:70,2,55,2|8|8,0:0|0:0|0:0,0:0:0:0:
133,187,74110,6,0,B|141:232|141:232|130:297,1,110,6|2,0:0|0:0,0:0:0:0:
122,349,74571,1,8,0:0:0:0:
227,380,74879,1,2,0:0:0:0:
307,304,75187,1,8,0:0:0:0:
307,304,75340,2,0,P|368:319|426:301,1,110,2|2,0:0|0:0,0:0:0:0:
451,269,75802,1,8,0:0:0:0:
389,177,76110,1,2,0:0:0:0:
457,91,76417,1,8,0:0:0:0:
256,192,76725,12,8,77956,0:0:0:0:
137,88,78879,5,8,0:0:0:0:
137,88,79033,6,0,B|117:122|117:122|120:201,1,110,6|2,0:0|0:0,0:0:0:0:
123,247,79494,1,8,0:0:0:0:
197,328,79802,1,2,0:0:0:0:
305,296,80110,2,0,L|431:290,1,110,8|2,0:0|0:0,0:0:0:0:
407,180,80725,2,0,L|283:185,1,110,8|2,0:0|0:0,0:0:0:0:
208,249,81340,1,8,0:0:0:0:
208,249,81494,6,0,P|188:191|206:123,1,110,6|2,0:0|0:0,0:0:0:0:
228,99,81956,1,8,0:0:0:0:
311,27,82263,2,0,L|376:22,1,55,2|0,0:0|0:0,0:0:0:0:
392,68,82571,2,0,L|512:76,1,110,8|2,0:0|0:0,0:0:0:0:
464,179,83187,1,8,0:0:0:0:
482,287,83494,2,0,L|484:349,2,55,2|8|8,0:0|0:0|0:0,0:0:0:0:
432,261,83956,6,0,P|375:248|326:275,1,110,6|2,0:0|0:0,0:0:0:0:
299,315,84417,1,8,0:0:0:0:
200,363,84725,1,2,0:0:0:0:
107,302,85033,2,0,P|98:238|120:189,1,110,8|2,0:0|0:0,0:0:0:0:
208,257,85648,2,0,P|225:205|215:152,1,110,8|2,0:0|0:0,0:0:0:0:
151,68,86263,1,8,0:0:0:0:
151,68,86417,6,0,B|192:71|192:71|282:52,1,110,6|2,0:0|0:0,0:0:0:0:
311,46,86879,1,8,0:0:0:0:
421,60,87187,1,8,0:0:0:0:
441,167,87494,1,12,0:0:0:0:
345,221,87802,1,8,0:0:0:0:
266,147,88110,1,8,0:0:0:0:
311,46,88417,2,0,P|256:35|204:54,1,110,8|8,0:0|0:0,0:0:0:0:
166,92,88879,6,0,P|151:155|173:217,1,110,6|2,0:0|0:0,0:0:0:0:
184,247,89340,1,8,0:0:0:0:
241,341,89648,2,0,P|181:357|120:337,2,110,2|8|2,0:0|0:0|0:0,0:0:0:0:
346,310,90571,2,0,L|468:322,1,110,8|2,0:0|0:0,0:0:0:0:
503,221,91187,1,8,0:0:0:0:
503,221,91340,1,6,0:0:0:0:
425,149,91648,5,2,0:0:0:0:
425,149,91802,2,0,B|408:110|408:110|416:19,1,110,8|2,0:0|0:0,0:0:0:0:
306,18,92417,2,0,P|246:14|189:48,1,110,8|2,0:0|0:0,0:0:0:0:
268,123,93033,1,8,0:0:0:0:
173,179,93340,2,0,P|159:151|160:110,2,55,2|8|8,0:0|0:0|0:0,0:0:0:0:
186,232,93802,6,0,B|193:262|193:262|184:351,1,110,6|2,0:0|0:0,0:0:0:0:
146,380,94263,1,8,0:0:0:0:
87,286,94571,1,2,0:0:0:0:
154,198,94879,2,0,L|274:207,1,110,8|2,0:0|0:0,0:0:0:0:
326,298,95494,2,0,P|363:306|390:301,1,55,8|0,0:0|0:0,0:0:0:0:
431,284,95802,2,0,P|455:260|466:225,1,55,2|0,0:0|0:0,0:0:0:0:
478,187,96110,1,8,0:0:0:0:
407,102,96417,5,12,0:0:0:0:
301,133,96725,1,2,0:0:0:0:
301,133,96879,1,12,0:0:0:0:
211,68,97187,2,0,L|219:11,2,55,2|8|6,0:0|0:0|0:0,0:0:0:0:
256,192,98879,12,0,103802,0:0:0:0:
