osu file format v14

[General]
AudioFilename: audio.mp3
AudioLeadIn: 0
PreviewTime: 58740
Countdown: 0
SampleSet: Soft
StackLeniency: 0.7
Mode: 0
LetterboxInBreaks: 0
WidescreenStoryboard: 0

[Editor]
Bookmarks: 96876
DistanceSpacing: 0.4
BeatDivisor: 4
GridSize: 4
TimelineZoom: 2.1

[Metadata]
Title:LOUDER
TitleUnicode:LOUDER
Artist:Roselia
ArtistUnicode:Roselia
Creator:scanter
Version:Hard
Source:バンドリ!ガールズバンドパーティ!
Tags:Event Garupa Bandori BanG Dream! ガルパ! Girls Band Party! Minato Yukina 湊友希那 Hikawa Sayo 氷川紗夜 Imai Lisa 今井リサ Udagawa Ako 宇田川あこ Shirogane Rinko 白金燐子 ロゼリア Aiba Aina 相羽あいな Akesaka Satomi 明坂聡美 Endou Yurika 遠藤ゆりか Kudou Haruka 工藤晴香 Sakuragawa Megu 桜川めぐ eLy _Meep_ Meep Yuria Anais CLSW Crystal groundswim JarrenTanJR Ancelyze Rayon BLACK SHOUT Game Version
BeatmapID:1260494
BeatmapSetID:595580

[Difficulty]
HPDrainRate:5
CircleSize:4
OverallDifficulty:6.2
ApproachRate:7.5
SliderMultiplier:1.4
SliderTickRate:1

[Events]
//Background and Video events
0,0,"bg.jpg",0,0
//Break Periods
//Storyboard Layer 0 (Background)
//Storyboard Layer 1 (Fail)
//Storyboard Layer 2 (Pass)
//Storyboard Layer 3 (Foreground)
//Storyboard Sound Samples

[TimingPoints]
-813,307.692307692308,4,2,1,100,1,0
417,-125,4,2,1,70,0,0
7802,-125,4,2,1,40,0,0
8110,-125,4,2,1,50,0,0
8417,-125,4,2,1,60,0,0
8725,-125,4,2,1,70,0,0
10110,-100,4,2,1,90,0,1
10187,-100,4,2,1,90,0,0
28571,-100,4,2,1,70,0,0
29956,-125,4,2,1,70,0,0
39802,-100,4,2,1,90,0,0
49648,-125,4,2,1,90,0,0
57033,-100,4,2,1,90,0,0
59340,-100,4,2,1,100,0,1
69033,-100,4,2,1,100,0,0
69187,-100,4,2,1,100,0,1
79033,-100,4,2,1,90,0,0
97494,-166.666666666667,4,2,1,80,0,0
98879,-166.666666666667,4,2,1,60,0,0
99494,-166.666666666667,4,2,1,50,0,0
100110,-166.666666666667,4,2,1,42,0,0
100725,-166.666666666667,4,2,1,34,0,0
101340,-166.666666666667,4,2,1,26,0,0
101956,-166.666666666667,4,2,1,18,0,0
102571,-166.666666666667,4,2,1,14,0,0
103187,-166.666666666667,4,2,1,10,0,0
103802,-166.666666666667,4,2,1,5,0,0

[Colours]
Combo1 : 128,255,255
Combo2 : 255,128,128
Combo3 : 128,255,128
Combo4 : 255,128,192
Combo5 : 255,128,64

[HitObjects]
329,285,263,5,2,0:0:0:0:
329,285,340,1,2,0:0:0:0:
329,285,417,6,0,P|409:267|416:136,1,224,12|0,0:0|0:0,0:0:0:0:
201,76,1648,6,0,B|151:70|151:70|87:100|87:100|27:92,2,168,8|4|2,0:0|3:0|0:0,0:0:0:0:
343,194,2879,6,0,P|263:212|271:352,1,224,6|0,0:0|0:0,0:0:0:0:
435,69,4110,5,8,0:0:0:0:
435,69,4263,2,0,B|395:81|395:81|303:66,2,112,2|2|2,0:0|0:0|0:0,0:0:0:0:
317,289,5187,1,8,0:0:0:0:
317,289,5264,1,8,0:0:0:0:
317,289,5340,6,0,L|199:270,1,112,6|2,0:0|0:0,0:0:0:0:
33,308,5956,2,0,L|151:327,1,112,2|2,0:0|0:0,0:0:0:0:
305,210,6571,6,0,L|187:191,1,112,2|2,0:0|0:0,0:0:0:0:
21,229,7187,2,0,L|139:248,1,112,2|2,0:0|0:0,0:0:0:0:
241,361,7802,5,8,0:0:0:0:
391,319,8110,1,8,0:0:0:0:
469,187,8417,1,8,0:0:0:0:
445,33,8725,1,8,0:0:0:0:
89,112,10110,6,0,P|153:145|213:117,1,140,6|2,0:0|0:0,0:0:0:0:
74,24,10571,2,0,P|35:37|9:70,1,70,8|0,0:0|0:0,0:0:0:0:
89,112,10879,2,0,P|74:167|120:245,1,140,2|8,0:0|0:0,0:0:0:0:
195,271,11340,1,0,0:0:0:0:
144,347,11494,6,0,B|120:362|120:362|0:340,2,140,2|8|2,0:0|0:0|0:0,0:0:0:0:
195,271,12263,2,0,L|269:279,1,70,0|8,0:0|0:0,0:0:0:0:
384,218,12571,6,0,B|405:252|405:252|389:365,1,140,6|2,0:0|0:0,0:0:0:0:
298,188,13033,2,0,P|315:157|352:135,1,70,8|0,0:0|0:0,0:0:0:0:
312,276,13340,2,0,L|150:279,1,140,2|8,0:0|0:0,0:0:0:0:
80,282,13802,1,0,0:0:0:0:
126,203,13956,6,0,P|146:145|97:83,2,140,2|8|2,0:0|0:0|0:0,0:0:0:0:
319,337,14879,1,8,0:0:0:0:
319,337,15033,6,0,P|388:352|448:308,1,140,6|2,0:0|0:0,0:0:0:0:
359,194,15494,2,0,L|368:264,1,70,8|0,0:0|0:0,0:0:0:0:
408,119,15802,2,0,P|339:105|279:151,1,140,2|8,0:0|0:0,0:0:0:0:
219,210,16263,1,0,0:0:0:0:
219,210,16417,6,0,B|185:219|185:219|53:190,1,140,2|8,0:0|0:0,0:0:0:0:
0,365,17033,2,0,B|34:356|34:356|164:383,1,140,2|8,0:0|0:0,0:0:0:0:
34,272,17494,6,0,L|199:308,1,140,6|2,0:0|0:0,0:0:0:0:
294,210,17956,2,0,P|262:212|224:234,1,70,8|2,0:0|0:0,0:0:0:0:
367,264,18263,2,0,P|381:235|382:190,1,70,8|2,0:0|0:0,0:0:0:0:
288,301,18571,2,0,P|305:327|347:348,1,70,12|2,0:0|0:0,0:0:0:0:
445,306,18879,6,0,P|465:255|466:169,1,140,8|8,0:0|0:0,0:0:0:0:
403,102,19340,1,2,0:0:0:0:
323,61,19494,2,0,P|313:100|327:146,2,70,8|2|8,0:0|0:0|0:0,0:0:0:0:
403,102,19956,6,0,L|234:92,1,140,6|2,0:0|0:0,0:0:0:0:
135,161,20417,2,0,L|205:166,1,70,8|0,0:0|0:0,0:0:0:0:
85,88,20725,2,0,P|47:141|65:216,1,140,2|8,0:0|0:0,0:0:0:0:
118,285,21187,1,0,0:0:0:0:
203,319,21340,6,0,L|295:314,1,70,2|0,0:0|0:0,0:0:0:0:
346,370,21648,2,0,L|432:365,1,70,8|0,0:0|0:0,0:0:0:0:
455,256,21956,2,0,L|308:240,1,140,2|8,0:0|0:0,0:0:0:0:
464,179,22417,6,0,L|318:163,1,140,6|2,0:0|0:0,0:0:0:0:
238,133,22879,1,8,0:0:0:0:
157,178,23033,1,0,0:0:0:0:
95,111,23187,2,0,P|76:75|79:35,2,70,2|0|8,0:0|0:0|0:0,0:0:0:0:
157,178,23648,1,0,0:0:0:0:
172,267,23802,6,0,P|177:303|159:354,1,70,2|0,0:0|0:0,0:0:0:0:
87,299,24110,2,0,P|62:337|34:355,1,70,8|0,0:0|0:0,0:0:0:0:
3,269,24417,1,2,0:0:0:0:
34,182,24571,2,0,L|33:145,2,35,8|8|8,0:0|0:0|0:0,0:0:0:0:
81,74,24879,6,0,P|150:45|214:75,1,140,6|2,0:0|0:0,0:0:0:0:
263,141,25340,2,0,P|230:157|193:159,2,70,8|0|2,0:0|0:0|0:0,0:0:0:0:
297,55,25802,1,0,0:0:0:0:
386,73,25956,2,0,L|463:86,1,70,8|0,0:0|0:0,0:0:0:0:
508,191,26263,6,0,L|435:207,1,70,2|0,0:0|0:0,0:0:0:0:
370,267,26571,2,0,L|294:256,1,70,8|0,0:0|0:0,0:0:0:0:
223,306,26879,1,2,0:0:0:0:
134,329,27033,1,0,0:0:0:0:
72,262,27187,2,0,P|65:215|74:185,1,70,8|0,0:0|0:0,0:0:0:0:
149,86,27494,6,0,P|158:160|148:231,1,140,12|2,0:0|0:0,0:0:0:0:
228,86,27956,2,0,P|236:160|228:231,1,140,12|2,0:0|0:0,0:0:0:0:
283,330,28417,1,8,0:0:0:0:
397,302,28571,5,6,0:0:0:0:
256,192,28648,12,8,29648,0:0:0:0:
184,277,29956,6,0,P|139:304|116:310,1,56,12|0,0:0|0:0,0:0:0:0:
121,215,30263,2,0,P|91:215|65:207,1,56,8|0,0:0|0:0,0:0:0:0:
177,144,30571,2,0,P|222:140|296:181,1,112,8|8,0:0|0:0,0:0:0:0:
358,217,31033,1,0,0:0:0:0:
431,165,31187,6,0,B|442:132|442:132|429:46,2,112,8|8|8,0:0|0:0|0:0,0:0:0:0:
358,217,31956,1,2,0:0:0:0:
404,295,32110,2,0,P|433:304|459:304,1,56,8|0,0:0|0:0,0:0:0:0:
316,299,32417,6,0,L|187:323,1,112,8|8,0:0|0:0,0:0:0:0:
115,316,32879,1,0,0:0:0:0:
50,254,33033,2,0,P|32:202|61:135,2,112,8|8|8,0:0|0:0|0:0,0:0:0:0:
122,200,33802,5,0,0:0:0:0:
177,135,33956,2,0,L|182:79,1,56,8|0,0:0|0:0,0:0:0:0:
232,207,34263,2,0,L|237:268,1,56,8|2,0:0|0:0,0:0:0:0:
287,133,34571,2,0,L|291:72,1,56,8|2,0:0|0:0,0:0:0:0:
325,215,34879,6,0,P|356:234|387:234,1,56,12|0,0:0|0:0,0:0:0:0:
453,189,35187,2,0,L|462:69,2,112,8|8|8,0:0|0:0|0:0,0:0:0:0:
461,279,35956,1,0,0:0:0:0:
408,353,36110,6,0,P|436:368|462:370,1,56,8|0,0:0|0:0,0:0:0:0:
373,271,36417,2,0,L|250:275,1,112,8|8,0:0|0:0,0:0:0:0:
194,337,36879,2,0,L|198:386,2,28,2|2|8,0:0|0:0|0:0,0:0:0:0:
177,252,37187,1,2,0:0:0:0:
113,182,37340,6,0,P|72:173|55:177,1,56,12|0,0:0|0:0,0:0:0:0:
177,252,37648,2,0,P|230:262|288:227,2,112,8|8|8,0:0|0:0|0:0,0:0:0:0:
63,81,38571,5,8,0:0:0:0:
144,43,38725,2,0,L|147:8,2,28,2|2|12,0:0|0:0|0:0,0:0:0:0:
213,103,39033,1,0,0:0:0:0:
297,70,39187,2,0,P|331:61|366:66,1,56,2|8,0:0|0:0,0:0:0:0:
411,132,39494,2,0,P|444:141|477:167,1,56,8|0,0:0|0:0,0:0:0:0:
466,245,39802,6,0,P|489:299|450:380,1,140,6|8,0:0|0:0,0:0:0:0:
399,305,40263,1,0,0:0:0:0:
317,265,40417,2,0,P|278:259|239:270,1,70,2|2,0:0|0:0,0:0:0:0:
209,348,40725,2,0,P|245:354|281:348,1,70,8|0,0:0|0:0,0:0:0:0:
354,189,41033,6,0,P|300:174|200:194,1,140,2|8,0:0|0:0,0:0:0:0:
140,236,41494,1,0,0:0:0:0:
61,190,41648,2,0,P|49:226|56:270,2,70,2|2|8,0:0|0:0|0:0,0:0:0:0:
97,106,42110,1,0,0:0:0:0:
19,59,42263,6,0,L|167:48,1,140,2|8,0:0|0:0,0:0:0:0:
238,92,42725,1,0,0:0:0:0:
320,131,42879,2,0,P|361:129|390:106,1,70,2|2,0:0|0:0,0:0:0:0:
449,176,43187,2,0,P|469:142|474:107,1,70,8|0,0:0|0:0,0:0:0:0:
330,56,43494,6,0,L|374:210,1,140,2|8,0:0|0:0,0:0:0:0:
428,261,43956,1,0,0:0:0:0:
387,343,44110,2,0,P|426:353|465:345,2,70,2|2|8,0:0|0:0|0:0,0:0:0:0:
328,273,44571,6,0,L|182:276,1,140,6|2,0:0|0:0,0:0:0:0:
100,245,45033,2,0,P|95:281|103:318,1,70,8|0,0:0|0:0,0:0:0:0:
172,189,45340,2,0,B|182:158|182:158|169:44,1,140,2|8,0:0|0:0,0:0:0:0:
92,142,45802,1,0,0:0:0:0:
100,245,45956,6,0,P|169:282|233:258,1,140,2|8,0:0|0:0,0:0:0:0:
380,101,46571,2,0,L|381:28,2,70,2|2|8,0:0|0:0|0:0,0:0:0:0:
456,154,47033,1,2,0:0:0:0:
479,240,47187,6,0,P|481:287|468:317,1,70,6|0,0:0|0:0,0:0:0:0:
394,267,47494,1,8,0:0:0:0:
313,306,47648,2,0,B|277:316|277:316|144:290,1,140,0|2,0:0|0:0,0:0:0:0:
124,226,48110,1,8,0:0:0:0:
87,309,48263,6,0,L|83:379,1,70,2|0,0:0|0:0,0:0:0:0:
124,226,48571,2,0,L|119:153,1,70,2|8,0:0|0:0,0:0:0:0:
190,64,48879,2,0,L|187:98,2,35,8|8|8,0:0|0:0|0:0,0:0:0:0:
228,180,49187,1,2,0:0:0:0:
316,196,49340,2,0,P|355:192|389:170,1,70,2|2,0:0|0:0,0:0:0:0:
449,116,49648,5,6,0:0:0:0:
449,116,49802,1,2,0:0:0:0:
458,329,50110,2,0,P|413:353|340:338,1,112,8|0,0:0|0:0,0:0:0:0:
283,297,50571,1,2,0:0:0:0:
283,297,50725,1,2,0:0:0:0:
69,305,51033,6,0,L|196:321,1,112,8|0,0:0|0:0,0:0:0:0:
138,228,51494,2,0,L|142:194,3,28,2|2|2|2,0:0|0:0|0:0|0:0,0:0:0:0:
144,169,51802,1,8,0:0:0:0:
4,12,52110,5,6,0:0:0:0:
4,12,52263,1,2,0:0:0:0:
207,83,52571,2,0,B|245:88|245:88|340:67,1,112,8|0,0:0|0:0,0:0:0:0:
407,53,53033,1,2,0:0:0:0:
407,53,53187,1,2,0:0:0:0:
493,242,53494,6,0,L|496:302,1,56,8|8,0:0|0:0,0:0:0:0:
421,348,53802,2,0,L|416:382,2,28,2|8|8,0:0|0:0|0:0,0:0:0:0:
340,309,54110,1,4,3:0:0:0:
254,335,54263,2,0,L|182:332,1,56,2|2,0:0|0:0,0:0:0:0:
110,352,54571,5,6,0:0:0:0:
100,85,56725,2,0,L|134:92,3,28,8|2|2|2,0:0|0:0|0:0|0:0,0:0:0:0:
165,99,57033,6,0,P|233:81|291:123,1,140,12|8,0:0|0:0,0:0:0:0:
340,205,57494,1,8,0:0:0:0:
340,205,57571,1,2,0:0:0:0:
340,205,57648,2,0,L|385:202,3,35,8|2|8|8,0:0|0:0|0:0|0:0,0:0:0:0:
410,224,57956,2,0,L|456:221,3,35,8|8|8|8,0:0|0:0|0:0|0:0,0:0:0:0:
481,239,58263,5,0,0:0:0:0:
428,17,58879,2,0,P|450:56|448:101,2,70
367,79,59340,6,0,B|323:98|323:98|205:75,1,140,6|2,0:0|0:0,0:0:0:0:
90,27,59802,2,0,P|124:20|159:28,1,70,8|0,0:0|0:0,0:0:0:0:
125,112,60110,2,0,P|101:158|133:250,1,140,2|8,0:0|0:0,0:0:0:0:
206,270,60571,1,2,0:0:0:0:
138,327,60725,6,0,B|114:351|114:351|-10:332,2,140,0|8|2,0:0|0:0|0:0,0:0:0:0:
206,270,61494,1,2,0:0:0:0:
294,294,61648,1,8,0:0:0:0:
364,235,61802,6,0,P|408:221|498:283,1,140,6|2,0:0|0:0,0:0:0:0:
412,312,62263,2,0,L|443:156,1,140,8|2,0:0|0:0,0:0:0:0:
499,55,62725,1,2,0:0:0:0:
416,89,62879,1,8,0:0:0:0:
335,47,63033,6,0,B|291:51|291:51|238:33|238:33|178:39,1,140,2|2,0:0|0:0,0:0:0:0:
126,93,63494,2,0,P|109:60|108:24,1,70,8|0,0:0|0:0,0:0:0:0:
211,126,63802,1,2,0:0:0:0:
205,216,63956,2,0,L|207:256,2,35,8|8|8,0:0|0:0|0:0,0:0:0:0:
116,221,64263,6,0,L|125:377,1,140,6|2,0:0|0:0,0:0:0:0:
211,332,64725,2,0,P|246:319|284:324,1,70,8|0,0:0|0:0,0:0:0:0:
351,376,65033,2,0,P|422:365|462:311,1,140,2|8,0:0|0:0,0:0:0:0:
362,158,65494,6,0,P|343:223|372:285,1,140,2|2,0:0|0:0,0:0:0:0:
505,216,65956,2,0,L|436:218,1,70,8|0,0:0|0:0,0:0:0:0:
452,127,66263,1,2,0:0:0:0:
505,51,66417,2,0,L|505:16,2,35,8|8|8,0:0|0:0|0:0,0:0:0:0:
383,72,66725,6,0,P|318:48|233:96,1,140,6|2,0:0|0:0,0:0:0:0:
202,146,67187,1,8,0:0:0:0:
202,361,67494,1,8,0:0:0:0:
76,186,67802,1,8,0:0:0:0:
280,253,68110,5,8,0:0:0:0:
72,319,68417,1,8,0:0:0:0:
202,146,68725,1,8,0:0:0:0:
166,253,68879,2,0,L|154:290,2,35,2|2|8,0:0|0:0|0:0,0:0:0:0:
254,235,69187,6,0,P|293:256|388:218,1,140,6|2,0:0|0:0,0:0:0:0:
393,138,69648,2,0,P|428:151|455:176,1,70,8|0,0:0|0:0,0:0:0:0:
314,167,69956,2,0,B|305:133|305:133|325:73|325:73|310:24,1,140,2|8,0:0|0:0,0:0:0:0:
231,74,70417,6,0,P|195:78|160:71,1,70,2|0,0:0|0:0,0:0:0:0:
79,34,70725,1,2,0:0:0:0:
35,112,70879,2,0,B|26:140|26:140|35:194,1,70,8|0,0:0|0:0,0:0:0:0:
118,222,71187,1,2,0:0:0:0:
118,222,71340,2,0,L|111:296,1,70,2|8,0:0|0:0,0:0:0:0:
203,204,71648,6,0,L|191:352,1,140,4|2,0:0|0:0,0:0:0:0:
288,190,72110,2,0,L|283:120,1,70,8|0,0:0|0:0,0:0:0:0:
354,252,72417,1,2,0:0:0:0:
434,210,72571,1,2,0:0:0:0:
504,268,72725,1,8,0:0:0:0:
423,309,72879,6,0,L|414:383,1,70,2|0,0:0|0:0,0:0:0:0:
324,381,73187,1,2,0:0:0:0:
239,352,73340,2,0,P|203:348|162:368,1,70,8|0,0:0|0:0,0:0:0:0:
93,314,73648,1,8,0:0:0:0:
149,241,73802,2,0,L|149:207,2,35,2|2|8,0:0|0:0|0:0,0:0:0:0:
58,226,74110,6,0,L|64:75,1,140,6|2,0:0|0:0,0:0:0:0:
147,48,74571,2,0,P|174:68|215:70,1,70,8|0,0:0|0:0,0:0:0:0:
300,57,74879,1,2,0:0:0:0:
380,14,75033,1,2,0:0:0:0:
456,64,75187,1,8,0:0:0:0:
377,106,75340,6,0,B|398:168|347:177|375:250,1,140,2|2,0:0|0:0,0:0:0:0:
345,330,75802,2,0,P|381:336|412:327,1,70,8|0,0:0|0:0,0:0:0:0:
287,259,76110,2,0,L|128:269,1,140,2|8,0:0|0:0,0:0:0:0:
56,275,76571,1,2,0:0:0:0:
99,160,76725,6,0,L|98:123,3,35,12|8|8|8,0:0|0:0|0:0|0:0,0:0:0:0:
131,102,77033,2,0,L|137:65,3,35,8|8|4|4,0:0|0:0|3:0|3:0,0:0:0:0:
176,64,77340,2,0,L|192:30,3,35,2|2|2|2,0:0|0:0|0:0|0:0,0:0:0:0:
230,36,77648,2,0,L|257:5,3,35,2|2|2|2,0:0|0:0|0:0|0:0,0:0:0:0:
292,14,77956,5,8,0:0:0:0:
462,311,78879,1,8,0:0:0:0:
462,311,78956,1,8,0:0:0:0:
462,311,79033,6,0,P|407:354|328:332,1,140,6|2,0:0|0:0,0:0:0:0:
207,270,79494,2,0,L|277:277,1,70,8|0,0:0|0:0,0:0:0:0:
256,361,79802,2,0,L|105:346,1,140,2|8,0:0|0:0,0:0:0:0:
59,275,80263,1,0,0:0:0:0:
53,184,80417,6,0,B|67:146|67:146|50:38,2,140,2|8|2,0:0|0:0|0:0,0:0:0:0:
132,230,81187,2,0,L|155:162,1,70,0|8,0:0|0:0,0:0:0:0:
146,72,81494,6,0,P|202:105|288:70,1,140,6|2,0:0|0:0,0:0:0:0:
393,11,81956,2,0,L|324:11,1,70,8|0,0:0|0:0,0:0:0:0:
359,97,82263,2,0,L|428:98,1,70,2|0,0:0|0:0,0:0:0:0:
485,177,82571,2,0,P|498:224|486:267,1,70,8|0,0:0|0:0,0:0:0:0:
407,227,82879,6,0,P|393:277|423:366,2,140,2|8|2,0:0|0:0|0:0,0:0:0:0:
354,151,83648,2,0,L|351:103,2,35,8|8|8,0:0|0:0|0:0,0:0:0:0:
280,205,83956,6,0,P|247:221|138:164,1,140,6|2,0:0|0:0,0:0:0:0:
73,236,84417,2,0,P|76:273|65:309,1,70,8|0,0:0|0:0,0:0:0:0:
14,169,84725,2,0,P|11:89|49:33,1,140,2|8,0:0|0:0,0:0:0:0:
132,20,85187,1,0,0:0:0:0:
187,92,85340,6,0,L|262:84,1,70,2|0,0:0|0:0,0:0:0:0:
341,120,85648,2,0,L|420:101,1,70,8|0,0:0|0:0,0:0:0:0:
472,37,85956,2,0,B|444:69|444:69|459:177,1,140,2|8,0:0|0:0,0:0:0:0:
351,229,86417,6,0,B|379:197|379:197|364:100,1,140,6|2,0:0|0:0,0:0:0:0:
261,246,86879,2,0,P|287:296|378:316,1,140,8|8,0:0|0:0,0:0:0:0:
351,229,87340,1,2,0:0:0:0:
287,159,87494,2,0,P|247:156|215:165,1,70,12|2,0:0|0:0,0:0:0:0:
129,179,87802,6,0,L|68:172,3,35,8|8|2|2,0:0|0:0|0:0|0:0,0:0:0:0:
84,213,88110,2,0,L|24:219,3,35,8|8|2|2,0:0|0:0|0:0|0:0,0:0:0:0:
52,255,88417,2,0,L|-3:273,3,35,8|8|2|2,0:0|0:0|0:0|0:0,0:0:0:0:
13,305,88725,1,8,0:0:0:0:
67,365,88879,6,0,P|134:374|195:308,1,140,6|2,0:0|0:0,0:0:0:0:
308,240,89340,2,0,P|273:242|242:257,1,70,8|0,0:0|0:0,0:0:0:0:
295,333,89648,1,2,0:0:0:0:
380,366,89802,1,0,0:0:0:0:
460,319,89956,2,0,L|463:248,1,70,8|0,0:0|0:0,0:0:0:0:
423,167,90263,6,0,L|417:20,2,140,2|8|2,0:0|0:0|0:0,0:0:0:0:
337,201,91033,1,0,0:0:0:0:
256,160,91187,1,8,0:0:0:0:
171,188,91340,6,0,B|130:196|130:196|25:171,1,140,6|2,0:0|0:0,0:0:0:0:
188,98,91802,2,0,P|218:76|265:70,1,70,8|0,0:0|0:0,0:0:0:0:
239,256,92110,2,0,P|178:288|98:274,1,140,2|8,0:0|0:0,0:0:0:0:
45,215,92571,1,0,0:0:0:0:
107,146,92725,6,0,B|113:112|113:112|69:10,2,140,2|8|2,0:0|0:0|0:0,0:0:0:0:
172,224,93494,1,8,0:0:0:0:
172,224,93571,1,8,0:0:0:0:
172,224,93648,1,8,0:0:0:0:
109,290,93802,6,0,P|155:314|244:278,1,140,6|2,0:0|0:0,0:0:0:0:
322,315,94263,2,0,B|319:353|319:353|334:382,1,70,8|0,0:0|0:0,0:0:0:0:
378,240,94571,2,0,B|408:179|408:179|384:83,1,140,2|8,0:0|0:0,0:0:0:0:
135,141,95187,6,0,B|105:204|105:204|126:292,1,140,2|8,0:0|0:0,0:0:0:0:
204,322,95648,1,0,0:0:0:0:
128,372,95802,2,0,P|88:367|49:341,1,70,2|0,0:0|0:0,0:0:0:0:
200,237,96110,2,0,P|241:245|276:276,1,70,8|0,0:0|0:0,0:0:0:0:
336,319,96417,6,0,B|364:326|409:306|427:268|427:268|434:285|449:295,1,140,12|2,0:0|0:0,0:0:0:0:
512,137,96879,2,0,B|483:130|438:149|420:187|420:187|414:172|396:157,1,140,12|2,0:0|0:0,0:0:0:0:
505,227,97340,1,8,0:0:0:0:
345,233,97494,5,6,0:0:0:0:
256,192,98879,12,0,103802,0:0:0:0:
