osu file format v14

[General]
AudioFilename: audio.mp3
AudioLeadIn: 0
PreviewTime: 58740
Countdown: 0
SampleSet: Soft
StackLeniency: 0.7
Mode: 0
LetterboxInBreaks: 0
WidescreenStoryboard: 0

[Editor]
Bookmarks: 96876
DistanceSpacing: 1
BeatDivisor: 2
GridSize: 4
TimelineZoom: 2.1

[Metadata]
Title:LOUDER
TitleUnicode:LOUDER
Artist:Roselia
ArtistUnicode:Roselia
Creator:scanter
Version:Easy
Source:バンドリ!ガールズバンドパーティ!
Tags:Event Garupa Bandori BanG Dream! ガルパ! Girls Band Party! Minato Yukina 湊友希那 Hikawa Sayo 氷川紗夜 Imai Lisa 今井リサ Udagawa Ako 宇田川あこ Shirogane Rinko 白金燐子 ロゼリア Aiba Aina 相羽あいな Akesaka Satomi 明坂聡美 Endou Yurika 遠藤ゆりか Kudou Haruka 工藤晴香 Sakuragawa Megu 桜川めぐ eLy _Meep_ Meep Yuria Anais CLSW Crystal groundswim JarrenTanJR Ancelyze Rayon BLACK SHOUT Game Version
BeatmapID:1262761
BeatmapSetID:595580

[Difficulty]
HPDrainRate:2
CircleSize:3
OverallDifficulty:2
ApproachRate:4
SliderMultiplier:0.9
SliderTickRate:1

[Events]
//Background and Video events
0,0,"bg.jpg",0,0
//Break Periods
//Storyboard Layer 0 (Background)
//Storyboard Layer 1 (Fail)
//Storyboard Layer 2 (Pass)
//Storyboard Layer 3 (Foreground)
//Storyboard Sound Samples

[TimingPoints]
-813,307.692307692308,4,2,1,100,1,0
417,-100,4,2,1,70,0,0
7802,-100,4,2,1,40,0,0
8110,-100,4,2,1,50,0,0
8417,-100,4,2,1,60,0,0
8725,-100,4,2,1,70,0,0
9033,-100,4,2,1,30,0,0
10110,-100,4,2,1,90,0,1
10187,-100,4,2,1,90,0,0
28571,-100,4,2,1,70,0,0
39802,-100,4,2,1,90,0,0
59340,-100,4,2,1,100,0,1
69033,-100,4,2,1,100,0,0
69187,-100,4,2,1,100,0,1
79033,-100,4,2,1,90,0,0
97494,-100,4,2,1,80,0,0
98879,-100,4,2,1,60,0,0
99494,-100,4,2,1,50,0,0
100110,-100,4,2,1,42,0,0
100725,-100,4,2,1,34,0,0
101340,-100,4,2,1,26,0,0
101956,-100,4,2,1,18,0,0
102571,-100,4,2,1,14,0,0
103187,-100,4,2,1,10,0,0
103802,-100,4,2,1,5,0,0

[Colours]
Combo1 : 128,255,255
Combo2 : 255,128,128
Combo3 : 128,255,128
Combo4 : 255,128,192
Combo5 : 255,128,64

[HitObjects]
148,319,417,6,0,P|101:260|131:164,1,180,12|0,0:0|0:0,0:0:0:0:
278,67,1648,2,0,L|426:64,2,135,8|4|2,0:0|3:0|0:0,0:0:0:0:
198,25,2879,6,0,B|167:94|226:130|190:203,1,180,6|0,0:0|0:0,0:0:0:0:
336,313,4110,2,0,B|387:323|387:323|484:291,2,135,8|4|2,0:0|3:0|0:0,0:0:0:0:
251,281,5340,6,0,P|186:268|87:341,1,180,6|2,0:0|0:0,0:0:0:0:
45,152,6571,2,0,P|110:165|209:92,1,180,2|2,0:0|0:0,0:0:0:0:
256,192,7802,12,0,9033,0:0:0:0:
407,307,10110,6,0,P|434:246|346:123,1,225,6|2,0:0|0:0,0:0:0:0:
264,130,11187,1,8,0:0:0:0:
181,166,11494,2,0,B|118:176|118:176|0:126,1,180,2|2,0:0|0:0,0:0:0:0:
111,40,12571,6,0,P|174:21|231:52,1,135,6|8,0:0|0:0,0:0:0:0:
305,104,13340,1,2,0:0:0:0:
379,53,13648,2,0,P|421:40|465:49,1,90,8|2,0:0|0:0,0:0:0:0:
512,126,14263,2,0,P|469:139|425:130,1,90,8|2,0:0|0:0,0:0:0:0:
479,254,15033,6,0,P|432:336|292:314,1,225,6|2,0:0|0:0,0:0:0:0:
262,258,16110,1,8,0:0:0:0:
196,196,16417,2,0,P|115:164|43:218,1,180,2|2,0:0|0:0,0:0:0:0:
58,349,17494,6,0,P|116:375|194:349,1,135,6|8,0:0|0:0,0:0:0:0:
272,349,18263,1,8,0:0:0:0:
362,346,18571,2,0,L|451:357,1,90,8|2,0:0|0:0,0:0:0:0:
461,267,19187,2,0,L|371:255,1,90,8|8,0:0|0:0,0:0:0:0:
375,121,19956,6,0,P|441:134|509:15,1,225,6|2,0:0|0:0,0:0:0:0:
424,45,21033,1,8,0:0:0:0:
334,43,21340,2,0,B|286:49|286:49|145:11,1,180,2|2,0:0|0:0,0:0:0:0:
75,121,22417,6,0,B|120:111|120:111|239:144,1,135,6|8,0:0|0:0,0:0:0:0:
260,206,23187,1,2,0:0:0:0:
303,284,23494,2,0,P|262:296|202:274,1,90,8|2,0:0|0:0,0:0:0:0:
134,248,24110,2,0,P|90:236|48:248,1,90,8|2,0:0|0:0,0:0:0:0:
66,114,24879,6,0,B|133:96|133:96|209:121|209:121|290:99,1,225,6|2,0:0|0:0,0:0:0:0:
340,171,25956,1,8,0:0:0:0:
372,87,26263,2,0,P|429:168|378:252,1,180,2|2,0:0|0:0,0:0:0:0:
313,256,27187,1,8,0:0:0:0:
256,192,27494,12,12,28571,0:0:0:0:
130,78,29648,5,8,0:0:0:0:
214,46,29956,6,0,P|268:37|326:64,1,90,12|8,0:0|0:0,0:0:0:0:
258,126,30571,2,0,P|301:136|345:126,1,90,8|8,0:0|0:0,0:0:0:0:
432,103,31187,2,0,B|458:146|458:146|447:297,1,180,8|8,0:0|0:0,0:0:0:0:
388,342,32110,1,8,0:0:0:0:
300,360,32417,6,0,L|191:358,1,90,8|8,0:0|0:0,0:0:0:0:
208,267,33033,2,0,L|101:248,1,90,8|8,0:0|0:0,0:0:0:0:
92,165,33648,2,0,P|65:98|131:13,1,180,8|8,0:0|0:0,0:0:0:0:
156,100,34571,1,8,0:0:0:0:
239,133,34879,6,0,B|285:141|285:141|424:94,1,180,12|8,0:0|0:0,0:0:0:0:
501,97,35802,1,8,0:0:0:0:
491,186,36110,2,0,B|445:178|445:178|306:225,1,180,8|8,0:0|0:0,0:0:0:0:
228,221,37033,1,8,0:0:0:0:
160,161,37340,6,0,P|138:216|209:309,2,180,12|8|8,0:0|0:0|0:0,0:0:0:0:
311,63,39187,1,8,0:0:0:0:
400,65,39494,1,8,0:0:0:0:
444,145,39802,6,0,B|458:199|458:199|426:350,1,180,6|2,0:0|0:0,0:0:0:0:
351,360,40725,2,0,L|254:367,1,90,8|2,0:0|0:0,0:0:0:0:
186,316,41340,2,0,L|96:309,1,90,8|2,0:0|0:0,0:0:0:0:
32,245,41956,1,8,0:0:0:0:
8,158,42263,6,0,P|7:87|91:24,1,180,2|2,0:0|0:0,0:0:0:0:
177,33,43187,2,0,L|280:42,1,90,8|2,0:0|0:0,0:0:0:0:
348,77,43802,2,0,L|451:67,1,90,8|2,0:0|0:0,0:0:0:0:
455,201,44571,6,0,P|348:217|270:122,1,225,6|2,0:0|0:0,0:0:0:0:
195,93,45648,1,8,0:0:0:0:
193,184,45956,2,0,P|223:287|172:359,1,180,2|2,0:0|0:0,0:0:0:0:
105,379,46879,1,8,0:0:0:0:
57,301,47187,6,0,B|62:244|62:244|39:193|39:193|46:118,1,180,6|2,0:0|0:0,0:0:0:0:
118,70,48110,2,0,L|227:79,1,90,8|2,0:0|0:0,0:0:0:0:
299,83,48725,1,8,0:0:0:0:
378,36,49033,1,8,0:0:0:0:
493,176,49648,5,6,0:0:0:0:
465,308,50110,2,0,P|409:339|315:306,1,135,8|2,0:0|0:0,0:0:0:0:
251,226,51033,2,0,P|185:213|127:244,1,135,8|2,0:0|0:0,0:0:0:0:
53,296,51802,1,8,0:0:0:0:
47,206,52110,5,6,0:0:0:0:
42,71,52571,2,0,L|180:65,1,135,8|2,0:0|0:0,0:0:0:0:
295,129,53494,2,0,P|355:105|427:129,1,135,8|8,0:0|0:0,0:0:0:0:
473,196,54263,1,4,3:0:0:0:
468,285,54571,1,6,0:0:0:0:
256,285,56725,1,8,0:0:0:0:
256,193,57033,5,6,0:0:0:0:
301,66,57494,2,0,P|256:57|212:65,2,90,8|8|8,0:0|0:0|0:0,0:0:0:0:
470,151,59340,6,0,P|484:212|364:321,1,225,6|2,0:0|0:0,0:0:0:0:
292,325,60417,2,0,L|196:317,1,90,8|2,0:0|0:0,0:0:0:0:
115,288,61033,2,0,P|95:229|114:178,1,90,8|2,0:0|0:0,0:0:0:0:
183,96,61802,6,0,P|264:107|358:1,1,225,6|2,0:0|0:0,0:0:0:0:
446,20,62879,2,0,P|478:31|517:79,1,90,8|2,0:0|0:0,0:0:0:0:
432,110,63494,2,0,P|425:159|443:213,1,90,8|2,0:0|0:0,0:0:0:0:
511,309,64263,6,0,P|447:331|312:252,1,225,6|2,0:0|0:0,0:0:0:0:
236,302,65340,2,0,L|137:289,1,90,8|2,0:0|0:0,0:0:0:0:
149,199,65956,2,0,L|238:210,1,90,8|2,0:0|0:0,0:0:0:0:
145,111,66725,6,0,L|288:130,1,135,6|8,0:0|0:0,0:0:0:0:
356,83,67494,2,0,P|369:132|351:182,1,90,8|8,0:0|0:0,0:0:0:0:
283,218,68110,2,0,P|273:261|286:304,1,90,8|8,0:0|0:0,0:0:0:0:
342,374,68725,1,8,0:0:0:0:
406,257,69187,6,0,L|176:275,1,225,6|2,0:0|0:0,0:0:0:0:
108,325,70263,2,0,P|92:269|109:226,1,90,8|2,0:0|0:0,0:0:0:0:
170,183,70879,2,0,P|175:138|160:97,1,90,8|2,0:0|0:0,0:0:0:0:
30,59,71648,6,0,P|99:85|232:6,1,225,6|2,0:0|0:0,0:0:0:0:
315,17,72725,2,0,P|367:31|418:82,1,90,8|2,0:0|0:0,0:0:0:0:
392,142,73340,2,0,P|429:188|438:229,1,90,8|2,0:0|0:0,0:0:0:0:
377,340,74110,6,0,B|233:330|233:330|209:352|176:361|137:350,1,225,6|2,0:0|0:0,0:0:0:0:
171,264,75187,1,8,0:0:0:0:
99,209,75494,2,0,P|163:174|252:226,1,180,2|2,0:0|0:0,0:0:0:0:
335,249,76417,1,8,0:0:0:0:
256,192,76725,12,8,77956,0:0:0:0:
116,270,79033,6,0,P|231:272|281:165,1,225,6|2,0:0|0:0,0:0:0:0:
338,116,80110,1,8,0:0:0:0:
364,201,80417,2,0,B|362:228|351:262|335:286|335:286|362:314|369:345|368:382,1,180,2|2,0:0|0:0,0:0:0:0:
501,343,81494,6,0,P|511:282|473:188,1,135,6|8,0:0|0:0,0:0:0:0:
437,140,82263,1,2,0:0:0:0:
486,65,82571,2,0,P|433:50|382:68,1,90,8|2,0:0|0:0,0:0:0:0:
329,114,83187,2,0,P|285:121|242:106,1,90,8|2,0:0|0:0,0:0:0:0:
287,234,83956,6,0,B|242:242|242:242|206:185|143:161|67:185,1,225,6|2,0:0|0:0,0:0:0:0:
11,230,85033,1,8,0:0:0:0:
62,306,85340,2,0,P|148:348|234:324,1,180,2|2,0:0|0:0,0:0:0:0:
347,269,86417,6,0,L|496:273,1,135,6|8,0:0|0:0,0:0:0:0:
498,183,87187,1,8,0:0:0:0:
507,93,87494,2,0,L|503:0,1,90,8|2,0:0|0:0,0:0:0:0:
415,26,88110,2,0,L|310:20,1,90,8|8,0:0|0:0,0:0:0:0:
198,68,88879,6,0,P|181:126|211:215,1,135,6|8,0:0|0:0,0:0:0:0:
248,271,89648,1,2,0:0:0:0:
215,355,89956,2,0,P|278:356|324:329,1,90,8|2,0:0|0:0,0:0:0:0:
368,285,90571,2,0,P|410:271|454:275,1,90,8|2,0:0|0:0,0:0:0:0:
502,148,91340,6,0,P|386:137|285:177,1,225,6|2,0:0|0:0,0:0:0:0:
237,251,92417,2,0,P|187:257|147:242,1,90,8|2,0:0|0:0,0:0:0:0:
105,165,93033,2,0,P|62:151|18:158,1,90,8|2,0:0|0:0,0:0:0:0:
5,25,93802,6,0,P|98:22|138:35,1,135,6|8,0:0|0:0,0:0:0:0:
215,79,94571,1,2,0:0:0:0:
292,125,94879,2,0,L|408:119,1,90,8|2,0:0|0:0,0:0:0:0:
383,30,95494,2,0,L|267:36,1,90,8|2,0:0|0:0,0:0:0:0:
215,79,96110,1,8,0:0:0:0:
174,159,96417,6,0,P|158:225|177:298,1,135,12|8,0:0|0:0,0:0:0:0:
340,223,97494,1,12,0:0:0:0:
256,192,98879,12,0,103802,0:0:0:0:
