osu file format v14

[General]
AudioFilename: audio.mp3
AudioLeadIn: 0
PreviewTime: 60889
Countdown: 0
SampleSet: Soft
StackLeniency: 0.7
Mode: 3
LetterboxInBreaks: 0
SpecialStyle: 0
WidescreenStoryboard: 0

[Editor]
DistanceSpacing: 1.2
BeatDivisor: 4
GridSize: 8
TimelineZoom: 2.4

[Metadata]
Title:LOUDER
TitleUnicode:LOUDER
Artist:Roselia
ArtistUnicode:ロゼリア
Creator:arcwinolivirus
Version:4K Vehement Desire
Source:BanG Dream!
Tags:Minato Yukina Hikawa Sayo Imai Lisa Udagawa Ako Shirokane Rinko Asuka Oda Elements Garden Fujinaga Ryuutarou bandori game version
BeatmapID:1617002
BeatmapSetID:768948

[Difficulty]
HPDrainRate:8
CircleSize:4
OverallDifficulty:8
ApproachRate:9
SliderMultiplier:1.4
SliderTickRate:1

[Events]
//Background and Video events
0,0,"LOUDER.jpg",0,0
//Break Periods
//Storyboard Layer 0 (Background)
//Storyboard Layer 1 (Fail)
//Storyboard Layer 2 (Pass)
//Storyboard Layer 3 (Foreground)
//Storyboard Sound Samples
Sample,71657,0,"snare.wav",50
Sample,75349,0,"snare.wav",50

[TimingPoints]
2273,307.692307692308,4,2,1,70,1,0
61349,-100,4,2,1,70,0,1
70734,-100,4,2,1,70,0,0
71196,-100,4,2,1,70,0,1
79965,-100,4,2,1,70,0,0

[HitObjects]
64,192,2272,5,2,1:0:0:50:kick.wav
448,192,2272,1,0,0:0:0:0:
320,192,2349,1,2,1:0:0:50:kick.wav
64,192,2426,1,4,1:0:0:50:snare.wav
192,192,2426,128,2,3657:1:0:0:50:crash1.wav
448,192,2426,1,0,0:0:0:0:
320,192,3349,128,0,3657:2:0:0:50:oH.wav
64,192,3657,1,0,0:0:0:50:snare.wav
448,192,3657,128,0,4888:0:0:0:0:
192,192,4119,1,4,2:0:0:50:tom1.wav
320,192,4157,1,4,2:0:0:50:tom1.wav
64,192,4580,1,8,2:0:0:50:tom2.wav
192,192,4580,1,0,0:0:0:0:
64,192,4888,128,2,6119:1:0:0:50:kick.wav
192,192,4888,1,8,1:0:0:50:crash2.wav
320,192,4888,1,0,0:0:0:0:
448,192,5811,128,0,6119:2:0:0:50:oH.wav
192,192,6119,128,0,6273:0:0:0:50:snare.wav
320,192,6119,1,0,0:0:0:0:
64,192,6273,128,4,6426:2:0:0:50:tom1.wav
448,192,6273,1,0,0:0:0:0:
320,192,6426,128,0,6580:0:0:0:0:
64,192,6580,128,8,6734:2:0:0:50:tom2.wav
192,192,6580,1,0,0:0:0:0:
448,192,6734,128,0,6888:0:0:0:0:
192,192,6888,1,0,1:0:0:50:tom3.wav
320,192,6888,128,0,7042:0:0:0:0:
448,192,7042,128,0,7196:0:0:0:0:
64,192,7196,1,0,1:0:0:50:tom3.wav
192,192,7196,1,0,0:0:0:0:
320,192,7273,1,0,1:0:0:50:tom3.wav
64,192,7349,1,2,1:0:0:50:kick.wav
192,192,7349,1,2,1:0:0:50:crash1.wav
448,192,7349,128,0,7503:0:0:0:0:
320,192,7503,128,0,7657:0:0:0:0:
64,192,7657,1,2,1:0:0:50:kick.wav
192,192,7657,128,8,7811:1:0:0:50:cH.wav
320,192,7811,128,8,7965:1:0:0:50:cH.wav
64,192,7965,128,2,8119:1:0:0:50:kick.wav
448,192,7965,1,8,1:0:0:50:cH.wav
192,192,8119,128,8,8273:1:0:0:50:cH.wav
320,192,8273,1,2,1:0:0:50:kick.wav
448,192,8273,128,8,8426:1:0:0:50:cH.wav
64,192,8426,128,8,8580:1:0:0:50:cH.wav
192,192,8580,128,2,8734:1:0:0:50:kick.wav
320,192,8580,1,8,1:0:0:50:cH.wav
448,192,8734,128,8,8888:1:0:0:50:cH.wav
64,192,8888,1,2,1:0:0:50:kick.wav
320,192,8888,128,8,9042:1:0:0:50:cH.wav
192,192,9042,128,8,9196:1:0:0:50:cH.wav
64,192,9196,128,2,9349:1:0:0:50:kick.wav
448,192,9196,1,8,1:0:0:50:cH.wav
320,192,9349,128,0,9503:2:0:0:50:oH.wav
192,192,9503,128,2,9657:1:0:0:50:kick.wav
448,192,9503,1,0,2:0:0:50:oH.wav
64,192,9657,128,0,9811:0:0:0:0:
192,192,9811,1,2,1:0:0:50:kick.wav
320,192,9811,1,0,0:0:0:50:snare.wav
448,192,9811,1,8,1:0:0:50:crash2.wav
64,192,10119,1,2,1:0:0:50:kick.wav
448,192,10119,1,0,0:0:0:50:snare.wav
320,192,10273,1,0,0:0:0:50:snare.wav
448,192,10273,1,0,0:0:0:0:
64,192,10349,1,0,0:0:0:50:snare.wav
192,192,10349,1,0,0:0:0:0:
320,192,10426,1,2,1:0:0:50:kick.wav
448,192,10426,1,0,0:0:0:50:snare.wav
192,192,10503,1,0,0:0:0:50:snare.wav
64,192,10580,1,0,0:0:0:50:snare.wav
448,192,10580,1,0,0:0:0:0:
192,192,10657,1,0,0:0:0:50:snare.wav
320,192,10657,1,0,0:0:0:0:
64,192,10734,1,2,1:0:0:50:kick.wav
448,192,10734,1,0,0:0:0:50:snare.wav
192,192,10811,1,0,0:0:0:50:snare.wav
320,192,10888,1,0,0:0:0:50:snare.wav
448,192,10888,1,0,0:0:0:0:
64,192,10965,1,0,0:0:0:50:snare.wav
192,192,10965,1,0,0:0:0:0:
448,192,11042,128,0,11196:0:0:0:0:
192,192,11196,128,0,11349:0:0:0:0:
320,192,11349,128,0,11503:0:0:0:0:
64,192,11503,128,0,11657:0:0:0:0:
448,192,11657,128,0,11811:0:0:0:0:
192,192,11811,128,0,11965:0:0:0:0:
320,192,11965,128,0,12119:0:0:0:0:
64,192,12119,128,2,12273:1:0:0:50:kick.wav
192,192,12119,1,2,1:0:0:50:crash1.wav
448,192,12119,1,0,0:0:0:0:
192,192,12426,128,2,12580:1:0:0:50:kick.wav
320,192,12426,1,0,0:0:0:0:
64,192,12580,128,0,12734:2:0:0:50:oH.wav
320,192,12580,1,0,0:0:0:50:snare.wav
448,192,12580,1,0,0:0:0:0:
192,192,12888,1,2,1:0:0:50:kick.wav
448,192,12888,128,0,13042:2:0:0:50:oH.wav
64,192,13042,1,2,1:0:0:50:kick.wav
320,192,13042,128,0,13196:0:0:0:0:
64,192,13196,1,0,2:0:0:50:oH.wav
192,192,13196,1,0,0:0:0:50:snare.wav
448,192,13196,1,0,0:0:0:0:
448,192,13349,1,0,0:0:0:0:
320,192,13426,1,0,0:0:0:0:
64,192,13503,128,2,13657:1:0:0:50:kick.wav
192,192,13503,1,0,2:0:0:50:oH.wav
448,192,13657,128,0,13811:0:0:0:0:
64,192,13811,1,0,2:0:0:50:oH.wav
192,192,13811,1,0,0:0:0:50:snare.wav
320,192,13811,128,0,13965:0:0:0:0:
448,192,13965,128,0,14119:0:0:0:0:
64,192,14119,1,2,1:0:0:50:kick.wav
192,192,14119,1,0,2:0:0:50:oH.wav
320,192,14273,128,2,14426:1:0:0:50:kick.wav
448,192,14273,1,0,0:0:0:0:
64,192,14426,1,0,2:0:0:50:oH.wav
192,192,14426,1,0,0:0:0:50:snare.wav
448,192,14426,1,0,0:0:0:0:
64,192,14580,128,2,14734:1:0:0:50:kick.wav
192,192,14580,1,8,1:0:0:50:crash2.wav
320,192,14580,1,0,0:0:0:0:
448,192,14580,1,0,0:0:0:0:
192,192,14888,128,2,15042:1:0:0:50:kick.wav
320,192,14888,1,0,0:0:0:0:
64,192,15042,128,0,15196:2:0:0:50:oH.wav
320,192,15042,1,0,0:0:0:50:snare.wav
448,192,15042,1,0,0:0:0:0:
192,192,15349,1,2,1:0:0:50:kick.wav
448,192,15349,128,0,15503:2:0:0:50:oH.wav
64,192,15503,1,2,1:0:0:50:kick.wav
320,192,15503,128,0,15657:0:0:0:0:
64,192,15657,1,0,2:0:0:50:oH.wav
192,192,15657,1,0,0:0:0:50:snare.wav
448,192,15657,1,0,0:0:0:0:
320,192,15811,1,0,0:0:0:0:
192,192,15888,1,0,0:0:0:0:
64,192,15965,128,2,16119:1:0:0:50:kick.wav
448,192,15965,1,0,2:0:0:50:oH.wav
320,192,16119,128,0,16273:0:0:0:0:
64,192,16273,1,0,2:0:0:50:oH.wav
192,192,16273,128,0,16426:0:0:0:50:snare.wav
448,192,16273,1,0,0:0:0:0:
320,192,16426,128,0,16580:0:0:0:0:
64,192,16580,1,2,1:0:0:50:kick.wav
192,192,16580,1,0,2:0:0:50:oH.wav
320,192,16734,1,2,1:0:0:50:kick.wav
448,192,16734,128,0,16888:0:0:0:0:
64,192,16888,1,0,2:0:0:50:oH.wav
192,192,16888,1,0,0:0:0:50:snare.wav
320,192,16888,1,0,0:0:0:0:
64,192,17042,1,2,1:0:0:50:kick.wav
192,192,17042,1,8,1:0:0:50:crash2.wav
448,192,17042,128,0,17657:0:0:0:0:
320,192,17042,1,0,0:0:0:0:
320,192,17196,1,0,0:0:0:0:
192,192,17349,1,2,1:0:0:50:kick.wav
64,192,17503,1,0,0:0:0:50:snare.wav
320,192,17503,1,0,0:0:0:0:
192,192,17657,1,2,2:0:0:50:chokehat.wav
64,192,17811,1,2,1:0:0:50:kick.wav
192,192,17811,128,0,18273:0:0:0:0:
448,192,17811,1,0,0:0:0:0:
320,192,17965,1,2,2:0:0:50:chokehat.wav
64,192,18119,1,2,1:0:0:50:kick.wav
448,192,18119,1,0,0:0:0:50:snare.wav
320,192,18273,1,2,2:0:0:50:chokehat.wav
192,192,18426,1,2,1:0:0:50:kick.wav
320,192,18426,128,0,18888:0:0:0:0:
448,192,18426,1,0,0:0:0:0:
64,192,18580,1,2,2:0:0:50:chokehat.wav
192,192,18734,1,2,1:0:0:50:kick.wav
448,192,18734,1,0,0:0:0:50:snare.wav
64,192,18888,1,2,2:0:0:50:chokehat.wav
64,192,19042,128,2,19503:1:0:0:50:kick.wav
192,192,19042,1,0,0:0:0:0:
320,192,19042,1,0,0:0:0:0:
192,192,19196,1,2,1:0:0:50:kick.wav
448,192,19196,1,2,2:0:0:50:chokehat.wav
320,192,19349,1,0,0:0:0:50:snare.wav
448,192,19349,1,0,0:0:0:0:
192,192,19503,1,2,1:0:0:50:kick.wav
320,192,19503,1,8,1:0:0:50:crash2.wav
448,192,19503,1,0,0:0:0:0:
64,192,19811,1,2,1:0:0:50:kick.wav
192,192,19811,1,0,0:0:0:0:
320,192,19888,1,2,1:0:0:50:kick.wav
64,192,19965,1,0,2:0:0:50:oH.wav
192,192,19965,1,0,0:0:0:50:snare.wav
448,192,19965,1,0,0:0:0:0:
320,192,20119,1,2,1:0:0:50:kick.wav
448,192,20119,1,0,0:0:0:0:
64,192,20273,1,0,2:0:0:50:oH.wav
192,192,20273,1,0,0:0:0:50:snare.wav
320,192,20273,1,0,0:0:0:0:
64,192,20426,1,2,1:0:0:50:kick.wav
448,192,20426,1,0,0:0:0:0:
192,192,20580,1,0,0:0:0:50:snare.wav
320,192,20580,1,8,1:0:0:50:crash2.wav
448,192,20580,1,0,0:0:0:0:
64,192,20580,1,0,0:0:0:0:
192,192,20734,1,0,0:0:0:0:
64,192,20888,1,2,1:0:0:50:kick.wav
320,192,20888,1,0,2:0:0:50:oH.wav
448,192,20888,1,0,0:0:0:0:
192,192,20965,1,0,0:0:0:50:snare.wav
64,192,21042,1,0,0:0:0:50:snare.wav
448,192,21042,1,0,0:0:0:0:
192,192,21119,1,0,0:0:0:50:snare.wav
320,192,21119,1,0,0:0:0:0:
64,192,21196,1,2,1:0:0:50:kick.wav
448,192,21196,1,0,0:0:0:50:snare.wav
320,192,21273,1,0,0:0:0:50:snare.wav
64,192,21349,1,0,0:0:0:50:snare.wav
192,192,21349,1,0,0:0:0:0:
320,192,21426,1,0,0:0:0:50:snare.wav
448,192,21426,1,0,0:0:0:0:
64,192,21503,1,2,1:0:0:50:kick.wav
192,192,21503,1,0,0:0:0:50:snare.wav
320,192,21580,1,0,0:0:0:50:snare.wav
64,192,21657,1,0,0:0:0:50:snare.wav
448,192,21657,1,0,0:0:0:0:
192,192,21734,1,0,0:0:0:50:snare.wav
320,192,21734,1,0,0:0:0:0:
64,192,21811,1,0,0:0:0:50:snare.wav
448,192,21811,1,0,0:0:0:0:
64,192,21965,128,2,22119:1:0:0:50:kick.wav
192,192,21965,1,8,1:0:0:50:crash2.wav
320,192,21965,1,0,0:0:0:0:
448,192,21965,1,0,0:0:0:0:
192,192,22273,1,2,1:0:0:50:kick.wav
320,192,22273,128,0,22426:0:0:0:0:
64,192,22426,1,0,2:0:0:50:oH.wav
192,192,22426,1,0,0:0:0:50:snare.wav
448,192,22426,128,0,22580:0:0:0:0:
64,192,22734,128,2,22888:1:0:0:50:kick.wav
320,192,22734,1,0,2:0:0:50:oH.wav
192,192,22888,128,0,23042:0:0:0:0:
448,192,22888,1,0,0:0:0:0:
64,192,23042,1,2,1:0:0:50:kick.wav
320,192,23042,1,0,2:0:0:50:oH.wav
448,192,23042,1,0,0:0:0:50:snare.wav
64,192,23196,1,0,0:0:0:0:
192,192,23273,1,0,0:0:0:0:
320,192,23349,1,2,1:0:0:50:kick.wav
448,192,23349,128,0,23503:2:0:0:50:oH.wav
64,192,23503,128,0,23657:0:0:0:0:
192,192,23657,128,2,23811:1:0:0:50:kick.wav
320,192,23657,1,0,2:0:0:50:oH.wav
448,192,23657,1,0,0:0:0:50:snare.wav
64,192,23811,128,0,23965:0:0:0:0:
320,192,23965,1,2,1:0:0:50:kick.wav
448,192,23965,1,0,2:0:0:50:oH.wav
64,192,24119,1,2,1:0:0:50:kick.wav
192,192,24119,128,0,24273:0:0:0:0:
64,192,24273,1,0,2:0:0:50:oH.wav
320,192,24273,1,0,0:0:0:50:snare.wav
448,192,24273,1,0,0:0:0:0:
64,192,24426,128,2,24580:1:0:0:50:kick.wav
192,192,24426,1,8,1:0:0:50:crash2.wav
320,192,24426,1,0,0:0:0:0:
448,192,24426,1,0,0:0:0:0:
192,192,24734,1,2,1:0:0:50:kick.wav
320,192,24734,128,0,24888:0:0:0:0:
64,192,24888,1,0,2:0:0:50:oH.wav
192,192,24888,1,0,0:0:0:50:snare.wav
448,192,24888,128,0,25042:0:0:0:0:
320,192,25196,128,2,25349:1:0:0:50:kick.wav
448,192,25196,1,0,2:0:0:50:oH.wav
64,192,25349,1,0,0:0:0:0:
192,192,25349,128,0,25503:0:0:0:0:
64,192,25503,1,2,1:0:0:50:kick.wav
320,192,25503,1,0,2:0:0:50:oH.wav
448,192,25503,1,0,0:0:0:50:snare.wav
192,192,25657,1,0,0:0:0:0:
320,192,25734,1,0,0:0:0:0:
64,192,25811,1,2,1:0:0:50:kick.wav
448,192,25811,128,0,25965:2:0:0:50:oH.wav
192,192,25965,128,0,26119:0:0:0:0:
64,192,26119,128,2,26273:1:0:0:50:kick.wav
320,192,26119,1,0,2:0:0:50:oH.wav
448,192,26119,1,0,0:0:0:50:snare.wav
192,192,26273,128,0,26426:0:0:0:0:
320,192,26426,1,4,2:0:0:50:tom1.wav
448,192,26426,1,0,0:0:0:0:
64,192,26580,128,0,26734:0:0:0:50:snare.wav
192,192,26580,1,0,0:0:0:0:
448,192,26657,1,0,0:0:0:50:snare.wav
192,192,26734,1,0,0:0:0:50:snare.wav
320,192,26734,1,0,0:0:0:0:
64,192,26888,128,2,27196:1:0:0:50:kick.wav
192,192,26888,1,8,1:0:0:50:crash2.wav
320,192,26888,1,0,0:0:0:0:
448,192,26888,1,0,0:0:0:0:
320,192,27196,1,2,1:0:0:50:kick.wav
448,192,27196,1,0,0:0:0:0:
64,192,27349,1,0,0:0:0:50:snare.wav
192,192,27349,1,0,0:0:0:0:
448,192,27349,1,0,0:0:0:0:
192,192,27503,1,4,2:0:0:50:ride.wav
320,192,27503,1,0,0:0:0:0:
64,192,27657,1,2,1:0:0:50:kick.wav
448,192,27657,1,0,0:0:0:0:
64,192,27811,1,4,2:0:0:50:ride.wav
320,192,27811,1,0,0:0:0:0:
192,192,27965,1,2,1:0:0:50:kick.wav
320,192,27965,1,0,0:0:0:50:snare.wav
448,192,27965,1,0,0:0:0:0:
64,192,28119,1,4,2:0:0:50:ride.wav
192,192,28119,1,0,0:0:0:0:
320,192,28273,1,2,1:0:0:50:kick.wav
448,192,28273,1,0,0:0:0:0:
192,192,28426,1,4,2:0:0:50:ride.wav
320,192,28426,1,0,0:0:0:0:
64,192,28580,1,2,1:0:0:50:kick.wav
192,192,28580,1,0,0:0:0:50:snare.wav
448,192,28580,1,0,0:0:0:0:
320,192,28734,1,4,2:0:0:50:ride.wav
448,192,28734,1,0,0:0:0:0:
64,192,28888,1,2,1:0:0:50:kick.wav
192,192,28888,1,0,0:0:0:0:
192,192,29042,1,2,1:0:0:50:kick.wav
448,192,29042,1,4,2:0:0:50:ride.wav
64,192,29196,1,0,0:0:0:50:snare.wav
320,192,29196,1,2,1:0:0:50:crash1.wav
448,192,29196,1,0,0:0:0:0:
192,192,29349,1,2,1:0:0:50:kick.wav
320,192,29349,1,0,0:0:0:0:
64,192,29503,1,0,0:0:0:50:snare.wav
320,192,29503,1,0,0:0:0:0:
448,192,29503,1,0,0:0:0:0:
192,192,29580,1,4,2:0:0:50:tom1.wav
64,192,29657,1,8,2:0:0:50:tom2.wav
448,192,29657,1,0,0:0:0:0:
320,192,29734,1,8,2:0:0:50:tom2.wav
64,192,29811,1,2,1:0:0:50:kick.wav
192,192,29811,1,0,0:0:0:0:
448,192,29888,1,2,1:0:0:50:kick.wav
64,192,29965,1,0,0:0:0:50:snare.wav
192,192,29965,1,0,0:0:0:0:
320,192,29965,1,0,0:0:0:0:
448,192,30042,1,4,2:0:0:50:tom1.wav
192,192,30119,1,8,2:0:0:50:tom2.wav
320,192,30119,1,0,0:0:0:0:
64,192,30196,1,8,2:0:0:50:tom2.wav
320,192,30273,1,2,1:0:0:50:kick.wav
448,192,30273,1,0,0:0:0:0:
192,192,30349,1,2,1:0:0:50:kick.wav
64,192,30426,1,0,0:0:0:50:snare.wav
320,192,30426,1,0,0:0:0:0:
448,192,30426,1,0,0:0:0:0:
64,192,30580,128,2,31349:1:0:0:50:kick.wav
192,192,30580,128,2,31349:1:0:0:50:crash1.wav
320,192,30580,1,0,0:0:0:0:
448,192,30580,128,0,31349:0:0:0:0:
320,192,31349,1,0,0:0:0:0:
64,192,31503,1,2,1:0:0:50:kick.wav
192,192,31503,1,0,0:0:0:0:
320,192,31580,1,2,1:0:0:50:kick.wav
64,192,31657,1,0,0:0:0:50:snare.wav
192,192,31657,1,2,1:0:0:50:crash1.wav
448,192,31657,1,0,0:0:0:0:
320,192,31811,1,0,0:0:0:0:
64,192,31965,1,2,1:0:0:50:kick.wav
192,192,31965,1,8,1:0:0:50:crash2.wav
448,192,31965,1,0,0:0:0:0:
192,192,32119,1,2,1:0:0:50:kick.wav
320,192,32119,1,0,0:0:0:0:
64,192,32273,1,0,2:0:0:50:oH.wav
320,192,32273,1,0,0:0:0:50:snare.wav
448,192,32273,1,0,0:0:0:0:
64,192,32580,1,0,2:0:0:50:oH.wav
192,192,32580,1,0,0:0:0:50:snare.wav
448,192,32580,1,0,0:0:0:0:
192,192,32734,1,2,1:0:0:50:kick.wav
320,192,32734,1,0,0:0:0:0:
64,192,32888,1,0,2:0:0:50:oH.wav
320,192,32888,1,0,0:0:0:50:snare.wav
448,192,32888,1,0,0:0:0:0:
192,192,33042,1,2,1:0:0:50:kick.wav
448,192,33042,1,0,0:0:0:0:
64,192,33196,1,0,2:0:0:50:oH.wav
192,192,33196,1,0,0:0:0:50:snare.wav
320,192,33196,1,0,0:0:0:0:
64,192,33349,1,0,0:0:0:0:
448,192,33349,1,0,0:0:0:0:
192,192,33503,1,0,2:0:0:50:oH.wav
320,192,33503,1,0,0:0:0:50:snare.wav
448,192,33503,1,0,0:0:0:0:
64,192,33657,1,0,0:0:0:0:
192,192,33811,1,0,2:0:0:50:oH.wav
320,192,33811,1,0,0:0:0:50:snare.wav
448,192,33811,1,0,0:0:0:0:
64,192,33965,1,2,1:0:0:50:kick.wav
192,192,33965,1,0,0:0:0:0:
320,192,34042,1,2,1:0:0:50:kick.wav
64,192,34119,1,0,2:0:0:50:oH.wav
192,192,34119,1,0,0:0:0:50:snare.wav
448,192,34119,1,0,0:0:0:0:
320,192,34273,1,2,1:0:0:50:kick.wav
448,192,34273,128,0,34426:0:0:0:0:
64,192,34426,1,0,2:0:0:50:oH.wav
192,192,34426,1,0,0:0:0:50:snare.wav
320,192,34426,1,0,0:0:0:0:
64,192,34580,128,0,34734:0:0:0:0:
448,192,34580,1,0,0:0:0:0:
192,192,34734,1,0,2:0:0:50:oH.wav
320,192,34734,1,0,0:0:0:50:snare.wav
448,192,34734,1,0,0:0:0:0:
64,192,35042,1,0,2:0:0:50:oH.wav
320,192,35042,1,0,0:0:0:50:snare.wav
448,192,35042,1,0,0:0:0:0:
192,192,35196,1,2,1:0:0:50:kick.wav
320,192,35196,1,0,0:0:0:0:
64,192,35349,1,0,2:0:0:50:oH.wav
192,192,35349,1,0,0:0:0:50:snare.wav
448,192,35349,1,0,0:0:0:0:
64,192,35503,1,2,1:0:0:50:kick.wav
320,192,35503,1,0,0:0:0:0:
192,192,35657,1,0,2:0:0:50:oH.wav
320,192,35657,1,0,0:0:0:50:snare.wav
448,192,35657,1,0,0:0:0:0:
64,192,35811,1,0,0:0:0:0:
448,192,35811,1,0,0:0:0:0:
64,192,35965,1,0,2:0:0:50:oH.wav
192,192,35965,1,0,0:0:0:50:snare.wav
320,192,35965,1,0,0:0:0:0:
320,192,36119,1,2,1:0:0:50:kick.wav
448,192,36119,1,0,0:0:0:0:
64,192,36196,1,2,1:0:0:50:kick.wav
192,192,36273,1,0,2:0:0:50:oH.wav
320,192,36273,1,0,0:0:0:50:snare.wav
448,192,36273,1,0,0:0:0:0:
64,192,36426,1,2,1:0:0:50:kick.wav
192,192,36426,1,0,0:0:0:0:
448,192,36503,1,0,0:0:0:0:
64,192,36580,1,0,0:0:0:50:snare.wav
192,192,36580,1,8,1:0:0:50:crash2.wav
320,192,36580,1,0,0:0:0:0:
320,192,36734,1,2,1:0:0:50:kick.wav
448,192,36734,1,0,0:0:0:0:
64,192,36888,1,0,0:0:0:50:snare.wav
192,192,36888,1,2,1:0:0:50:crash1.wav
448,192,36888,1,0,0:0:0:0:
192,192,37042,1,0,0:0:0:0:
320,192,37042,1,0,0:0:0:0:
64,192,37196,1,0,2:0:0:50:oH.wav
320,192,37196,1,0,0:0:0:50:snare.wav
448,192,37196,1,0,0:0:0:0:
64,192,37503,1,0,2:0:0:50:oH.wav
192,192,37503,1,0,0:0:0:50:snare.wav
448,192,37503,1,0,0:0:0:0:
192,192,37657,1,2,1:0:0:50:kick.wav
320,192,37657,1,0,0:0:0:0:
64,192,37811,1,0,2:0:0:50:oH.wav
320,192,37811,1,0,0:0:0:50:snare.wav
448,192,37811,1,0,0:0:0:0:
192,192,37965,1,2,1:0:0:50:kick.wav
448,192,37965,1,0,0:0:0:0:
64,192,38119,1,0,2:0:0:50:oH.wav
192,192,38119,1,0,0:0:0:50:snare.wav
320,192,38119,1,0,0:0:0:0:
448,192,38273,1,0,0:0:0:0:
64,192,38426,1,0,2:0:0:50:oH.wav
192,192,38426,1,0,0:0:0:50:snare.wav
320,192,38426,1,0,0:0:0:0:
448,192,38580,1,0,0:0:0:0:
64,192,38734,1,0,2:0:0:50:oH.wav
192,192,38734,1,0,0:0:0:50:snare.wav
320,192,38734,1,0,0:0:0:0:
64,192,38888,1,2,1:0:0:50:kick.wav
448,192,38888,1,0,0:0:0:0:
320,192,38965,1,2,1:0:0:50:kick.wav
192,192,39042,1,0,2:0:0:50:oH.wav
64,192,39042,1,0,0:0:0:50:snare.wav
448,192,39042,1,0,0:0:0:0:
64,192,39196,128,2,39349:1:0:0:50:kick.wav
320,192,39196,1,0,0:0:0:0:
192,192,39349,1,0,0:0:0:50:snare.wav
320,192,39349,1,8,1:0:0:50:crash2.wav
448,192,39349,1,0,0:0:0:0:
64,192,39503,1,0,0:0:0:0:
192,192,39503,128,0,39657:0:0:0:0:
64,192,39657,1,0,2:0:0:50:oH.wav
320,192,39657,1,0,0:0:0:50:snare.wav
448,192,39657,1,0,0:0:0:0:
192,192,39811,1,0,0:0:0:0:
320,192,39811,128,0,39965:0:0:0:0:
64,192,39965,1,0,2:0:0:50:oH.wav
192,192,39965,1,0,0:0:0:50:snare.wav
448,192,39965,1,0,0:0:0:0:
320,192,40119,1,2,1:0:0:50:kick.wav
448,192,40119,128,0,40273:0:0:0:0:
64,192,40273,1,0,2:0:0:50:oH.wav
192,192,40273,1,0,0:0:0:50:snare.wav
320,192,40273,1,0,0:0:0:0:
64,192,40426,128,2,40580:1:0:0:50:kick.wav
448,192,40426,1,0,0:0:0:0:
192,192,40580,1,0,2:0:0:50:oH.wav
320,192,40580,1,0,0:0:0:50:snare.wav
448,192,40580,1,0,0:0:0:0:
64,192,40734,1,2,1:0:0:50:kick.wav
448,192,40734,128,0,40888:0:0:0:0:
64,192,40888,1,0,0:0:0:50:snare.wav
192,192,40888,1,8,1:0:0:50:crash2.wav
320,192,40888,1,0,0:0:0:0:
192,192,41042,1,0,0:0:0:0:
320,192,41042,128,0,41196:0:0:0:0:
64,192,41196,1,2,1:0:0:50:kick.wav
192,192,41196,1,8,2:0:0:50:tom2.wav
448,192,41196,1,0,0:0:0:0:
320,192,41273,1,0,0:0:0:50:snare.wav
64,192,41349,1,0,0:0:0:50:snare.wav
448,192,41349,1,0,0:0:0:0:
192,192,41426,1,0,0:0:0:50:snare.wav
320,192,41426,1,0,0:0:0:0:
64,192,41503,1,2,1:0:0:50:kick.wav
448,192,41503,1,0,0:0:0:50:snare.wav
192,192,41580,1,0,0:0:0:50:snare.wav
320,192,41657,1,0,0:0:0:50:snare.wav
448,192,41657,1,0,0:0:0:0:
64,192,41734,1,0,0:0:0:50:snare.wav
192,192,41811,1,2,1:0:0:50:kick.wav
320,192,41811,1,8,1:0:0:50:crash2.wav
448,192,41811,1,0,0:0:0:0:
64,192,41965,1,0,0:0:0:0:
192,192,41965,1,0,0:0:0:0:
192,192,42119,1,8,1:0:0:50:cH.wav
320,192,42119,1,0,0:0:0:50:snare.wav
448,192,42119,1,0,0:0:0:0:
64,192,42273,1,8,1:0:0:50:cH.wav
192,192,42426,1,2,1:0:0:50:kick.wav
320,192,42426,1,8,1:0:0:50:cH.wav
64,192,42580,1,8,1:0:0:50:cH.wav
448,192,42580,1,0,0:0:0:0:
64,192,42734,1,8,1:0:0:50:cH.wav
192,192,42734,1,0,0:0:0:50:snare.wav
320,192,42734,1,0,0:0:0:0:
192,192,42888,1,8,1:0:0:50:cH.wav
448,192,42888,1,0,0:0:0:0:
64,192,43042,1,2,1:0:0:50:kick.wav
320,192,43042,1,8,1:0:0:50:cH.wav
192,192,43196,1,8,1:0:0:50:cH.wav
448,192,43196,1,0,0:0:0:0:
64,192,43349,1,8,1:0:0:50:cH.wav
192,192,43349,1,0,0:0:0:50:snare.wav
320,192,43349,1,0,0:0:0:0:
64,192,43503,1,8,1:0:0:50:cH.wav
448,192,43503,1,0,0:0:0:0:
192,192,43657,1,2,1:0:0:50:kick.wav
448,192,43657,1,8,1:0:0:50:cH.wav
64,192,43811,1,8,1:0:0:50:cH.wav
320,192,43811,1,0,0:0:0:0:
64,192,43965,1,8,1:0:0:50:cH.wav
192,192,43965,1,0,0:0:0:50:snare.wav
448,192,43965,1,0,0:0:0:0:
192,192,44119,1,8,1:0:0:50:cH.wav
320,192,44119,128,0,44273:0:0:0:0:
64,192,44273,1,2,1:0:0:50:kick.wav
448,192,44273,1,0,2:0:0:50:cH.wav
192,192,44426,128,8,44580:1:0:0:50:cH.wav
320,192,44426,1,0,0:0:0:0:
64,192,44580,1,8,1:0:0:50:cH.wav
320,192,44580,1,0,0:0:0:50:snare.wav
448,192,44580,1,0,0:0:0:0:
192,192,44734,1,8,1:0:0:50:cH.wav
64,192,44888,1,2,1:0:0:50:kick.wav
448,192,44888,1,8,1:0:0:50:cH.wav
192,192,45042,1,8,1:0:0:50:cH.wav
320,192,45042,1,0,0:0:0:0:
64,192,45196,1,8,1:0:0:50:cH.wav
320,192,45196,1,0,0:0:0:50:snare.wav
448,192,45196,1,0,0:0:0:0:
192,192,45349,1,8,1:0:0:50:cH.wav
448,192,45349,1,0,0:0:0:0:
64,192,45503,1,2,1:0:0:50:kick.wav
320,192,45503,128,8,45657:1:0:0:50:cH.wav
192,192,45657,1,8,1:0:0:50:cH.wav
64,192,45811,128,8,45965:1:0:0:50:cH.wav
320,192,45811,1,0,0:0:0:50:snare.wav
448,192,45811,1,0,0:0:0:0:
192,192,45965,1,8,1:0:0:50:cH.wav
448,192,45965,128,0,46119:0:0:0:0:
64,192,46119,1,2,1:0:0:50:kick.wav
320,192,46119,1,0,2:0:0:50:oH.wav
192,192,46273,128,8,46426:1:0:0:50:cH.wav
64,192,46426,1,8,1:0:0:50:cH.wav
320,192,46426,1,0,0:0:0:50:snare.wav
448,192,46426,1,0,0:0:0:0:
64,192,46580,1,2,1:0:0:50:kick.wav
192,192,46580,1,8,1:0:0:50:crash2.wav
448,192,46580,128,0,47042:0:0:0:0:
320,192,46734,1,0,0:0:0:0:
64,192,46888,1,0,0:0:0:0:
64,192,47042,1,8,1:0:0:50:cH.wav
192,192,47042,1,0,0:0:0:50:snare.wav
320,192,47042,1,0,0:0:0:0:
448,192,47196,1,8,1:0:0:50:cH.wav
192,192,47349,1,2,1:0:0:50:kick.wav
320,192,47349,1,8,1:0:0:50:cH.wav
64,192,47503,1,8,1:0:0:50:cH.wav
448,192,47503,1,0,0:0:0:0:
192,192,47657,1,8,1:0:0:50:cH.wav
320,192,47657,1,0,0:0:0:50:snare.wav
448,192,47657,1,0,0:0:0:0:
64,192,47811,128,8,48273:1:0:0:50:cH.wav
320,192,47811,1,0,0:0:0:0:
192,192,47965,1,2,1:0:0:50:kick.wav
448,192,47965,1,8,1:0:0:50:cH.wav
320,192,48119,1,8,1:0:0:50:cH.wav
192,192,48273,1,8,1:0:0:50:cH.wav
320,192,48273,1,0,0:0:0:50:snare.wav
448,192,48273,1,0,0:0:0:0:
64,192,48426,1,8,1:0:0:50:cH.wav
192,192,48580,1,2,1:0:0:50:kick.wav
320,192,48580,1,8,1:0:0:50:cH.wav
64,192,48734,1,8,1:0:0:50:cH.wav
448,192,48734,1,0,0:0:0:0:
64,192,48888,1,8,1:0:0:50:cH.wav
192,192,48888,1,0,0:0:0:50:snare.wav
320,192,48888,1,0,0:0:0:0:
192,192,49042,128,8,49196:1:0:0:50:cH.wav
448,192,49042,1,0,0:0:0:0:
64,192,49196,1,2,1:0:0:50:kick.wav
320,192,49196,1,8,1:0:0:50:crash2.wav
448,192,49196,1,0,0:0:0:0:
192,192,49349,1,0,0:0:0:0:
320,192,49349,128,0,49503:0:0:0:0:
64,192,49503,1,8,1:0:0:50:cH.wav
192,192,49503,1,0,0:0:0:50:snare.wav
448,192,49503,1,0,0:0:0:0:
64,192,49657,128,8,49811:1:0:0:50:cH.wav
320,192,49657,1,0,0:0:0:0:
192,192,49811,1,2,1:0:0:50:kick.wav
448,192,49811,1,8,1:0:0:50:cH.wav
64,192,49965,1,8,1:0:0:50:cH.wav
448,192,49965,128,0,50119:0:0:0:0:
64,192,50119,1,8,1:0:0:50:cH.wav
192,192,50119,1,0,0:0:0:50:snare.wav
320,192,50119,1,0,0:0:0:0:
320,192,50273,128,8,50426:1:0:0:50:cH.wav
448,192,50273,1,0,0:0:0:0:
64,192,50426,1,2,1:0:0:50:kick.wav
192,192,50426,1,0,2:0:0:50:oH.wav
448,192,50426,1,0,0:0:0:0:
192,192,50580,128,2,50734:1:0:0:50:kick.wav
320,192,50580,1,0,2:0:0:50:oH.wav
64,192,50734,1,0,2:0:0:50:oH.wav
320,192,50734,1,0,0:0:0:50:snare.wav
448,192,50734,1,0,0:0:0:0:
64,192,50888,1,0,0:0:0:50:snare.wav
192,192,50888,1,0,0:0:0:0:
320,192,50965,1,0,0:0:0:50:snare.wav
448,192,50965,1,0,0:0:0:0:
64,192,51042,1,0,0:0:0:50:snare.wav
192,192,51042,1,0,0:0:0:0:
192,192,51196,1,4,2:0:0:50:tom1.wav
320,192,51196,1,0,0:0:0:0:
64,192,51349,1,8,2:0:0:50:tom2.wav
448,192,51349,1,0,0:0:0:0:
192,192,51503,1,0,1:0:0:50:tom3.wav
320,192,51503,1,0,0:0:0:0:
64,192,51657,1,2,1:0:0:50:kick.wav
192,192,51657,1,2,1:0:0:50:crash1.wav
320,192,51657,1,0,0:0:0:0:
448,192,51657,1,0,0:0:0:0:
64,192,51811,1,2,1:0:0:50:kick.wav
448,192,51811,1,0,0:0:0:0:
320,192,51965,1,2,2:0:0:50:bell.wav
64,192,52119,128,0,52580:0:0:0:50:snare.wav
192,192,52119,1,0,0:0:0:0:
448,192,52119,128,0,52580:0:0:0:0:
320,192,52273,1,2,2:0:0:50:bell.wav
192,192,52580,1,2,1:0:0:50:kick.wav
320,192,52580,1,2,1:0:0:50:crash1.wav
64,192,52734,1,2,1:0:0:50:kick.wav
448,192,52734,1,0,0:0:0:0:
320,192,52888,1,2,2:0:0:50:bell.wav
64,192,53042,128,0,53503:0:0:0:50:snare.wav
192,192,53042,1,0,0:0:0:0:
448,192,53042,128,0,53503:0:0:0:0:
320,192,53196,1,2,2:0:0:50:bell.wav
192,192,53503,1,2,1:0:0:50:kick.wav
320,192,53503,1,2,2:0:0:50:bell.wav
64,192,53580,1,2,1:0:0:50:kick.wav
448,192,53580,1,0,0:0:0:0:
192,192,53657,1,2,1:0:0:50:kick.wav
320,192,53657,1,0,0:0:0:0:
64,192,53734,1,2,1:0:0:50:kick.wav
448,192,53734,1,0,0:0:0:0:
192,192,53811,128,0,54119:0:0:0:50:snare.wav
320,192,53811,128,2,54119:2:0:0:50:bell.wav
64,192,54119,1,2,1:0:0:50:kick.wav
448,192,54119,1,8,1:0:0:50:crash2.wav
192,192,54273,1,2,1:0:0:50:kick.wav
320,192,54273,1,0,0:0:0:0:
320,192,54426,1,2,2:0:0:50:bell.wav
64,192,54580,128,0,55042:0:0:0:50:snare.wav
192,192,54580,1,0,0:0:0:0:
448,192,54580,128,0,55042:0:0:0:0:
320,192,54734,1,2,2:0:0:50:bell.wav
192,192,55042,1,2,1:0:0:50:kick.wav
320,192,55042,1,2,1:0:0:50:crash1.wav
64,192,55196,1,2,1:0:0:50:kick.wav
448,192,55196,1,0,0:0:0:0:
320,192,55349,1,2,2:0:0:50:bell.wav
64,192,55503,128,0,55811:0:0:0:50:snare.wav
192,192,55503,1,0,0:0:0:0:
448,192,55503,128,0,55811:0:0:0:0:
320,192,55657,1,2,2:0:0:50:bell.wav
192,192,55811,1,0,0:0:0:50:snare.wav
320,192,55811,1,0,0:0:0:0:
64,192,55888,1,0,0:0:0:50:snare.wav
448,192,55888,1,0,0:0:0:0:
192,192,55965,1,0,0:0:0:50:snare.wav
320,192,55965,1,0,0:0:0:0:
64,192,56119,1,4,2:0:0:50:tom1.wav
448,192,56119,1,0,0:0:0:0:
64,192,56273,128,8,56580:2:0:0:50:tom2.wav
320,192,56273,1,0,0:0:0:0:
448,192,56273,128,0,56580:0:0:0:0:
192,192,56426,1,0,1:0:0:50:tom3.wav
192,192,56580,1,2,1:0:0:50:kick.wav
320,192,56580,1,2,1:0:0:50:crash1.wav
64,192,56734,1,0,0:0:0:0:
320,192,56888,1,0,0:0:0:0:
192,192,57042,1,0,0:0:0:0:
448,192,57196,1,0,0:0:0:0:
320,192,57349,1,0,0:0:0:0:
448,192,57503,1,0,0:0:0:0:
192,192,57657,1,0,0:0:0:0:
320,192,57811,1,0,0:0:0:0:
64,192,57965,1,0,0:0:0:0:
192,192,58119,1,0,0:0:0:0:
64,192,58273,1,0,0:0:0:0:
320,192,58426,1,0,0:0:0:0:
192,192,58580,1,0,0:0:0:0:
64,192,58734,1,0,0:0:0:50:snare.wav
320,192,58734,1,0,0:0:0:0:
448,192,58734,1,0,0:0:0:0:
192,192,58811,1,0,0:0:0:50:snare.wav
64,192,58888,1,2,1:0:0:50:kick.wav
448,192,58888,1,0,0:0:0:0:
320,192,58965,1,2,1:0:0:50:kick.wav
64,192,59042,1,0,0:0:0:50:snare.wav
192,192,59042,1,2,1:0:0:50:crash1.wav
448,192,59042,1,0,0:0:0:0:
64,192,59349,1,0,0:0:0:50:kick.wav
320,192,59349,1,0,0:0:0:50:snare.wav
448,192,59349,1,0,0:0:0:0:
64,192,59503,1,0,0:0:0:50:snare.wav
192,192,59503,1,0,0:0:0:0:
320,192,59580,1,0,0:0:0:50:snare.wav
448,192,59580,1,0,0:0:0:0:
64,192,59657,1,0,0:0:0:50:kick.wav
192,192,59657,1,0,0:0:0:50:snare.wav
320,192,59734,1,0,0:0:0:50:snare.wav
448,192,59734,1,0,0:0:0:0:
64,192,59811,1,0,0:0:0:50:snare.wav
192,192,59811,1,0,0:0:0:0:
320,192,59888,1,0,0:0:0:50:snare.wav
448,192,59888,1,0,0:0:0:0:
64,192,59965,1,0,0:0:0:50:kick.wav
192,192,59965,1,0,0:0:0:50:snare.wav
320,192,60042,1,0,0:0:0:50:snare.wav
448,192,60042,1,0,0:0:0:0:
64,192,60119,1,0,0:0:0:50:snare.wav
192,192,60119,1,0,0:0:0:0:
448,192,60196,1,0,0:0:0:50:snare.wav
64,192,60273,1,2,1:0:0:50:kick.wav
192,192,60273,1,2,2:0:0:50:chokehat.wav
320,192,60273,1,0,0:0:0:0:
448,192,60426,1,0,0:0:0:0:
192,192,60580,1,0,0:0:0:0:
320,192,60734,1,0,0:0:0:0:
64,192,60888,1,0,0:0:0:0:
448,192,61042,1,0,0:0:0:0:
320,192,61119,1,0,0:0:0:0:
192,192,61196,1,0,0:0:0:0:
64,192,61273,1,0,0:0:0:0:
192,192,61349,1,2,1:0:0:50:kick.wav
320,192,61349,1,2,1:0:0:50:crash1.wav
448,192,61349,128,8,61811:1:0:0:50:crash2.wav
192,192,61657,1,2,1:0:0:50:kick.wav
320,192,61657,1,0,0:0:0:0:
64,192,61811,1,0,2:0:0:50:oH.wav
192,192,61811,128,0,61965:0:0:0:50:snare.wav
320,192,61811,1,0,0:0:0:0:
448,192,61965,1,0,0:0:0:0:
64,192,62119,128,2,62426:1:0:0:50:kick.wav
192,192,62119,1,0,2:0:0:50:oH.wav
320,192,62273,1,2,1:0:0:50:kick.wav
448,192,62273,1,0,0:0:0:0:
192,192,62426,1,0,2:0:0:50:oH.wav
320,192,62426,1,0,0:0:0:50:snare.wav
448,192,62426,1,0,0:0:0:0:
64,192,62580,128,0,62888:0:0:0:0:
448,192,62580,128,0,63042:0:0:0:0:
192,192,62734,1,2,1:0:0:50:kick.wav
320,192,62734,1,0,2:0:0:50:oH.wav
320,192,62888,1,0,0:0:0:0:
64,192,63042,1,0,2:0:0:50:oH.wav
192,192,63042,1,0,0:0:0:50:snare.wav
320,192,63042,128,0,63349:0:0:0:0:
448,192,63196,1,0,0:0:0:0:
64,192,63349,1,2,1:0:0:50:kick.wav
192,192,63349,128,0,63657:2:0:0:50:oH.wav
320,192,63503,1,2,1:0:0:50:kick.wav
448,192,63503,1,0,0:0:0:0:
64,192,63657,1,0,2:0:0:50:oH.wav
320,192,63657,1,0,0:0:0:50:snare.wav
448,192,63657,1,0,0:0:0:0:
64,192,63811,128,2,64273:1:0:0:50:kick.wav
192,192,63811,1,8,1:0:0:50:crash2.wav
320,192,63811,1,0,0:0:0:0:
448,192,63811,1,0,0:0:0:0:
192,192,64119,1,2,1:0:0:50:kick.wav
320,192,64119,1,0,0:0:0:0:
192,192,64273,1,0,2:0:0:50:oH.wav
320,192,64273,128,0,64580:0:0:0:50:snare.wav
448,192,64273,1,0,0:0:0:0:
64,192,64426,1,0,0:0:0:0:
192,192,64580,1,2,1:0:0:50:kick.wav
448,192,64580,1,0,2:0:0:50:oH.wav
64,192,64734,1,2,1:0:0:50:kick.wav
320,192,64734,1,0,0:0:0:0:
64,192,64888,1,0,2:0:0:50:oH.wav
192,192,64888,1,0,0:0:0:50:snare.wav
448,192,64888,1,0,0:0:0:0:
320,192,65042,128,0,65196:0:0:0:0:
64,192,65196,1,2,1:0:0:50:kick.wav
448,192,65196,1,0,2:0:0:50:oH.wav
192,192,65349,1,0,0:0:0:0:
320,192,65349,128,0,65657:0:0:0:0:
64,192,65503,1,0,2:0:0:50:oH.wav
192,192,65503,1,0,0:0:0:50:snare.wav
448,192,65657,1,0,0:0:0:0:
64,192,65811,1,2,1:0:0:50:kick.wav
192,192,65811,1,4,2:0:0:50:tom1.wav
320,192,65965,1,0,0:0:0:50:snare.wav
448,192,65965,1,0,0:0:0:0:
64,192,66042,1,0,0:0:0:50:snare.wav
192,192,66042,1,0,0:0:0:0:
320,192,66119,1,0,0:0:0:50:snare.wav
448,192,66119,1,0,0:0:0:0:
64,192,66273,128,2,66580:1:0:0:50:kick.wav
192,192,66273,1,8,1:0:0:50:crash2.wav
320,192,66273,1,0,0:0:0:0:
448,192,66273,1,0,0:0:0:0:
320,192,66580,1,2,1:0:0:50:kick.wav
448,192,66580,128,0,66734:0:0:0:0:
192,192,66657,1,0,0:0:0:0:
64,192,66734,1,0,0:0:0:50:snare.wav
320,192,66734,128,0,66888:0:0:0:0:
64,192,66888,128,2,67042:2:0:0:50:chokehat.wav
448,192,66888,1,0,0:0:0:0:
192,192,67042,128,2,67196:1:0:0:50:kick.wav
320,192,67042,1,0,0:0:0:0:
448,192,67042,1,0,0:0:0:0:
64,192,67196,1,2,2:0:0:50:chokehat.wav
320,192,67196,128,0,67349:0:0:0:0:
64,192,67349,1,2,1:0:0:50:kick.wav
192,192,67349,128,0,67503:0:0:0:50:snare.wav
448,192,67349,1,0,0:0:0:0:
320,192,67503,128,2,67811:2:0:0:50:chokehat.wav
448,192,67503,1,0,0:0:0:0:
64,192,67657,1,2,1:0:0:50:kick.wav
192,192,67657,1,0,0:0:0:0:
192,192,67811,128,2,67965:2:0:0:50:chokehat.wav
448,192,67811,1,0,0:0:0:0:
64,192,67965,1,2,1:0:0:50:kick.wav
320,192,67965,128,0,68119:0:0:0:50:snare.wav
448,192,67965,1,0,0:0:0:0:
64,192,68119,128,2,68273:2:0:0:50:chokehat.wav
192,192,68119,1,0,0:0:0:0:
192,192,68273,128,2,68426:1:0:0:50:kick.wav
320,192,68273,1,0,0:0:0:0:
448,192,68273,1,0,0:0:0:0:
64,192,68426,1,2,1:0:0:50:kick.wav
320,192,68426,128,2,68580:2:0:0:50:chokehat.wav
64,192,68580,1,0,0:0:0:50:snare.wav
192,192,68580,1,0,0:0:0:0:
448,192,68580,1,0,0:0:0:0:
64,192,68734,1,2,1:0:0:50:kick.wav
192,192,68734,128,8,69042:1:0:0:50:crash2.wav
320,192,68734,1,0,0:0:0:0:
448,192,68734,1,0,0:0:0:0:
320,192,69042,1,2,1:0:0:50:kick.wav
448,192,69042,1,0,0:0:0:0:
64,192,69119,1,2,1:0:0:50:kick.wav
192,192,69196,1,0,2:0:0:50:oH.wav
320,192,69196,1,0,0:0:0:50:snare.wav
448,192,69196,1,0,0:0:0:0:
64,192,69349,1,2,1:0:0:50:kick.wav
448,192,69349,1,0,0:0:0:0:
64,192,69503,1,0,2:0:0:50:oH.wav
192,192,69503,1,0,0:0:0:50:snare.wav
320,192,69503,1,0,0:0:0:0:
192,192,69657,128,2,69811:1:0:0:50:kick.wav
448,192,69657,1,0,0:0:0:0:
64,192,69811,1,0,2:0:0:50:oH.wav
320,192,69811,1,0,0:0:0:50:snare.wav
448,192,69811,1,0,0:0:0:0:
192,192,69965,1,2,1:0:0:50:kick.wav
320,192,69965,128,0,70119:0:0:0:0:
64,192,70119,1,0,0:0:0:50:snare.wav
192,192,70119,1,8,1:0:0:50:crash2.wav
448,192,70119,1,0,0:0:0:0:
64,192,70273,128,2,70426:1:0:0:50:kick.wav
320,192,70273,1,0,0:0:0:0:
192,192,70426,1,0,0:0:0:50:snare.wav
320,192,70426,1,2,1:0:0:50:crash1.wav
448,192,70426,1,0,0:0:0:0:
64,192,70580,1,0,0:0:0:0:
448,192,70580,1,0,0:0:0:0:
64,192,70734,1,2,1:0:0:50:kick.wav
192,192,70734,1,4,2:0:0:50:tom1.wav
320,192,70734,1,0,0:0:0:0:
448,192,70888,1,0,0:0:0:0:
64,192,70965,1,0,0:0:0:50:snare.wav
192,192,70965,1,0,0:0:0:0:
320,192,71042,1,0,0:0:0:50:snare.wav
448,192,71042,1,0,0:0:0:0:
192,192,71119,1,0,0:0:0:0:
64,192,71196,128,2,71657:1:0:0:50:kick.wav
320,192,71196,1,8,1:0:0:50:crash2.wav
448,192,71196,1,0,0:0:0:0:
320,192,71503,1,2,1:0:0:50:kick.wav
448,192,71503,1,0,0:0:0:0:
192,192,71580,1,0,0:0:0:0:
320,192,71657,128,2,71811:1:0:0:50:kick.wav
448,192,71657,1,0,2:0:0:50:oH.wav
64,192,71811,1,0,0:0:0:0:
320,192,71965,1,2,1:0:0:50:kick.wav
448,192,71965,128,0,72273:2:0:0:50:oH.wav
192,192,72119,1,0,0:0:0:0:
64,192,72273,1,2,1:0:0:50:kick.wav
192,192,72273,1,0,2:0:0:50:oH.wav
320,192,72273,1,0,0:0:0:50:snare.wav
64,192,72426,128,0,72888:0:0:0:0:
448,192,72426,128,0,72734:0:0:0:0:
192,192,72580,1,2,1:0:0:50:kick.wav
320,192,72580,1,0,2:0:0:50:oH.wav
192,192,72734,1,0,0:0:0:0:
192,192,72888,128,2,73196:1:0:0:50:kick.wav
320,192,72888,1,0,2:0:0:50:oH.wav
448,192,72888,1,0,0:0:0:50:snare.wav
64,192,73042,1,0,0:0:0:0:
320,192,73196,128,2,73503:1:0:0:50:kick.wav
448,192,73196,1,0,2:0:0:50:oH.wav
64,192,73349,1,2,1:0:0:50:kick.wav
192,192,73349,1,0,0:0:0:0:
64,192,73503,1,2,1:0:0:50:kick.wav
192,192,73503,1,0,2:0:0:50:oH.wav
448,192,73503,1,0,0:0:0:50:snare.wav
64,192,73657,1,2,1:0:0:50:kick.wav
192,192,73657,1,8,1:0:0:50:crash2.wav
320,192,73657,1,0,0:0:0:0:
448,192,73657,128,0,74119:0:0:0:0:
192,192,73965,1,2,1:0:0:50:kick.wav
320,192,73965,1,0,0:0:0:0:
64,192,74119,1,2,1:0:0:50:kick.wav
192,192,74119,128,0,74426:2:0:0:50:oH.wav
320,192,74119,1,0,0:0:0:50:snare.wav
448,192,74273,1,0,0:0:0:0:
64,192,74426,1,2,1:0:0:50:kick.wav
320,192,74426,1,0,2:0:0:50:oH.wav
192,192,74580,1,0,0:0:0:0:
448,192,74580,1,0,0:0:0:0:
64,192,74734,1,2,1:0:0:50:kick.wav
320,192,74734,1,0,2:0:0:50:oH.wav
448,192,74734,1,0,0:0:0:50:snare.wav
192,192,74888,128,0,75042:0:0:0:0:
64,192,75042,1,2,1:0:0:50:kick.wav
448,192,75042,1,0,2:0:0:50:oH.wav
192,192,75196,128,0,75503:0:0:0:0:
320,192,75196,1,0,0:0:0:0:
320,192,75349,1,2,1:0:0:50:kick.wav
448,192,75349,1,0,2:0:0:50:oH.wav
64,192,75503,1,0,0:0:0:0:
320,192,75657,1,2,1:0:0:50:kick.wav
448,192,75657,1,4,2:0:0:50:tom1.wav
64,192,75811,1,0,0:0:0:50:snare.wav
192,192,75811,1,0,0:0:0:0:
320,192,75888,1,0,0:0:0:50:snare.wav
448,192,75888,1,0,0:0:0:0:
64,192,75965,1,0,0:0:0:50:snare.wav
192,192,75965,1,0,0:0:0:0:
64,192,76119,1,2,1:0:0:50:kick.wav
192,192,76119,1,8,1:0:0:50:crash2.wav
320,192,76119,1,0,0:0:0:0:
448,192,76119,128,0,76426:0:0:0:0:
64,192,76426,128,2,76580:1:0:0:50:kick.wav
192,192,76426,1,0,0:0:0:0:
320,192,76503,1,0,0:0:0:0:
192,192,76580,128,0,76734:0:0:0:50:snare.wav
448,192,76580,1,0,0:0:0:0:
64,192,76734,1,2,2:0:0:50:chokehat.wav
448,192,76734,128,0,76888:0:0:0:0:
64,192,76888,1,2,1:0:0:50:kick.wav
192,192,76888,1,0,0:0:0:0:
320,192,76888,128,0,77042:0:0:0:0:
192,192,77042,128,2,77196:2:0:0:50:chokehat.wav
448,192,77042,1,0,0:0:0:0:
64,192,77196,1,2,1:0:0:50:kick.wav
320,192,77196,128,0,77349:0:0:0:50:snare.wav
448,192,77196,1,0,0:0:0:0:
64,192,77349,1,2,2:0:0:50:chokehat.wav
192,192,77349,128,0,77657:0:0:0:0:
320,192,77503,1,2,1:0:0:50:kick.wav
448,192,77503,1,0,0:0:0:0:
64,192,77657,1,2,2:0:0:50:chokehat.wav
320,192,77657,128,0,77811:0:0:0:0:
64,192,77811,128,2,77965:1:0:0:50:kick.wav
192,192,77811,1,0,0:0:0:50:snare.wav
448,192,77811,1,0,0:0:0:0:
320,192,77965,1,2,2:0:0:50:chokehat.wav
448,192,77965,128,0,78119:0:0:0:0:
64,192,78119,1,2,1:0:0:50:kick.wav
192,192,78119,1,0,0:0:0:0:
320,192,78119,128,0,78273:0:0:0:0:
192,192,78273,128,2,78426:1:0:0:50:kick.wav
448,192,78273,1,2,2:0:0:50:chokehat.wav
64,192,78426,1,0,0:0:0:50:snare.wav
320,192,78426,1,8,1:0:0:50:crash2.wav
448,192,78426,1,0,0:0:0:0:
64,192,78580,1,2,1:0:0:50:kick.wav
192,192,78580,1,0,0:0:0:0:
320,192,78580,1,0,0:0:0:0:
448,192,78580,1,0,0:0:0:0:
64,192,78734,1,0,0:0:0:50:snare.wav
192,192,78734,1,0,0:0:0:0:
320,192,78811,1,0,0:0:0:50:snare.wav
448,192,78811,1,0,0:0:0:0:
64,192,78888,1,0,0:0:0:50:snare.wav
192,192,78888,1,0,0:0:0:0:
320,192,78965,1,0,0:0:0:50:snare.wav
448,192,78965,1,0,0:0:0:0:
64,192,79042,1,2,1:0:0:50:kick.wav
192,192,79042,1,0,0:0:0:0:
320,192,79119,1,2,1:0:0:50:kick.wav
64,192,79196,1,8,2:0:0:50:tom2.wav
448,192,79196,1,0,0:0:0:0:
192,192,79273,1,8,2:0:0:50:tom2.wav
320,192,79349,1,8,2:0:0:50:tom2.wav
448,192,79349,1,0,0:0:0:0:
64,192,79426,1,8,2:0:0:50:tom2.wav
192,192,79503,1,2,1:0:0:50:kick.wav
320,192,79503,1,0,0:0:0:0:
448,192,79580,1,2,1:0:0:50:kick.wav
64,192,79657,1,0,1:0:0:50:tom3.wav
192,192,79657,1,0,0:0:0:0:
320,192,79657,1,0,0:0:0:0:
448,192,79734,1,0,1:0:0:50:tom3.wav
64,192,79811,1,2,1:0:0:50:kick.wav
192,192,79811,1,0,0:0:0:0:
320,192,79888,1,2,1:0:0:50:kick.wav
64,192,79965,1,2,2:0:0:50:chokehat.wav
192,192,79965,1,0,0:0:0:50:snare.wav
448,192,79965,1,0,0:0:0:0:
320,192,80580,1,0,0:0:0:0:
192,192,80657,1,0,0:0:0:0:
448,192,80734,1,0,0:0:0:0:
64,192,80811,1,0,0:0:0:0:
192,192,80888,1,0,0:0:0:50:snare.wav
320,192,80888,1,0,0:0:0:0:
448,192,80965,1,0,0:0:0:50:snare.wav
64,192,81042,1,2,1:0:0:50:kick.wav
192,192,81042,1,2,1:0:0:50:crash1.wav
320,192,81042,128,0,81196:0:0:0:0:
192,192,81349,1,2,1:0:0:50:kick.wav
320,192,81349,128,0,81503:0:0:0:0:
64,192,81503,1,0,2:0:0:50:oH.wav
192,192,81503,1,0,0:0:0:50:snare.wav
448,192,81503,128,0,81657:0:0:0:0:
64,192,81811,128,2,81965:1:0:0:50:kick.wav
320,192,81811,1,0,2:0:0:50:oH.wav
192,192,81965,128,2,82119:1:0:0:50:kick.wav
448,192,81965,1,0,0:0:0:0:
64,192,82119,1,0,2:0:0:50:oH.wav
320,192,82119,1,0,0:0:0:50:snare.wav
448,192,82119,1,0,0:0:0:0:
64,192,82273,1,0,0:0:0:0:
192,192,82349,1,0,0:0:0:0:
320,192,82426,128,2,82580:1:0:0:50:kick.wav
448,192,82426,1,0,2:0:0:50:oH.wav
64,192,82580,128,0,82734:0:0:0:0:
192,192,82734,1,0,2:0:0:50:oH.wav
320,192,82734,1,0,0:0:0:50:snare.wav
448,192,82734,128,0,82888:0:0:0:0:
64,192,82888,128,0,83042:0:0:0:0:
320,192,83042,1,2,1:0:0:50:kick.wav
448,192,83042,1,0,2:0:0:50:oH.wav
64,192,83196,1,2,1:0:0:50:kick.wav
192,192,83196,128,0,83349:0:0:0:0:
64,192,83349,1,0,2:0:0:50:oH.wav
320,192,83349,1,0,0:0:0:50:snare.wav
448,192,83349,1,0,0:0:0:0:
192,192,83503,1,2,1:0:0:50:kick.wav
320,192,83503,128,8,83657:1:0:0:50:crash2.wav
448,192,83503,1,0,0:0:0:0:
192,192,83811,1,2,1:0:0:50:kick.wav
320,192,83811,128,0,83965:0:0:0:0:
64,192,83965,128,0,84119:2:0:0:50:oH.wav
192,192,83965,1,0,0:0:0:50:snare.wav
448,192,83965,1,0,0:0:0:0:
320,192,84273,1,2,1:0:0:50:kick.wav
448,192,84273,128,0,84426:2:0:0:50:oH.wav
64,192,84426,1,2,1:0:0:50:kick.wav
192,192,84426,128,0,84580:0:0:0:0:
64,192,84580,1,0,2:0:0:50:oH.wav
320,192,84580,1,0,0:0:0:50:snare.wav
448,192,84580,1,0,0:0:0:0:
192,192,84734,1,0,0:0:0:0:
320,192,84811,1,0,0:0:0:0:
64,192,84888,128,2,85042:1:0:0:50:kick.wav
448,192,84888,1,0,2:0:0:50:oH.wav
192,192,85042,128,0,85196:0:0:0:0:
64,192,85196,1,0,2:0:0:50:oH.wav
320,192,85196,1,0,0:0:0:50:snare.wav
448,192,85196,128,0,85349:0:0:0:0:
192,192,85349,128,0,85503:0:0:0:0:
320,192,85503,1,2,1:0:0:50:kick.wav
448,192,85503,1,0,2:0:0:50:oH.wav
64,192,85657,128,0,85811:0:0:0:0:
192,192,85657,1,0,0:0:0:0:
448,192,85734,1,0,0:0:0:50:snare.wav
192,192,85811,1,0,2:0:0:50:oH.wav
320,192,85811,1,0,0:0:0:50:snare.wav
64,192,85965,128,2,86580:1:0:0:50:kick.wav
320,192,85965,1,8,1:0:0:50:crash2.wav
448,192,85965,1,0,0:0:0:0:
192,192,86119,1,0,0:0:0:0:
320,192,86273,1,2,1:0:0:50:kick.wav
192,192,86426,1,0,0:0:0:50:snare.wav
448,192,86426,1,0,0:0:0:0:
320,192,86580,1,2,2:0:0:50:chokehat.wav
64,192,86734,1,2,1:0:0:50:kick.wav
320,192,86734,128,0,87196:0:0:0:0:
448,192,86734,1,0,0:0:0:0:
192,192,86888,1,2,2:0:0:50:chokehat.wav
64,192,87042,1,2,1:0:0:50:kick.wav
448,192,87042,1,0,0:0:0:50:snare.wav
192,192,87196,1,2,2:0:0:50:chokehat.wav
64,192,87349,1,2,1:0:0:50:kick.wav
192,192,87349,128,0,87811:0:0:0:0:
320,192,87349,1,0,0:0:0:0:
448,192,87503,1,2,2:0:0:50:chokehat.wav
64,192,87657,1,2,1:0:0:50:kick.wav
320,192,87657,1,0,0:0:0:50:snare.wav
448,192,87811,1,2,2:0:0:50:chokehat.wav
192,192,87965,1,2,1:0:0:50:kick.wav
320,192,87965,1,0,0:0:0:0:
448,192,87965,128,0,88426:0:0:0:0:
64,192,88119,1,2,1:0:0:50:kick.wav
320,192,88119,1,2,2:0:0:50:chokehat.wav
64,192,88273,1,0,0:0:0:50:snare.wav
192,192,88273,1,0,0:0:0:0:
64,192,88426,1,2,1:0:0:50:kick.wav
192,192,88426,1,8,1:0:0:50:crash2.wav
320,192,88426,1,0,0:0:0:0:
320,192,88734,1,2,1:0:0:50:kick.wav
448,192,88734,1,0,0:0:0:0:
192,192,88811,1,2,1:0:0:50:kick.wav
64,192,88888,1,0,2:0:0:50:oH.wav
320,192,88888,1,0,0:0:0:50:snare.wav
448,192,88888,1,0,0:0:0:0:
64,192,89042,1,2,1:0:0:50:kick.wav
192,192,89042,1,0,0:0:0:0:
192,192,89196,1,0,2:0:0:50:oH.wav
320,192,89196,1,0,0:0:0:50:snare.wav
448,192,89196,1,0,0:0:0:0:
64,192,89349,1,2,1:0:0:50:kick.wav
448,192,89349,1,0,0:0:0:0:
64,192,89503,1,0,0:0:0:50:snare.wav
192,192,89503,1,8,1:0:0:50:crash2.wav
320,192,89503,1,0,0:0:0:0:
448,192,89503,1,0,0:0:0:0:
64,192,89811,1,2,1:0:0:50:kick.wav
320,192,89811,1,0,2:0:0:50:oH.wav
448,192,89811,1,0,0:0:0:0:
192,192,89888,1,0,0:0:0:50:snare.wav
64,192,89965,1,0,0:0:0:50:snare.wav
448,192,89965,1,0,0:0:0:0:
192,192,90042,1,0,0:0:0:50:snare.wav
320,192,90042,1,0,0:0:0:0:
64,192,90119,1,2,1:0:0:50:kick.wav
448,192,90119,1,0,0:0:0:50:snare.wav
320,192,90196,1,0,0:0:0:50:snare.wav
64,192,90273,1,0,0:0:0:50:snare.wav
192,192,90273,1,0,0:0:0:0:
320,192,90349,1,0,0:0:0:50:snare.wav
448,192,90349,1,0,0:0:0:0:
64,192,90426,1,2,1:0:0:50:kick.wav
192,192,90426,1,0,0:0:0:50:snare.wav
448,192,90503,1,0,0:0:0:50:snare.wav
192,192,90580,1,0,0:0:0:50:snare.wav
320,192,90580,1,0,0:0:0:0:
64,192,90657,1,0,0:0:0:50:snare.wav
448,192,90657,1,0,0:0:0:0:
192,192,90734,1,0,0:0:0:50:snare.wav
320,192,90734,1,0,0:0:0:0:
64,192,90888,1,2,1:0:0:50:kick.wav
192,192,90888,1,8,1:0:0:50:crash2.wav
320,192,90888,1,0,0:0:0:0:
448,192,90888,128,0,91042:0:0:0:0:
192,192,91196,128,2,91349:1:0:0:50:kick.wav
320,192,91196,1,0,0:0:0:0:
64,192,91349,1,0,2:0:0:50:oH.wav
320,192,91349,128,0,91503:0:0:0:50:snare.wav
448,192,91349,1,0,0:0:0:0:
192,192,91657,1,2,1:0:0:50:kick.wav
448,192,91657,128,0,91811:2:0:0:50:oH.wav
64,192,91811,1,0,0:0:0:0:
320,192,91811,128,0,91965:0:0:0:0:
64,192,91965,1,2,1:0:0:50:kick.wav
192,192,91965,1,0,2:0:0:50:oH.wav
448,192,91965,1,0,0:0:0:50:snare.wav
448,192,92119,1,0,0:0:0:0:
320,192,92196,1,0,0:0:0:0:
64,192,92273,128,2,92426:1:0:0:50:kick.wav
192,192,92273,1,0,2:0:0:50:oH.wav
448,192,92426,128,0,92580:0:0:0:0:
64,192,92580,1,2,1:0:0:50:kick.wav
192,192,92580,128,0,92734:2:0:0:50:oH.wav
320,192,92580,1,0,0:0:0:50:snare.wav
448,192,92734,128,0,92888:0:0:0:0:
64,192,92888,1,2,1:0:0:50:kick.wav
192,192,92888,1,0,2:0:0:50:oH.wav
320,192,93042,128,2,93196:1:0:0:50:kick.wav
448,192,93042,1,0,0:0:0:0:
64,192,93196,1,0,2:0:0:50:oH.wav
192,192,93196,1,0,0:0:0:50:snare.wav
448,192,93196,1,0,0:0:0:0:
64,192,93349,1,2,1:0:0:50:kick.wav
192,192,93349,1,8,1:0:0:50:crash2.wav
320,192,93349,128,0,93503:0:0:0:0:
192,192,93657,128,2,93811:1:0:0:50:kick.wav
320,192,93657,1,0,0:0:0:0:
64,192,93811,1,2,1:0:0:50:kick.wav
320,192,93811,128,0,93965:2:0:0:50:oH.wav
448,192,93811,1,0,0:0:0:50:snare.wav
64,192,94119,128,2,94273:1:0:0:50:kick.wav
192,192,94119,1,0,2:0:0:50:oH.wav
320,192,94273,128,0,94426:0:0:0:0:
448,192,94273,1,0,0:0:0:0:
64,192,94426,1,2,1:0:0:50:kick.wav
192,192,94426,1,0,2:0:0:50:oH.wav
448,192,94426,1,0,0:0:0:50:snare.wav
320,192,94580,1,0,0:0:0:0:
192,192,94657,1,0,0:0:0:0:
64,192,94734,128,2,94888:1:0:0:50:kick.wav
448,192,94734,1,0,2:0:0:50:oH.wav
320,192,94888,128,0,95042:0:0:0:0:
64,192,95042,1,2,1:0:0:50:kick.wav
192,192,95042,128,0,95196:2:0:0:50:oH.wav
448,192,95042,1,0,0:0:0:50:snare.wav
320,192,95196,128,0,95349:0:0:0:0:
64,192,95349,1,2,1:0:0:50:kick.wav
192,192,95349,1,4,2:0:0:50:tom1.wav
320,192,95503,1,0,0:0:0:50:snare.wav
448,192,95503,128,0,95657:0:0:0:0:
64,192,95580,1,0,0:0:0:50:snare.wav
192,192,95657,1,0,0:0:0:50:snare.wav
320,192,95657,1,0,0:0:0:0:
64,192,95811,1,2,1:0:0:50:kick.wav
192,192,95811,1,8,1:0:0:50:crash2.wav
320,192,95811,1,0,0:0:0:0:
448,192,95811,128,0,96119:0:0:0:0:
192,192,96119,1,2,1:0:0:50:kick.wav
320,192,96119,1,0,0:0:0:0:
64,192,96273,1,0,0:0:0:50:snare.wav
192,192,96273,1,0,0:0:0:0:
320,192,96273,1,0,0:0:0:0:
64,192,96426,1,4,2:0:0:50:ride.wav
448,192,96426,1,0,0:0:0:0:
192,192,96580,1,2,1:0:0:50:kick.wav
320,192,96580,1,0,0:0:0:0:
192,192,96734,1,4,2:0:0:50:ride.wav
448,192,96734,1,0,0:0:0:0:
64,192,96888,1,2,1:0:0:50:kick.wav
320,192,96888,1,0,0:0:0:50:snare.wav
448,192,96888,1,0,0:0:0:0:
192,192,97042,1,4,2:0:0:50:ride.wav
320,192,97042,1,0,0:0:0:0:
64,192,97196,1,2,1:0:0:50:kick.wav
448,192,97196,1,0,0:0:0:0:
192,192,97349,1,4,2:0:0:50:ride.wav
448,192,97349,1,0,0:0:0:0:
64,192,97503,1,2,1:0:0:50:kick.wav
192,192,97503,1,0,0:0:0:50:snare.wav
320,192,97503,1,0,0:0:0:0:
64,192,97657,1,4,2:0:0:50:ride.wav
448,192,97657,1,0,0:0:0:0:
192,192,97811,1,2,1:0:0:50:kick.wav
448,192,97811,1,0,0:0:0:0:
64,192,97965,1,2,1:0:0:50:kick.wav
320,192,97965,1,0,0:0:0:0:
64,192,98119,1,0,0:0:0:50:snare.wav
192,192,98119,1,2,1:0:0:50:crash1.wav
320,192,98119,1,0,0:0:0:0:
448,192,98119,1,0,0:0:0:0:
192,192,98273,1,0,0:0:0:0:
448,192,98273,1,0,0:0:0:0:
64,192,98426,1,0,0:0:0:50:snare.wav
320,192,98426,1,0,0:0:0:0:
448,192,98426,1,0,0:0:0:0:
192,192,98503,1,4,2:0:0:50:tom1.wav
320,192,98580,1,8,2:0:0:50:tom2.wav
448,192,98580,1,0,0:0:0:0:
64,192,98657,1,8,2:0:0:50:tom2.wav
192,192,98734,1,2,1:0:0:50:kick.wav
320,192,98734,1,0,0:0:0:0:
448,192,98811,1,2,1:0:0:50:kick.wav
64,192,98888,1,0,0:0:0:50:snare.wav
192,192,98888,1,0,0:0:0:0:
320,192,98888,1,0,0:0:0:0:
448,192,98965,1,4,2:0:0:50:tom1.wav
64,192,99042,1,8,2:0:0:50:tom2.wav
192,192,99042,1,0,0:0:0:0:
320,192,99119,1,8,2:0:0:50:tom2.wav
64,192,99196,1,2,1:0:0:50:kick.wav
448,192,99196,1,0,0:0:0:0:
192,192,99273,1,2,1:0:0:50:kick.wav
320,192,99349,1,0,0:0:0:50:snare.wav
448,192,99349,1,0,0:0:0:0:
64,192,99426,1,0,0:0:0:50:snare.wav
192,192,99426,1,0,0:0:0:0:
64,192,99503,128,2,100811:1:0:0:50:kick.wav
192,192,99503,128,2,100811:1:0:0:50:crash1.wav
320,192,99503,128,0,100811:0:0:0:0:
448,192,99503,128,0,100811:0:0:0:0:
64,192,100888,1,2,1:0:0:50:kick.wav
192,192,100888,1,2,1:0:0:50:crash1.wav
320,192,100888,1,8,1:0:0:50:crash2.wav
448,192,100888,1,0,0:0:0:0:
