osu file format v14

[General]
AudioFilename: audio.mp3
AudioLeadIn: 0
PreviewTime: 112757
Countdown: 0
SampleSet: Soft
StackLeniency: 0.2
Mode: 0
LetterboxInBreaks: 0
WidescreenStoryboard: 1

[Editor]
Bookmarks: 50988,54911,55065,55142,55219,55372,55526,55603,55680,55757,55911,56065,56219,56372,56526,56680,84526,84680,84834,84988,85219,85372,85526,85680,85834,85988,86142,86296,86526,86680,86834,86988,87219,87372,87526,87680,109065,109219,109372,109526,109757,109911,110065,110219,110449,110603,110757,133603,133680,133757,133911,133988,134065,134219,134296,134372,134526,134680,134757,134834,134911,135065,135219,135296,135449,135526,135603,135757,135834,135988,136142,136219,136296,136372,136449,136526,136680,136834,136911,136988,137065,137219,137296,137449,137526,137603,137757,137911,137988,138142,138219,138296,138449,138603,138680,138834,138988,139142,139219,139296,139449,139526,139603,139757,139834,139988,140142,140296,140449,140526,140603,140680,140757,140834,140988,141142,141296,141449,141526,141603,141757,141911,141988,142142,142296,142449,142526,142603,142757,163372,163526,163680,163834,163988,164142,164296,164449,164603,164757,164911,165065,165219,165372,165526,165680,165834,165988,166142,166296,166449,166603,166757
DistanceSpacing: 1.4
BeatDivisor: 4
GridSize: 4
TimelineZoom: 5.099997

[Metadata]
Title:LOUDER
TitleUnicode:LOUDER
Artist:Roselia
ArtistUnicode:Roselia
Creator:SkyFlame
Version:newton & Seolv's SPECIAL
Source:バンドリ!ガールズバンドパーティ!
Tags:semifinals sf owc osu! world cup 2019 nm1 Event Garupa Bandori BanG Dream! ガルパ! Girls Band Party! Minato Yukina 湊友希那 Hikawa Sayo 氷川紗夜 Imai Lisa 今井リサ Udagawa Ako 宇田川あこ Shirogane Rinko 白金燐子 ロゼリア Aiba Aina 相羽あいな Akesaka Satomi 明坂聡美 Endou Yurika 遠藤ゆりか Kudou Haruka 工藤晴香 Sakuragawa Megu 桜川めぐ BLACK SHOUT Full ver. Version japanese video game female vocal Cynplytholowazy Hinsvar Mocaotic Ayucchi Amateurre newton- seolv [_L_u_k_a_s_] lukas
BeatmapID:2355667
BeatmapSetID:1040095

[Difficulty]
HPDrainRate:5.3
CircleSize:4
OverallDifficulty:8.9
ApproachRate:9.3
SliderMultiplier:1.8
SliderTickRate:1

[Events]
//Background and Video events
0,0,"bg.jpg",0,0
//Break Periods
2,54880,56280
2,133649,142434
2,164834,166588
//Storyboard Layer 0 (Background)
//Storyboard Layer 1 (Fail)
//Storyboard Layer 2 (Pass)
//Storyboard Layer 3 (Foreground)
//Storyboard Layer 4 (Overlay)
//Storyboard Sound Samples

[TimingPoints]
-704,307.692307692308,4,2,1,60,1,0
526,-200,4,2,1,60,0,0
2219,-250,4,2,1,60,0,0
2680,-166.666666666667,4,2,1,60,0,0
2988,-200,4,2,1,60,0,0
4372,-100,4,2,1,60,0,0
4680,-166.666666666667,4,2,1,60,0,0
4988,-250,4,2,1,60,0,0
5449,-125,4,2,1,65,0,0
6680,-100,4,2,1,65,0,0
7911,-100,4,2,1,70,0,0
9142,-100,4,2,1,65,0,0
10065,-83.3333333333333,4,2,1,65,0,0
10219,-100,4,2,1,75,0,0
10449,-100,4,2,1,5,0,0
10526,-100,4,2,1,75,0,0
20296,-100,4,2,1,5,0,0
20372,-100,4,2,1,75,0,0
28680,-200,4,2,1,60,0,0
29449,-100,4,2,1,65,0,0
30065,-111.111111111111,4,2,1,60,0,0
39911,-100,4,2,1,65,0,0
49757,-100,4,2,1,60,0,0
50219,-100,4,2,1,50,0,0
50680,-100,4,2,1,60,0,0
51142,-100,4,2,1,50,0,0
51603,-100,4,2,1,60,0,0
51911,-100,4,2,1,50,0,0
52219,-100,4,2,1,60,0,0
52680,-100,4,2,1,50,0,0
53142,-100,4,2,1,60,0,0
53603,-100,4,2,1,50,0,0
53911,-100,4,2,1,60,0,0
54680,-100,4,2,1,55,0,0
56834,-100,4,2,1,70,0,0
58372,-333.333333333333,4,2,1,65,0,0
58988,-200,4,2,1,75,0,0
59372,-100,4,2,1,5,0,0
59449,-83.3333333333333,4,2,1,85,0,1
69219,-83.3333333333333,4,2,1,85,0,0
69296,-83.3333333333333,4,2,1,85,0,1
78065,-200,4,2,1,55,0,0
79296,-83.3333333333333,4,2,1,80,0,0
83757,-200,4,2,1,80,0,0
84219,-133.333333333333,4,2,1,55,0,0
89142,-117.647058823529,4,2,1,60,0,0
91603,-100,4,2,1,70,0,0
92680,-83.3333333333333,4,2,1,75,0,0
94065,-90.9090909090909,4,2,1,80,0,0
98834,-100,4,2,1,76,0,0
101834,-100,4,2,1,5,0,0
101911,-100,4,2,1,76,0,0
102142,-100,4,2,1,5,0,0
102219,-100,4,2,1,76,0,0
102449,-100,4,2,1,5,0,0
102526,-100,4,2,1,76,0,0
102757,-100,4,2,1,5,0,0
102834,-100,4,2,1,76,0,0
103065,-100,4,2,1,5,0,0
103142,-100,4,2,1,76,0,0
103911,-111.111111111111,4,2,1,70,0,0
108834,-125,4,2,1,50,0,0
110988,-100,4,2,1,70,0,0
111296,-83.3333333333333,4,2,1,75,0,0
112680,-90.9090909090909,4,2,1,78,0,0
113142,-90.9090909090909,4,2,1,82,0,0
113603,-83.3333333333333,4,2,1,85,0,1
121526,-83.3333333333333,4,2,1,5,0,1
121603,-83.3333333333333,4,2,1,85,0,1
121834,-83.3333333333333,4,2,1,5,0,1
121911,-83.3333333333333,4,2,1,85,0,1
122142,-83.3333333333333,4,2,1,5,0,1
122219,-83.3333333333333,4,2,1,85,0,1
123372,-83.3333333333333,4,2,1,85,0,0
123449,-83.3333333333333,4,2,1,85,0,1
132219,-500,4,2,1,60,0,0
133449,-153.846153846153,4,2,1,50,0,0
142988,-100,4,2,1,60,0,0
143296,-117.64705882353,4,2,1,65,0,0
151911,-100,4,2,1,70,0,0
153142,-83.3333333333333,4,2,1,84,0,0
154372,-90.9090909090909,4,2,1,80,0,0
155603,-83.3333333333333,4,2,1,84,0,0
156834,-90.9090909090909,4,2,1,80,0,0
158065,-83.3333333333333,4,2,1,84,0,0
159296,-90.9090909090909,4,2,1,82,0,0
160526,-100,4,2,1,85,0,0
161757,-66.6666666666667,4,2,1,85,0,0
162834,-100,4,2,1,80,0,0
164526,-133.333333333333,4,2,1,50,0,0
167142,-100,4,2,1,80,0,0
167296,-125,4,2,1,80,0,0
167680,-100,4,2,1,5,0,0
167757,-76.9230769230769,4,2,1,87,0,1
168219,-83.3333333333333,4,2,1,87,0,1
175065,-83.3333333333333,4,2,1,87,0,0
175142,-83.3333333333333,4,2,1,87,0,1
184988,-100,4,2,1,75,0,0
185219,-100,4,2,1,5,0,0
185296,-100,4,2,1,75,0,0
187680,-100,4,2,1,5,0,0
187757,-100,4,2,1,75,0,0
190142,-100,4,2,1,5,0,0
190219,-100,4,2,1,75,0,0
197526,-100,4,2,1,5,0,0
197603,-100,4,2,1,75,0,0
203449,-200,4,2,1,70,0,0
204834,-100,4,2,1,65,0,0
206065,-100,4,2,1,60,0,0
207296,-100,4,2,1,55,0,0
208526,-100,4,2,1,50,0,0
209757,-100,4,2,1,5,0,0

[Colours]
Combo1 : 153,67,160
Combo2 : 244,244,138
Combo3 : 108,179,242
Combo4 : 155,128,115
SliderBorder : 172,141,209

[HitObjects]
105,107,372,5,0,3:2:0:0:
105,107,449,1,0,3:2:0:0:
105,107,526,2,0,B|153:78|228:102|238:178|238:178|188:192|188:192|193:151,1,270,14|0,0:0|0:0,0:0:0:0:
315,184,1757,6,0,P|301:226|266:253,1,90,10|0,0:0|0:0,0:0:0:0:
278,346,2219,6,0,P|246:328|211:327,1,72,8|0,0:3|0:0,0:0:0:0:
143,287,2680,6,0,P|118:298|100:317,1,53.9999983520508,4|0,0:3|0:0,0:0:0:0:
21,142,2988,6,0,B|60:201|206:204|201:35|97:132|92:167|117:224,1,270,6|0,0:0|0:0,0:0:0:0:
155,50,4219,5,10,0:0:0:0:
155,50,4372,2,0,P|196:64|223:99,1,90,0|0,0:3|0:0,0:0:0:0:
305,29,4680,6,0,P|307:55|300:81,1,53.9999983520508,8|0,0:3|0:0,0:0:0:0:
392,97,4988,6,0,P|374:117|354:130,1,36,8|0,0:3|0:0,0:0:0:0:
243,262,5296,5,4,0:3:0:0:
243,262,5372,1,4,0:3:0:0:
243,262,5449,2,0,L|314:268,1,72,4|0,3:2|0:0,0:0:0:0:
251,181,5757,2,0,L|322:187,1,72,2|0,3:2|0:0,0:0:0:0:
173,274,6065,6,0,P|207:264|243:261,1,72,2|0,3:2|0:0,0:0:0:0:
184,156,6372,2,0,P|216:171|251:180,1,72,2|0,3:2|0:0,0:0:0:0:
115,338,6680,6,0,P|136:299|173:274,1,90,2|0,3:2|0:0,0:0:0:0:
138,82,6988,2,0,P|152:124|184:156,1,90,2|0,3:2|0:0,0:0:0:0:
32,328,7296,6,0,B|71:349|71:349|115:337,1,90,2|0,3:2|0:0,0:0:0:0:
55,73,7603,2,0,B|98:61|98:61|138:82,1,90,2|0,3:2|0:0,0:0:0:0:
189,300,7911,5,14,0:0:0:0:
208,288,7988,1,8,0:0:0:0:
229,279,8065,1,8,0:0:0:0:
251,275,8142,1,8,0:0:0:0:
273,274,8219,1,10,0:0:0:0:
295,279,8296,1,8,0:0:0:0:
316,287,8373,1,8,0:0:0:0:
335,299,8450,1,8,0:0:0:0:
351,314,8526,5,10,0:0:0:0:
312,334,8602,1,8,0:0:0:0:
267,339,8679,1,8,0:0:0:0:
224,326,8756,1,8,0:0:0:0:
189,300,8834,1,10,0:0:0:0:
170,260,8911,1,8,0:0:0:0:
165,215,8988,1,8,0:0:0:0:
178,172,9065,1,8,0:0:0:0:
205,137,9141,5,10,0:0:0:0:
285,147,9296,1,2,0:0:0:0:
365,157,9449,1,2,0:0:0:0:
125,127,9603,5,2,0:0:0:0:
285,147,9757,1,2,0:0:0:0:
445,167,9911,1,2,0:0:0:0:
236,230,10065,5,2,0:0:0:0:
236,230,10142,1,2,0:0:0:0:
236,230,10219,2,0,B|281:212|325:242|309:254|349:288|401:269,1,180,6|0,3:2|3:2,0:0:0:0:
219,313,10680,2,0,P|240:274|236:230,1,90,10|0,0:0|3:2,0:0:0:0:
85,195,10989,2,0,L|79:254,1,45,2|0,3:2|0:0,0:0:0:0:
146,382,11143,2,0,L|142:337,1,45,2|0,3:2|0:0,0:0:0:0:
94,114,11296,1,8,0:0:0:0:
160,258,11449,1,2,0:0:0:0:
238,48,11603,6,0,P|260:47|281:54,1,45,2|0,3:2|0:0,0:0:0:0:
127,41,11757,2,0,P|142:25|163:15,1,45,2|0,0:0|0:0,0:0:0:0:
312,130,11911,2,0,P|328:145|338:165,1,45,10|0,0:0|0:0,0:0:0:0:
411,10,12065,2,0,P|390:49|394:93,1,90,2|0,0:0|3:2,0:0:0:0:
311,318,12372,2,0,P|316:274|295:235,1,90,2|8,3:2|0:0,0:0:0:0:
64,317,12680,6,0,B|120:312|120:312|139:298|139:298|195:294,1,135,6|0,3:2|0:0,0:0:0:0:
236,290,12988,1,2,3:2:0:0:
101,150,13142,2,0,B|80:190|80:190|92:233,1,90,10|0,0:0|0:0,0:0:0:0:
240,176,13449,2,0,L|236:131,1,45,2|0,3:2|0:0,0:0:0:0:
116,24,13603,2,0,L|112:69,1,45,2|0,3:2|0:0,0:0:0:0:
92,233,13757,1,8,0:0:0:0:
311,101,13911,5,2,0:0:0:0:
311,101,13988,1,2,0:0:0:0:
311,101,14065,2,0,P|333:100|354:107,1,45,2|0,3:2|0:0,0:0:0:0:
196,182,14219,2,0,P|218:183|239:176,1,45,2|0,0:0|0:0,0:0:0:0:
396,177,14372,2,0,L|455:183,1,45,10|0,0:0|0:0,0:0:0:0:
308,314,14526,2,0,B|287:274|287:274|299:231,1,90,2|0,0:0|3:2,0:0:0:0:
483,251,14834,1,2,3:2:0:0:
209,285,14988,1,10,0:0:0:0:
424,97,15142,6,0,P|445:137|440:181,1,90,6|0,3:2|0:0,0:0:0:0:
299,231,15449,1,2,3:2:0:0:
356,53,15603,1,10,0:0:0:0:
477,288,15757,1,2,0:0:0:0:
332,160,15911,2,0,B|289:148|289:148|249:169,1,90,2|2,3:2|0:0,0:0:0:0:
308,313,16219,1,10,0:0:0:0:
280,69,16372,1,2,0:0:0:0:
176,206,16526,5,2,3:2:0:0:
176,206,16680,1,2,0:0:0:0:
308,313,16834,1,10,0:0:0:0:
308,313,16988,1,2,3:2:0:0:
103,242,17142,1,2,3:2:0:0:
249,169,17296,1,2,3:2:0:0:
176,23,17449,1,10,0:0:0:0:
256,327,17603,6,0,P|308:259|392:276,1,180,6|2,3:2|3:2,0:0:0:0:
453,331,17988,1,0,3:2:0:0:
453,331,18065,1,10,0:0:0:0:
299,231,18219,1,2,3:2:0:0:
462,147,18372,5,10,0:0:0:0:
338,337,18526,1,0,3:2:0:0:
266,156,18680,5,14,0:0:0:0:
470,250,18834,1,2,0:0:0:0:
184,279,18988,5,2,3:2:0:0:
185,256,19065,1,8,0:0:0:0:
187,234,19142,1,8,0:0:0:0:
189,211,19219,1,8,3:2:0:0:
191,189,19296,1,8,3:2:0:0:
174,147,19372,1,8,0:0:0:0:
139,121,19449,1,8,0:0:0:0:
94,117,19526,1,8,0:0:0:0:
55,137,19603,6,0,L|117:125,1,45,10|10,0:0|0:0,0:0:0:0:
212,33,19757,2,0,L|274:21,1,45,10|10,0:0|0:0,0:0:0:0:
391,73,19911,2,0,L|453:61,1,45,10|10,0:0|0:0,0:0:0:0:
442,219,20065,6,0,P|389:178|323:173,1,135,14|0,0:0|0:0,0:0:0:0:
285,188,20372,1,2,3:2:0:0:
414,374,20526,2,0,B|426:331|426:331|405:291,1,90,10|0,0:0|0:0,0:0:0:0:
166,226,20834,2,0,L|211:223,1,45,2|0,3:2|0:0,0:0:0:0:
340,340,20988,2,0,L|295:336,1,45,2|0,0:0|0:0,0:0:0:0:
115,289,21142,1,8,0:0:0:0:
198,58,21296,5,2,0:0:0:0:
198,58,21372,1,2,0:0:0:0:
198,58,21449,2,0,P|215:73|225:94,1,45,2|0,3:2|0:0,0:0:0:0:
284,187,21603,2,0,P|291:166|290:143,1,45,2|0,0:0|0:0,0:0:0:0:
116,70,21757,2,0,P|95:63|73:64,1,45,10|0,0:0|0:0,0:0:0:0:
121,215,21911,2,0,L|211:223,1,90,2|0,0:0|3:2,0:0:0:0:
392,54,22219,2,0,L|303:62,1,90,2|8,3:2|0:0,0:0:0:0:
36,196,22526,6,0,P|93:228|107:292,1,135,6|0,3:2|0:0,0:0:0:0:
93,329,22834,1,2,3:2:0:0:
227,138,22988,2,0,P|205:178|210:222,1,90,10|0,0:0|0:0,0:0:0:0:
354,150,23296,2,0,L|310:147,1,45,2|0,3:2|0:0,0:0:0:0:
190,305,23449,2,0,L|234:301,1,45,2|0,0:0|0:0,0:0:0:0:
436,156,23603,1,8,0:0:0:0:
320,310,23757,5,2,0:0:0:0:
320,310,23834,1,2,0:0:0:0:
320,310,23911,2,0,P|313:289|314:266,1,45,2|0,3:2|0:0,0:0:0:0:
344,119,24065,2,0,P|329:135|308:146,1,45,2|0,0:0|0:0,0:0:0:0:
167,194,24219,2,0,P|188:198|208:210,1,45,8|0,0:0|0:0,0:0:0:0:
474,268,24372,2,0,B|431:256|431:256|391:277,1,90,2|0,0:0|3:2,0:0:0:0:
249,342,24680,1,2,0:0:0:0:
249,342,24757,1,0,0:0:0:0:
249,342,24834,1,8,0:0:0:0:
418,105,24988,6,0,B|413:161|413:161|399:180|399:180|395:236,1,135,6|0,3:2|0:0,0:0:0:0:
391,277,25296,1,2,3:2:0:0:
316,247,25449,1,10,0:0:0:0:
241,217,25603,1,2,0:0:0:0:
417,270,25757,5,2,3:2:0:0:
323,232,25910,1,2,0:0:0:0:
229,195,26064,1,10,0:0:0:0:
443,262,26219,5,2,0:0:0:0:
330,217,26372,1,2,3:2:0:0:
217,172,26526,1,2,0:0:0:0:
469,255,26680,5,10,0:0:0:0:
337,202,26833,1,2,0:0:0:0:
206,150,26987,1,2,3:2:0:0:
495,248,27142,5,2,3:2:0:0:
195,128,27296,2,0,B|152:116|152:116|112:137,1,90,14|0,0:0|3:2,0:0:0:0:
46,270,27603,5,14,0:0:0:0:
84,279,27679,1,8,3:0:0:0:
123,275,27756,1,8,3:0:0:0:
159,259,27833,1,8,3:0:0:0:
191,235,27910,1,8,3:0:0:0:
222,211,27987,1,8,3:0:0:0:
259,196,28064,1,12,0:0:0:0:
298,194,28141,1,8,3:0:0:0:
337,202,28219,6,0,L|330:273,1,45,8|8,3:0|3:0,0:0:0:0:
195,128,28372,2,0,L|191:83,1,45,8|8,3:0|3:0,0:0:0:0:
351,20,28526,1,10,3:2:0:0:
404,320,28680,2,0,P|338:276|309:349,1,180,6|0,3:2|0:0,0:0:0:0:
337,202,29449,6,0,L|333:246,1,45,2|0,0:0|0:0,0:0:0:0:
370,185,29603,2,0,L|366:229,1,45,2|0,3:2|3:2,0:0:0:0:
439,141,29757,2,0,L|443:185,1,45,10|0,0:0|0:0,0:0:0:0:
406,124,29911,2,0,L|410:168,1,45,2|0,0:0|0:0,0:0:0:0:
254,93,30065,6,0,L|261:173,1,80.9999975280763,2|2,3:2|3:2,0:0:0:0:
97,241,30372,2,0,P|190:239|208:318,1,161.999995056153,10|8,0:0|0:0,0:0:0:0:
125,369,30834,1,2,3:2:0:0:
75,153,30988,1,10,0:0:0:0:
53,319,31142,1,2,3:2:0:0:
93,73,31296,6,0,P|53:73|19:94,1,80.9999975280763,10|2,0:0|0:0,0:0:0:0:
172,91,31603,1,10,0:0:0:0:
75,153,31757,1,2,0:0:0:0:
148,15,31911,1,8,0:0:0:0:
286,88,32065,1,2,3:2:0:0:
286,88,32142,1,0,3:2:0:0:
286,88,32219,2,0,L|365:81,1,80.9999975280763,8|2,0:0|3:2,0:0:0:0:
380,242,32526,5,8,0:0:0:0:
293,168,32680,1,2,0:0:0:0:
447,73,32834,1,8,0:0:0:0:
447,73,33142,5,8,0:0:0:0:
460,234,33296,1,2,3:2:0:0:
299,246,33449,1,10,0:0:0:0:
454,154,33603,1,2,3:2:0:0:
225,226,33757,6,0,P|259:246|299:246,1,80.9999975280763,10|0,0:0|0:0,0:0:0:0:
372,163,34065,1,10,0:0:0:0:
459,335,34219,1,2,3:2:0:0:
459,335,34296,1,0,3:2:0:0:
459,335,34373,2,0,P|418:334|384:355,1,80.9999975280763,8|2,0:0|3:2,0:0:0:0:
218,306,34680,2,0,L|225:226,1,80.9999975280763,8|2,0:0|3:2,0:0:0:0:
186,44,34911,1,0,3:2:0:0:
186,44,34988,6,0,L|200:205,1,161.999995056153,14|8,0:0|0:0,0:0:0:0:
141,335,35603,1,8,0:0:0:0:
200,206,35757,1,2,3:2:0:0:
329,265,35911,2,0,P|368:266|403:245,1,80.9999975280763,10|2,0:0|3:2,0:0:0:0:
359,111,36219,6,0,B|353:178|353:178|335:197|335:197|328:276,1,161.999995056153,8|8,0:0|0:0,0:0:0:0:
329,265,36834,1,10,0:0:0:0:
200,206,36988,1,2,3:2:0:0:
200,206,37065,1,0,3:2:0:0:
200,206,37142,1,10,0:0:0:0:
141,335,37296,1,2,3:2:0:0:
99,159,37449,6,0,L|106:239,1,80.9999975280763,12|2,0:0|0:0,0:0:0:0:
262,154,37757,2,0,L|269:74,1,80.9999975280763,8|2,0:0|0:0,0:0:0:0:
92,78,38065,1,8,0:0:0:0:
200,206,38219,1,2,3:2:0:0:
343,53,38372,2,0,P|303:52|268:73,1,80.9999975280763,8|2,0:0|3:2,0:0:0:0:
314,216,38680,5,8,0:0:0:0:
506,82,38834,1,2,3:2:0:0:
506,82,38911,1,2,0:0:0:0:
506,82,38988,1,10,0:0:0:0:
477,245,39142,1,2,3:2:0:0:
343,53,39296,5,0,3:2:0:0:
323,49,39372,1,2,3:2:0:0:
303,52,39449,1,2,3:2:0:0:
284,59,39526,1,0,3:2:0:0:
268,72,39603,1,8,0:0:0:0:
229,92,39680,1,8,0:0:0:0:
184,88,39757,1,0,3:2:0:0:
149,62,39834,1,0,3:2:0:0:
132,20,39911,6,0,B|137:76|137:76|151:95|151:95|155:151,1,135,6|0,3:2|0:0,0:0:0:0:
159,192,40219,1,10,0:0:0:0:
79,177,40372,1,0,0:0:0:0:
135,331,40526,1,2,3:2:0:0:
187,269,40680,1,2,0:0:0:0:
26,239,40834,1,10,0:0:0:0:
54,316,40988,1,2,0:0:0:0:
264,241,41142,6,0,P|308:236|347:257,1,90,2|2,3:2|0:0,0:0:0:0:
293,317,41449,1,10,0:0:0:0:
322,157,41603,1,2,0:0:0:0:
446,262,41757,2,0,P|420:225|418:181,1,90,2|2,3:2|0:0,0:0:0:0:
443,84,42065,1,10,0:0:0:0:
245,120,42219,6,0,P|310:112|347:58,1,135,2|0,0:0|0:0,0:0:0:0:
344,17,42526,1,2,0:0:0:0:
160,82,42680,2,0,L|167:171,2,90,8|0|0,0:0|0:0|3:0,0:0:0:0:
93,259,43142,1,2,0:0:0:0:
174,253,43296,1,10,0:0:0:0:
99,340,43449,1,2,0:0:0:0:
10,243,43603,6,0,P|54:238|93:259,1,90,2|2,3:2|0:0,0:0:0:0:
180,334,43911,1,10,0:0:0:0:
257,179,44065,2,0,L|167:171,1,90,2|0,0:0|3:2,0:0:0:0:
120,105,44372,1,2,0:0:0:0:
174,253,44526,1,8,0:0:0:0:
331,102,44680,6,0,P|288:179|296:267,1,180,6|0,0:0|0:0,0:0:0:0:
390,157,45142,2,0,P|369:196|374:241,1,90,8|0,0:0|0:0,0:0:0:0:
480,150,45449,2,0,L|391:158,1,90,0|2,3:2|0:0,0:0:0:0:
273,46,45757,1,10,0:0:0:0:
388,43,45911,1,2,0:0:0:0:
275,161,46065,6,0,P|207:108|130:146,1,180,0|8,3:2|0:0,0:0:0:0:
190,269,46526,1,0,0:0:0:0:
199,189,46680,1,2,3:2:0:0:
117,302,46834,1,2,0:0:0:0:
255,317,46988,1,10,0:0:0:0:
190,269,47142,1,2,0:0:0:0:
44,335,47296,6,0,B|23:295|23:295|35:252,1,90,4|2,3:2|0:0,0:0:0:0:
190,106,47603,2,0,B|211:146|211:146|199:189,1,90,8|2,0:0|0:0,0:0:0:0:
60,174,47911,1,0,3:2:0:0:
290,133,48065,1,2,3:2:0:0:
154,33,48219,2,0,L|65:41,1,90,8|2,0:0|0:0,0:0:0:0:
199,189,48526,5,0,3:2:0:0:
290,133,48680,1,2,3:2:0:0:
393,157,48834,1,8,0:0:0:0:
425,351,48988,5,2,3:2:0:0:
425,351,49065,1,0,3:2:0:0:
425,351,49142,1,8,0:0:0:0:
393,157,49296,1,4,3:0:0:0:
199,189,49449,1,8,3:0:0:0:
449,248,49603,1,4,3:0:0:0:
290,133,49757,5,6,3:2:0:0:
290,133,49911,1,0,3:2:0:0:
152,123,50219,6,0,L|129:121,8,22.5,14|0|0|0|0|0|0|0|0,0:0|0:0|0:0|0:0|0:0|0:0|0:0|0:0|0:0,0:0:0:0:
199,189,50680,1,0,3:2:0:0:
199,189,50834,1,0,3:2:0:0:
359,91,51142,6,0,L|381:89,8,22.5,12|0|0|0|0|0|0|0|0,0:0|0:0|0:0|0:0|0:0|0:0|0:0|0:0|0:0,0:0:0:0:
290,133,51603,1,2,3:2:0:0:
291,155,51679,1,0,3:2:0:0:
293,177,51756,1,2,3:2:0:0:
295,200,51833,1,0,3:2:0:0:
297,222,51911,2,0,L|298:244,4,22.5,12|0|0|0|2,0:0|0:0|0:0|0:0|0:0,0:0:0:0:
375,273,52219,5,0,3:2:0:0:
375,273,52372,1,2,3:2:0:0:
229,285,52680,6,0,L|206:286,8,22.5,14|0|0|0|0|0|0|0|2,0:0|0:0|0:0|0:0|0:0|0:0|0:0|0:0|0:0,0:0:0:0:
299,245,53142,1,0,3:2:0:0:
299,245,53296,1,2,3:2:0:0:
153,225,53603,6,0,L|130:223,4,22.5,4|0|0|0|8,3:2|0:0|0:0|0:0|0:0,0:0:0:0:
219,89,53911,1,0,3:2:0:0:
219,89,53988,1,0,3:2:0:0:
219,89,54065,1,8,0:0:0:0:
214,171,54219,1,8,3:0:0:0:
153,225,54372,1,4,3:0:0:0:
70,220,54526,1,4,3:0:0:0:
17,159,54680,1,6,0:0:0:0:
17,159,56834,5,8,0:0:0:0:
19,181,56911,1,4,3:0:0:0:
21,204,56988,1,4,3:0:0:0:
23,226,57065,1,4,3:0:0:0:
26,249,57142,2,0,B|66:270|66:270|109:258,1,90,14|0,0:0|0:0,0:0:0:0:
165,363,57449,5,10,0:0:0:0:
182,321,57525,1,8,0:0:0:0:
217,295,57602,1,10,0:0:0:0:
262,291,57679,1,8,0:0:0:0:
301,311,57758,1,8,0:0:0:0:
340,331,57835,1,8,0:0:0:0:
385,327,57912,1,10,0:0:0:0:
420,301,57989,1,8,0:0:0:0:
436,258,58065,5,10,0:0:0:0:
403,190,58141,1,8,0:0:0:0:
329,180,58218,1,10,0:0:0:0:
280,237,58295,1,8,0:0:0:0:
301,310,58372,6,0,L|304:345,3,26.9999991760254,14|2|2|2,0:0|0:0|0:0|0:0,0:0:0:0:
216,224,58988,5,2,0:0:0:0:
216,224,59142,2,0,P|249:223|279:237,1,67.5,2|0,0:0|0:0,0:0:0:0:
154,341,59449,6,0,B|161:252|161:252|184:221|184:221|190:132,1,215.999993408203,14|0,0:0|3:2,0:0:0:0:
8,179,59911,2,0,B|56:204|56:204|108:190,1,107.999996704102,10|0,0:0|0:0,0:0:0:0:
248,76,60219,2,0,B|200:50|200:50|148:65,1,107.999996704102,2|0,3:2|3:2,0:0:0:0:
48,284,60526,1,10,0:0:0:0:
190,133,60680,6,0,P|186:213|226:281,1,161.999995056153,2|0,0:0|0:0,0:0:0:0:
266,308,60987,1,0,3:2:0:0:
367,147,61142,2,0,P|316:132|268:154,1,107.999996704102,8|0,0:0|0:0,0:0:0:0:
109,237,61449,1,2,3:2:0:0:
322,213,61603,1,2,3:2:0:0:
190,133,61757,1,8,0:0:0:0:
291,331,61911,6,0,P|334:241|432:264,1,215.999993408203,6|0,3:2|3:2,0:0:0:0:
214,348,62372,2,0,L|106:338,1,107.999996704102,10|0,0:0|0:0,0:0:0:0:
322,213,62680,1,2,3:2:0:0:
370,315,62834,1,2,3:2:0:0:
387,121,62988,1,10,0:0:0:0:
211,204,63142,6,0,B|159:218|159:218|111:193,1,107.999996704102,2|0,0:0|3:2,0:0:0:0:
215,70,63449,1,2,0:0:0:0:
215,70,63603,2,0,B|267:55|267:55|315:81,1,107.999996704102,8|0,0:0|0:0,0:0:0:0:
446,170,63911,1,0,3:2:0:0:
362,229,64065,1,10,0:0:0:0:
362,229,64142,1,8,0:0:0:0:
362,229,64219,1,10,0:0:0:0:
397,21,64372,6,0,B|392:109|392:109|369:140|369:140|362:229,1,215.999993408203,14|2,0:0|3:2,0:0:0:0:
259,140,64834,1,10,0:0:0:0:
446,170,64988,1,2,0:0:0:0:
315,81,65142,2,0,P|268:56|216:68,1,107.999996704102,2|2,3:2|3:2,0:0:0:0:
248,220,65449,1,10,0:0:0:0:
99,41,65603,6,0,P|142:108|141:187,1,161.999995056153,2|0,3:2|0:0,0:0:0:0:
120,230,65911,1,2,3:2:0:0:
0,116,66065,1,10,0:0:0:0:
21,335,66219,1,2,0:0:0:0:
60,173,66372,1,2,3:2:0:0:
101,311,66526,1,2,3:2:0:0:
101,311,66603,1,0,3:2:0:0:
101,311,66680,1,10,0:0:0:0:
305,128,66834,6,0,P|215:172|238:269,1,215.999993408203,6|0,3:2|3:2,0:0:0:0:
317,281,67219,1,0,3:2:0:0:
317,281,67296,5,8,0:0:0:0:
338,54,67449,1,0,3:2:0:0:
142,138,67603,5,10,0:0:0:0:
287,206,67757,1,2,3:2:0:0:
189,332,67911,5,8,0:0:0:0:
380,161,68065,1,2,3:2:0:0:
79,170,68219,5,8,0:0:0:0:
306,129,68372,1,2,3:2:0:0:
347,356,68526,5,8,0:0:0:0:
287,206,68680,1,2,3:2:0:0:
189,332,68834,5,10,0:0:0:0:
135,335,68911,1,8,0:0:0:0:
84,319,68988,1,10,0:0:0:0:
43,283,69065,1,8,0:0:0:0:
19,236,69142,1,8,0:0:0:0:
15,182,69219,1,8,0:0:0:0:
31,131,69296,6,0,B|120:124|120:124|151:101|151:101|240:95,1,215.999993408203,14|0,0:0|3:2,0:0:0:0:
129,23,69757,2,0,L|21:13,1,107.999996704102,10|0,0:0|0:0,0:0:0:0:
140,202,70065,2,0,L|248:212,1,107.999996704102,2|0,3:2|3:2,0:0:0:0:
319,88,70372,1,10,0:0:0:0:
438,267,70526,6,0,P|366:237|302:284,1,161.999995056153,2|0,3:2|0:0,0:0:0:0:
296,322,70834,1,0,3:2:0:0:
494,326,70988,2,0,P|519:279|507:227,1,107.999996704102,10|0,0:0|0:0,0:0:0:0:
284,185,71296,1,2,3:2:0:0:
375,318,71450,1,2,3:2:0:0:
417,95,71603,1,8,0:0:0:0:
165,217,71757,6,0,P|254:173|231:75,1,215.999993408203,6|0,3:2|3:2,0:0:0:0:
107,160,72219,2,0,B|81:208|81:208|96:260,1,107.999996704102,10|0,0:0|0:0,0:0:0:0:
231,75,72526,1,2,3:2:0:0:
49,103,72680,1,2,3:2:0:0:
165,217,72834,1,10,0:0:0:0:
86,28,72988,6,0,P|151:73|230:75,1,161.999995056153,2|0,0:0|0:0,0:0:0:0:
273,54,73295,1,2,3:2:0:0:
165,217,73449,2,0,P|212:192|264:204,1,107.999996704102,8|0,0:0|0:0,0:0:0:0:
426,307,73757,1,0,3:2:0:0:
440,109,73911,1,10,0:0:0:0:
440,109,73988,1,8,0:0:0:0:
440,109,74065,1,10,0:0:0:0:
426,307,74219,6,0,P|396:206|440:109,1,215.999993408203,14|2,0:0|3:2,0:0:0:0:
318,263,74680,2,0,B|270:289|270:289|218:274,1,107.999996704102,10|2,0:0|0:0,0:0:0:0:
254,122,74988,1,2,3:2:0:0:
279,372,75142,1,2,0:0:0:0:
262,205,75296,1,10,0:0:0:0:
94,221,75449,6,0,P|184:264|161:362,1,215.999993408203,2|2,3:2|3:2,0:0:0:0:
22,264,75911,2,0,P|10:212|35:165,1,107.999996704102,10|0,0:0|0:0,0:0:0:0:
262,205,76219,1,2,3:2:0:0:
95,221,76372,1,0,3:2:0:0:
164,68,76526,2,0,B|212:42|212:42|264:57,1,107.999996704102,10|6,0:0|3:2,0:0:0:0:
416,112,76834,5,8,3:0:0:0:
461,178,76911,1,8,3:0:0:0:
446,256,76988,1,8,3:0:0:0:
380,301,77065,1,8,3:0:0:0:
302,286,77142,5,8,3:0:0:0:
254,261,77218,1,8,3:0:0:0:
200,256,77295,1,8,3:0:0:0:
148,269,77372,1,8,3:0:0:0:
104,299,77449,5,8,3:0:0:0:
131,297,77525,1,8,3:0:0:0:
156,288,77602,1,8,3:0:0:0:
179,274,77679,1,8,3:0:0:0:
199,256,77756,1,8,3:0:0:0:
214,233,77834,1,8,3:0:0:0:
224,208,77911,1,8,3:0:0:0:
228,182,77988,1,8,3:0:0:0:
226,155,78065,6,0,L|218:65,1,90,12|0,3:2|0:0,0:0:0:0:
142,142,78526,6,0,P|134:121|136:98,1,45,2|0,0:0|0:0,0:0:0:0:
302,78,78834,2,0,P|309:98|307:121,1,45,2|0,0:0|0:0,0:0:0:0:
56,132,79142,5,2,3:2:0:0:
56,132,79219,1,0,3:2:0:0:
56,132,79296,1,14,0:0:0:0:
307,121,79449,1,2,3:2:0:0:
307,121,79603,1,2,3:2:0:0:
271,355,79757,5,14,0:0:0:0:
86,206,79911,1,2,3:2:0:0:
86,206,80065,1,2,3:2:0:0:
346,200,80219,5,14,0:0:0:0:
116,280,80372,1,2,3:2:0:0:
116,280,80526,1,2,3:2:0:0:
36,50,80680,5,14,0:0:0:0:
166,218,80834,1,2,3:2:0:0:
166,218,80988,1,2,3:2:0:0:
334,88,81142,5,14,0:0:0:0:
137,143,81296,1,2,3:2:0:0:
192,340,81449,1,14,0:0:0:0:
389,285,81603,1,2,3:2:0:0:
166,218,81757,5,14,0:0:0:0:
461,249,81911,1,2,3:2:0:0:
461,249,82065,1,2,3:2:0:0:
192,340,82219,5,14,0:0:0:0:
216,155,82372,1,2,3:2:0:0:
216,155,82526,1,2,3:2:0:0:
389,285,82680,5,14,0:0:0:0:
365,100,82833,1,2,3:2:0:0:
365,100,82987,1,2,3:2:0:0:
166,218,83142,5,8,3:0:0:0:
166,218,83219,1,8,3:0:0:0:
166,218,83296,1,8,3:0:0:0:
461,249,83449,1,4,3:0:0:0:
117,363,83603,1,10,0:0:0:0:
117,363,83757,6,0,B|96:323|96:323|108:280,1,90,6|0,3:2|0:0,0:0:0:0:
181,313,84219,6,0,L|261:304,1,67.5000025749208,6|2,0:0|0:0,0:0:0:0:
316,171,84526,1,2,0:0:0:0:
269,159,84680,6,0,L|236:232,1,67.5000025749208,2|2,0:0|0:0,0:0:0:0:
324,347,84987,1,2,0:0:0:0:
360,317,85142,6,0,L|312:252,1,67.5000025749208,2|2,0:0|0:0,0:0:0:0:
169,270,85449,1,2,0:0:0:0:
206,332,85603,5,2,0:0:0:0:
211,259,85757,1,2,0:0:0:0:
167,196,85911,1,2,0:0:0:0:
107,156,86065,5,2,0:0:0:0:
167,196,86219,1,2,0:0:0:0:
244,190,86373,1,2,0:0:0:0:
328,313,86526,6,0,L|323:346,2,33.7500012874604,2|0|2,0:0|0:0|0:0,0:0:0:0:
328,313,86834,1,2,0:0:0:0:
403,262,86988,5,2,0:0:0:0:
483,242,87142,1,2,0:0:0:0:
512,167,87296,1,2,0:0:0:0:
426,183,87449,5,2,0:0:0:0:
403,262,87603,1,2,0:0:0:0:
453,324,87757,1,2,0:0:0:0:
483,242,87911,5,2,0:0:0:0:
426,182,88065,1,2,0:0:0:0:
347,194,88219,1,2,0:0:0:0:
145,298,88372,5,10,3:0:0:0:
170,293,88449,1,8,3:0:0:0:
194,289,88526,1,10,3:0:0:0:
238,179,88680,1,10,3:0:0:0:
213,63,88834,1,6,3:0:0:0:
106,6,88988,1,6,3:0:0:0:
16,186,89142,6,0,P|50:186|99:167,1,76.5000014591217,6|0,3:2|0:0,0:0:0:0:
33,282,89449,2,0,P|49:252|58:200,1,76.5000014591217,2|0,3:2|0:0,0:0:0:0:
125,314,89757,2,0,P|108:284|67:251,1,76.5000014591217,2|0,3:2|0:0,0:0:0:0:
201,251,90065,2,8,P|167:251|118:269,1,76.5000014591217,2|0,3:2|0:0,0:0:0:0:
186,139,90372,6,0,L|292:132,1,76.5000014591217,2|0,3:2|0:0,0:0:0:0:
356,102,90680,2,0,L|279:107,1,76.5000014591217,2|0,3:2|0:0,0:0:0:0:
210,87,90988,2,0,L|316:80,1,76.5000014591217,2|0,3:2|0:0,0:0:0:0:
380,50,91296,2,0,L|303:55,1,76.5000014591217,2|0,3:2|0:0,0:0:0:0:
67,57,91603,5,12,0:0:0:0:
96,48,91757,1,2,3:2:0:0:
91,77,91911,1,2,3:2:0:0:
221,13,92065,5,10,0:0:0:0:
211,148,92219,1,2,3:2:0:0:
91,77,92372,1,2,3:2:0:0:
337,88,92526,5,8,0:0:0:0:
337,88,92680,1,2,3:2:0:0:
100,176,92834,5,12,0:0:0:0:
225,342,92988,1,10,0:0:0:0:
421,284,93142,1,8,0:0:0:0:
459,85,93296,1,10,0:0:0:0:
225,342,93449,6,0,P|195:299|218:253,1,107.999996704102,8|10,0:0|3:2,0:0:0:0:
289,76,93757,2,0,P|318:118|295:164,1,107.999996704102,8|0,0:0|3:2,0:0:0:0:
80,245,94065,5,12,3:2:0:0:
115,118,94219,2,0,B|102:74|102:74|105:63|105:63|88:7,1,99.0000030212403,0|0,3:2|3:2,0:0:0:0:
73,268,94526,5,12,0:0:0:0:
128,103,94680,2,0,B|115:59|115:59|118:48|118:48|101:-8,1,99.0000030212403,0|2,3:2|3:2,0:0:0:0:
68,290,94988,6,0,B|80:329|80:329|77:340|77:340|90:384,1,99.0000030212403,14|2,0:0|3:2,0:0:0:0:
196,384,95296,1,2,3:2:0:0:
278,145,95449,6,0,P|232:230|235:257,1,99.0000030212403,14|2,0:0|3:2,0:0:0:0:
323,358,95757,1,2,3:2:0:0:
511,230,95911,6,0,P|498:277|465:313,1,99.0000030212403,14|0,0:0|3:2,0:0:0:0:
198,210,96219,2,0,P|210:162|243:126,1,99.0000030212403,14|2,0:0|3:2,0:0:0:0:
493,42,96526,5,12,0:0:0:0:
488,62,96680,1,2,3:2:0:0:
471,73,96834,1,0,3:2:0:0:
310,195,96988,5,12,0:0:0:0:
280,109,97142,1,0,3:2:0:0:
176,77,97296,1,2,3:2:0:0:
20,240,97449,5,12,0:0:0:0:
94,317,97603,2,0,L|207:301,1,99.0000030212403,2|2,3:2|3:2,0:0:0:0:
512,384,97911,5,14,0:0:0:0:
438,314,98065,2,0,L|452:208,1,99.0000030212403,2|2,3:2|3:2,0:0:0:0:
285,41,98372,5,12,0:0:0:0:
307,111,98526,1,2,3:2:0:0:
154,206,98680,1,12,0:0:0:0:
241,281,98834,6,0,P|110:237|56:228,1,180,6|0,3:2|3:2,0:0:0:0:
0,118,99296,2,0,P|87:98|171:66,1,180,8|0,0:0|3:2,0:0:0:0:
229,6,99757,1,2,3:2:0:0:
294,57,99911,2,0,L|280:146,1,90,10|2,0:0|0:0,0:0:0:0:
423,300,100218,6,0,L|414:201,1,90,0|0,3:2|0:0,0:0:0:0:
275,58,100526,2,0,L|260:146,1,90,8|0,0:0|0:0,0:0:0:0:
355,372,100834,1,2,3:2:0:0:
282,362,100988,1,2,3:2:0:0:
207,354,101142,1,10,0:0:0:0:
26,249,101296,2,0,B|124:225|64:184|190:154,1,180,6|2,3:2|3:2,0:0:0:0:
353,9,101757,6,0,P|327:35|316:76,1,45,10|0,0:0|0:0,0:0:0:0:
327,74,101911,1,2,3:2:0:0:
285,384,102065,6,8,P|290:347|275:308,1,45,8|0,0:0|0:0,0:0:0:0:
267,316,102219,1,2,3:2:0:0:
111,43,102372,6,8,P|128:75|164:99,1,45,8|0,0:0|0:0,0:0:0:0:
165,88,102526,1,2,3:2:0:0:
460,227,102680,6,0,P|427:211|384:213,1,45,8|0,0:0|0:0,0:0:0:0:
390,223,102834,1,2,3:2:0:0:
69,283,102988,6,0,P|106:277|139:250,1,45,8|0,0:0|0:0,0:0:0:0:
129,245,103142,1,2,3:2:0:0:
299,6,103296,5,8,0:0:0:0:
307,2,103372,1,8,0:0:0:0:
315,0,103449,1,2,3:2:0:0:
324,0,103526,1,0,3:2:0:0:
333,0,103603,1,8,3:2:0:0:
342,0,103680,1,0,3:2:0:0:
351,2,103757,1,2,3:2:0:0:
359,6,103834,1,0,3:2:0:0:
380,39,103911,5,12,0:0:0:0:
360,209,104065,1,0,3:2:0:0:
207,345,104219,5,8,0:0:0:0:
187,175,104373,1,0,3:2:0:0:
428,125,104526,5,8,0:0:0:0:
272,265,104680,1,0,3:2:0:0:
95,103,104834,5,10,0:0:0:0:
275,179,104988,1,0,3:2:0:0:
63,346,105142,5,10,0:0:0:0:
95,103,105296,1,0,3:2:0:0:
198,353,105449,5,8,0:0:0:0:
184,88,105603,1,0,3:2:0:0:
336,336,105757,5,8,0:0:0:0:
260,59,105911,1,0,3:2:0:0:
344,351,106064,1,10,0:0:0:0:
449,96,106219,5,2,3:2:0:0:
449,96,106296,1,0,3:2:0:0:
449,96,106372,1,14,0:0:0:0:
220,189,106526,1,2,3:2:0:0:
451,301,106680,5,8,0:0:0:0:
349,135,106834,1,2,3:2:0:0:
185,325,106988,5,8,0:0:0:0:
442,211,107142,1,2,3:2:0:0:
239,62,107296,5,8,0:0:0:0:
326,380,107450,1,2,3:2:0:0:
142,112,107603,5,10,0:0:0:0:
456,223,107757,1,0,3:2:0:0:
279,284,107911,1,8,0:0:0:0:
279,284,108219,5,8,0:0:0:0:
355,324,108321,6,0,P|365:281|360:259,1,53.9999983520508,8|8,0:0|0:0,0:0:0:0:
331,188,108526,5,4,3:0:0:0:
363,149,108628,6,0,L|417:139,1,53.9999983520508,4|4,3:0|3:0,0:0:0:0:
430,117,108834,5,6,3:2:0:0:
430,117,110065,5,2,0:0:0:0:
421,358,110526,5,2,0:0:0:0:
430,117,110988,5,14,0:0:0:0:
412,118,111064,1,4,3:0:0:0:
394,119,111141,1,4,3:0:0:0:
376,120,111218,1,4,3:0:0:0:
344,102,111296,5,14,0:0:0:0:
406,361,111449,1,0,3:2:0:0:
135,55,111603,5,10,0:0:0:0:
85,288,111756,1,2,3:2:0:0:
413,249,111911,5,8,0:0:0:0:
188,354,112064,1,2,3:2:0:0:
264,12,112219,6,0,B|266:68|266:68|258:78|258:78|262:138,1,107.999996704102,10|2,0:0|3:2,0:0:0:0:
188,354,112526,2,0,L|183:294,1,53.9999983520508,8|8,3:2|0:0,0:0:0:0:
97,178,112680,1,8,0:0:0:0:
119,132,112756,1,8,0:0:0:0:
161,102,112833,1,10,0:0:0:0:
213,94,112910,1,8,0:0:0:0:
261,110,112987,1,8,0:0:0:0:
260,117,113065,1,8,0:0:0:0:
259,125,113142,5,10,0:0:0:0:
300,184,113218,1,8,0:0:0:0:
364,218,113295,1,10,0:0:0:0:
437,218,113372,1,8,0:0:0:0:
501,184,113449,2,0,L|490:110,1,49.5000015106202,8|8,0:0|0:0,0:0:0:0:
356,28,113603,6,0,B|296:18|244:68|277:74|252:134|172:126,1,215.999993408203,14|0,0:0|3:2,0:0:0:0:
365,192,114065,2,0,L|489:175,1,107.999996704102,10|0,0:0|0:0,0:0:0:0:
270,357,114372,2,0,L|255:250,1,107.999996704102,2|0,3:2|3:2,0:0:0:0:
223,83,114680,1,10,0:0:0:0:
28,162,114834,6,0,P|86:161|142:299,1,215.999993408203,2|0,3:2|3:2,0:0:0:0:
55,370,115296,2,0,L|58:251,1,107.999996704102,8|0,0:0|0:0,0:0:0:0:
202,127,115603,1,2,3:2:0:0:
234,333,115757,1,2,3:2:0:0:
291,227,115911,5,8,0:0:0:0:
84,181,116065,2,0,B|158:191|158:191|195:217|195:217|312:229,1,215.999993408203,6|0,3:2|3:2,0:0:0:0:
475,96,116526,2,0,B|429:102|408:137|408:137|394:93|351:73,1,161.999995056153,10|0,0:0|0:0,0:0:0:0:
276,40,116834,1,0,3:2:0:0:
150,138,116988,2,0,L|270:123,1,107.999996704102,2|8,3:2|0:0,0:0:0:0:
438,258,117296,6,0,B|394:227|326:260|359:293|308:336|245:309,1,215.999993408203,2|2,0:0|0:0,0:0:0:0:
2,378,117757,2,0,P|65:358|128:353,1,107.999996704102,8|0,0:0|0:0,0:0:0:0:
218,381,118065,2,0,P|192:362|175:325,1,53.9999983520508,0|0,3:2|0:0,0:0:0:0:
119,185,118219,1,10,0:0:0:0:
133,190,118296,1,8,0:0:0:0:
145,202,118372,2,0,P|141:234|118:267,1,53.9999983520508,8|0,0:0|0:0,0:0:0:0:
15,77,118526,6,0,L|239:89,1,215.999993408203,14|2,0:0|3:2,0:0:0:0:
423,99,118988,1,10,0:0:0:0:
333,250,119142,2,0,L|327:187,1,53.9999983520508,2|0,0:0|0:0,0:0:0:0:
328,167,119296,1,2,3:2:0:0:
245,317,119449,5,2,0:0:0:0:
436,232,119603,1,10,0:0:0:0:
231,89,119757,2,0,B|298:100|298:100|315:116|315:116|399:124,1,161.999995056153,2|0,0:0|0:0,0:0:0:0:
473,90,120065,5,2,3:2:0:0:
294,205,120219,1,10,0:0:0:0:
195,3,120372,1,2,0:0:0:0:
111,145,120526,6,0,L|222:127,1,107.999996704102,2|2,3:2|3:2,0:0:0:0:
43,33,120834,1,8,0:0:0:0:
6,252,120988,6,0,B|71:240|134:279|134:279|178:252|180:194,1,215.999993408203,6|0,3:2|3:2,0:0:0:0:
43,33,121449,6,0,L|56:108,1,53.9999983520508,8|0,0:0|0:0,0:0:0:0:
52,86,121603,1,0,3:2:0:0:
379,166,121757,2,0,L|388:112,1,53.9999983520508,10|0,0:0|0:0,0:0:0:0:
387,112,121911,1,0,3:2:0:0:
80,283,122065,2,0,L|89:336,1,53.9999983520508,8|0,0:0|0:0,0:0:0:0:
89,336,122219,1,0,3:2:0:0:
470,217,122372,6,0,P|418:176|327:169,1,107.999996704102,8|2,0:0|3:2,0:0:0:0:
301,318,122680,2,0,P|353:359|444:366,1,107.999996704102,8|2,0:0|3:2,0:0:0:0:
472,329,122988,1,8,0:0:0:0:
260,189,123142,5,10,0:0:0:0:
248,192,123219,1,8,0:0:0:0:
239,201,123296,2,0,L|175:191,1,53.9999983520508,8|0,0:0|0:0,0:0:0:0:
35,376,123449,6,0,B|120:354|120:354|154:327|154:327|252:306,1,215.999993408203,14|0,0:0|3:2,0:0:0:0:
461,149,123911,2,0,P|386:176|363:266,1,161.999995056153,10|0,0:0|0:0,0:0:0:0:
433,291,124219,2,0,P|498:257|503:200,1,107.999996704102,2|0,3:2|3:2,0:0:0:0:
374,54,124526,1,10,0:0:0:0:
247,242,124680,6,0,B|194:238|148:210|180:200|148:117|67:140,1,215.999993408203,2|0,3:2|3:2,0:0:0:0:
14,366,125142,2,0,L|134:336,1,107.999996704102,8|0,0:0|0:0,0:0:0:0:
332,299,125449,1,2,3:2:0:0:
219,138,125603,1,2,3:2:0:0:
219,138,125680,1,0,3:0:0:0:
219,138,125757,2,0,L|231:72,1,53.9999983520508,8|0,0:0|0:0,0:0:0:0:
438,9,125911,6,0,P|479:50|409:190,1,215.999993408203,6|0,3:2|3:2,0:0:0:0:
224,292,126372,2,0,L|350:300,1,107.999996704102,10|0,0:0|0:0,0:0:0:0:
472,339,126680,1,2,3:2:0:0:
339,200,126834,1,2,3:2:0:0:
217,375,126988,1,10,0:0:0:0:
50,211,127142,6,0,P|74:155|179:151,1,161.999995056153,2|0,0:0|0:0,0:0:0:0:
222,196,127449,1,2,3:2:0:0:
307,26,127603,2,0,P|287:75|282:142,1,107.999996704102,8|0,0:0|0:0,0:0:0:0:
378,282,127911,1,0,3:2:0:0:
159,359,128065,1,10,0:0:0:0:
159,359,128142,1,8,0:0:0:0:
159,359,128219,2,0,L|166:291,1,53.9999983520508,8|0,0:0|0:0,0:0:0:0:
28,100,128372,6,0,L|53:329,1,215.999993408203,14|2,0:0|3:2,0:0:0:0:
232,102,128834,2,0,L|224:228,1,107.999996704102,10|0,0:0|0:0,0:0:0:0:
113,55,129142,5,2,3:2:0:0:
130,183,129296,1,2,0:0:0:0:
113,55,129449,1,10,0:0:0:0:
232,102,129603,6,0,P|295:152|424:98,1,215.999993408203,2|2,0:0|0:0,0:0:0:0:
512,238,130065,1,10,0:0:0:0:
421,355,130219,1,2,0:0:0:0:
317,283,130372,2,0,L|429:268,1,107.999996704102,2|2,3:2|3:2,0:0:0:0:
287,384,130680,2,0,L|175:369,1,107.999996704102,10|6,0:0|3:2,0:0:0:0:
27,219,130988,5,8,3:0:0:0:
74,197,131064,1,8,3:0:0:0:
121,219,131141,1,8,3:0:0:0:
134,270,131218,1,8,3:0:0:0:
104,312,131295,1,8,3:0:0:0:
92,316,131372,1,8,3:0:0:0:
81,314,131449,1,8,3:0:0:0:
75,308,131526,1,8,3:0:0:0:
63,302,131603,5,8,3:0:0:0:
100,263,131679,1,8,3:0:0:0:
151,250,131756,1,8,3:0:0:0:
203,265,131833,1,8,3:0:0:0:
239,304,131911,2,0,P|250:333|256:388,1,53.9999983520508,8|8,3:0|3:0,0:0:0:0:
399,223,132065,5,8,3:0:0:0:
446,167,132219,6,0,L|457:55,1,108,14|0,3:2|0:0,0:0:0:0:
456,59,133449,5,6,0:0:0:0:
430,102,142988,5,2,0:0:0:0:
430,102,143142,2,0,L|370:91,1,45,10|8,3:0|3:0,0:0:0:0:
230,7,143296,6,0,L|234:95,1,76.5000014591217,14|8,0:0|3:0,0:0:0:0:
233,83,143603,1,10,3:0:0:0:
140,176,143757,1,10,3:0:0:0:
140,176,143834,1,8,3:0:0:0:
140,176,143911,5,4,3:0:0:0:
47,270,144065,1,10,3:0:0:0:
87,384,144219,1,6,3:0:0:0:
87,384,144372,1,8,3:0:0:0:
182,365,144526,5,6,3:0:0:0:
182,365,144680,1,10,3:0:0:0:
271,342,144834,1,4,3:0:0:0:
358,321,144988,5,6,3:0:0:0:
358,321,145065,1,4,3:0:0:0:
358,321,145142,1,6,3:0:0:0:
404,259,145296,1,8,3:0:0:0:
392,183,145449,1,6,3:0:0:0:
336,126,145603,2,0,L|343:65,1,38.2500007295609,8|8,3:0|3:0,0:0:0:0:
90,17,145757,6,0,L|102:119,1,76.5000014591217,6|8,3:0|3:0,0:0:0:0:
98,92,146065,1,6,3:0:0:0:
196,84,146219,5,10,3:0:0:0:
223,97,146296,1,8,3:0:0:0:
236,128,146373,1,4,3:0:0:0:
242,220,146527,1,10,3:0:0:0:
244,314,146681,1,6,3:0:0:0:
251,319,146834,1,8,3:0:0:0:
339,250,146988,5,6,3:0:0:0:
409,240,147142,1,6,3:0:0:0:
443,303,147296,1,8,3:0:0:0:
506,254,147450,5,10,3:0:0:0:
506,254,147527,1,8,3:0:0:0:
506,254,147604,1,4,3:0:0:0:
441,60,147758,1,8,3:0:0:0:
324,224,147911,1,6,3:2:0:0:
0,382,148219,6,0,L|76:378,1,76.5000014591217,6|8,3:2|3:0,0:0:0:0:
199,301,148526,1,4,3:0:0:0:
345,338,148680,1,10,3:0:0:0:
345,338,148757,1,8,3:0:0:0:
345,338,148834,5,4,3:0:0:0:
42,260,148988,1,8,3:0:0:0:
87,384,149142,1,6,3:0:0:0:
87,384,149295,1,8,3:0:0:0:
182,365,149449,5,4,3:0:0:0:
182,365,149603,1,8,3:0:0:0:
271,342,149757,1,4,3:0:0:0:
358,321,149911,5,4,3:0:0:0:
358,321,149988,1,4,3:0:0:0:
358,321,150065,1,4,3:0:0:0:
404,259,150219,1,4,3:0:0:0:
392,183,150372,1,6,3:0:0:0:
336,126,150526,2,0,L|343:65,1,38.2500007295609,4|4,3:0|3:0,0:0:0:0:
165,24,150680,6,0,L|77:31,1,76.5000014591217,6|8,3:2|3:0,0:0:0:0:
3,124,150988,1,4,3:0:0:0:
114,171,151142,1,6,3:0:0:0:
114,171,151219,1,8,3:0:0:0:
114,171,151296,5,4,3:0:0:0:
180,257,151449,1,4,3:0:0:0:
103,317,151603,1,6,3:0:0:0:
103,317,151757,1,4,3:0:0:0:
115,36,151911,6,0,L|125:135,1,90,12|0,0:0|3:2,0:0:0:0:
397,36,152219,2,0,L|387:135,1,90,10|0,0:0|3:2,0:0:0:0:
272,353,152526,1,10,0:0:0:0:
219,355,152602,1,8,0:0:0:0:
177,322,152679,1,8,0:0:0:0:
168,270,152756,1,8,0:0:0:0:
195,225,152834,1,10,0:0:0:0:
213,212,152910,1,8,0:0:0:0:
225,193,152987,1,10,0:0:0:0:
229,171,153064,1,8,0:0:0:0:
227,148,153142,6,0,L|90:172,1,107.999996704102,14|0,0:0|3:2,0:0:0:0:
117,189,153449,1,0,3:2:0:0:
329,67,153603,6,0,L|192:43,1,107.999996704102,10|0,0:0|3:2,0:0:0:0:
219,26,153910,1,0,3:2:0:0:
358,220,154065,6,0,L|506:200,1,107.999996704102,10|0,0:0|3:2,0:0:0:0:
474,227,154372,1,2,3:2:0:0:
319,360,154526,6,0,B|243:332|243:332|273:177,1,198.000006042481,12|2,0:0|3:2,0:0:0:0:
388,6,154988,2,0,P|401:82|365:121,1,99.0000030212403,8|0,0:0|3:2,0:0:0:0:
155,169,155296,1,10,0:0:0:0:
330,246,155449,2,0,L|395:236,1,49.5000015106202,0|0,3:2|3:2,0:0:0:0:
216,384,155603,6,0,L|199:261,1,107.999996704102,14|0,0:0|3:2,0:0:0:0:
169,93,155911,1,0,3:2:0:0:
364,345,156065,6,0,L|381:222,1,107.999996704102,10|0,0:0|3:2,0:0:0:0:
398,99,156373,1,0,3:2:0:0:
211,190,156526,2,0,B|270:193|270:193|314:150,1,107.999996704102,14|0,0:0|3:2,0:0:0:0:
44,76,156834,5,2,3:2:0:0:
12,335,156988,2,0,P|62:269|173:235,1,198.000006042481,12|2,0:0|3:2,0:0:0:0:
373,365,157449,2,0,L|243:353,1,99.0000030212403,8|0,0:0|3:2,0:0:0:0:
178,136,157757,2,0,L|168:234,1,99.0000030212403,10|0,0:0|3:2,0:0:0:0:
368,255,158065,6,0,B|422:258|449:202|428:207|460:157|500:158,1,161.999995056153,14|0,0:0|0:0,0:0:0:0:
509,164,158372,1,8,0:0:0:0:
401,92,158526,2,0,L|282:117,1,107.999996704102,2|0,0:0|3:2,0:0:0:0:
99,0,158834,1,0,3:2:0:0:
4,122,158988,2,0,L|109:144,1,107.999996704102,10|0,0:0|0:0,0:0:0:0:
269,340,159296,6,0,P|291:287|263:214,1,99.0000030212403,2|0,3:2|0:0,0:0:0:0:
150,232,159603,2,0,P|128:285|156:358,1,99.0000030212403,8|2,0:0|0:0,0:0:0:0:
282,341,159911,2,0,P|304:288|276:215,1,99.0000030212403,0|0,3:2|3:2,0:0:0:0:
54,174,160219,1,8,0:0:0:0:
40,188,160372,2,0,L|34:119,1,49.5000015106202,0|0,3:2|0:0,0:0:0:0:
66,18,160526,2,0,L|165:28,1,90,6|0,0:0|0:0,0:0:0:0:
453,53,160834,5,10,0:0:0:0:
415,44,160910,1,0,3:2:0:0:
377,45,160987,1,0,3:2:0:0:
340,56,161064,1,0,3:2:0:0:
306,71,161141,1,10,0:0:0:0:
277,97,161218,1,0,3:2:0:0:
255,127,161295,1,0,3:2:0:0:
239,163,161372,1,0,3:2:0:0:
233,200,161449,1,10,0:0:0:0:
235,239,161526,1,0,3:2:0:0:
246,276,161603,1,0,3:2:0:0:
266,307,161680,1,0,3:2:0:0:
291,337,161757,2,0,P|329:320|343:267,1,67.5000025749208,10|0,0:0|3:2,0:0:0:0:
402,132,161911,5,0,3:2:0:0:
334,146,161987,1,0,3:2:0:0:
268,162,162064,1,10,0:0:0:0:
202,178,162141,1,0,3:2:0:0:
135,193,162218,1,0,3:2:0:0:
69,208,162295,1,0,3:2:0:0:
0,224,162372,1,10,0:0:0:0:
437,271,162526,5,10,0:0:0:0:
159,18,162680,1,10,0:0:0:0:
65,368,162834,1,14,0:0:0:0:
477,55,167142,6,0,L|407:67,1,45,0|0,3:2|3:2,0:0:0:0:
192,174,167296,5,14,0:0:0:0:
206,188,167449,2,0,L|330:197,1,108,2|0,0:0|0:0,0:0:0:0:
497,235,167757,6,0,B|394:246|368:309|397:338|351:378|277:376,1,233.999989288331,6|0,3:2|3:2,0:0:0:0:
200,278,168219,2,0,B|248:303|248:303|300:289,1,107.999996704102,10|0,0:0|0:0,0:0:0:0:
399,173,168526,1,2,3:2:0:0:
283,74,168680,1,2,3:2:0:0:
426,23,168834,1,10,0:0:0:0:
312,155,168988,6,0,L|204:165,1,107.999996704102,2|0,0:0|3:2,0:0:0:0:
52,218,169296,1,2,0:0:0:0:
52,218,169449,2,0,P|103:203|151:225,1,107.999996704102,8|0,0:0|0:0,0:0:0:0:
268,332,169757,1,0,3:2:0:0:
376,214,169911,1,10,0:0:0:0:
376,214,169988,1,8,0:0:0:0:
376,214,170065,1,10,0:0:0:0:
394,366,170219,6,0,P|386:259|435:164,1,215.999993408203,14|2,0:0|3:2,0:0:0:0:
471,278,170680,1,10,0:0:0:0:
292,239,170834,1,2,0:0:0:0:
510,99,170988,1,2,3:2:0:0:
331,60,171142,1,2,0:0:0:0:
376,214,171296,1,10,0:0:0:0:
208,264,171450,6,0,P|141:221|62:222,1,161.999995056153,2|0,3:2|0:0,0:0:0:0:
19,243,171757,1,2,3:2:0:0:
161,92,171911,2,0,B|175:144|175:144|150:192,1,107.999996704102,10|2,0:0|0:0,0:0:0:0:
72,307,172219,1,2,3:2:0:0:
84,131,172372,1,2,3:2:0:0:
153,330,172526,1,10,0:0:0:0:
352,261,172680,6,0,B|359:172|359:172|382:141|382:141|388:52,1,215.999993408203,6|0,3:2|3:2,0:0:0:0:
387,53,173065,1,0,3:2:0:0:
387,53,173142,1,8,0:0:0:0:
440,213,173296,1,0,3:2:0:0:
227,149,173449,5,10,0:0:0:0:
352,261,173603,1,2,3:2:0:0:
136,312,173757,5,8,0:0:0:0:
300,346,173911,1,2,3:2:0:0:
115,198,174065,5,8,0:0:0:0:
391,105,174219,5,2,3:2:0:0:
350,83,174296,1,2,3:2:0:0:
307,86,174372,1,8,0:0:0:0:
270,112,174449,1,0,3:2:0:0:
253,152,174526,1,2,3:2:0:0:
236,192,174603,1,0,3:2:0:0:
199,218,174680,1,10,0:0:0:0:
155,221,174757,1,8,0:0:0:0:
115,198,174834,5,10,0:0:0:0:
97,125,174911,1,8,0:0:0:0:
147,70,174988,1,8,0:0:0:0:
221,82,175065,1,8,0:0:0:0:
253,152,175142,6,0,P|347:200|454:192,1,215.999993408203,14|0,0:0|3:2,0:0:0:0:
339,302,175603,2,0,B|291:277|291:277|239:291,1,107.999996704102,10|0,0:0|0:0,0:0:0:0:
77,333,175911,2,0,B|125:358|125:358|177:344,1,107.999996704102,2|0,3:2|3:2,0:0:0:0:
253,152,176219,1,10,0:0:0:0:
444,227,176372,6,0,B|437:138|437:138|414:107|414:107|408:18,1,215.999993408203,2|0,3:2|3:2,0:0:0:0:
253,152,176834,2,0,P|304:137|352:159,1,107.999996704102,10|0,0:0|0:0,0:0:0:0:
444,227,177142,1,2,3:2:0:0:
507,13,177296,2,0,P|458:34|408:19,1,107.999996704102,2|8,3:2|0:0,0:0:0:0:
174,65,177603,6,0,P|222:159|214:266,1,215.999993408203,6|0,3:2|3:2,0:0:0:0:
40,167,178065,2,0,B|92:153|92:153|140:178,1,107.999996704102,10|0,0:0|0:0,0:0:0:0:
274,332,178372,2,0,B|226:357|226:357|174:343,1,107.999996704102,2|2,3:2|3:2,0:0:0:0:
84,240,178680,1,10,0:0:0:0:
253,152,178834,6,0,P|350:129|393:219,1,215.999993408203,2|2,0:0|0:0,0:0:0:0:
273,332,179296,2,0,L|381:322,1,107.999996704102,8|0,0:0|0:0,0:0:0:0:
253,152,179603,6,0,L|248:206,1,53.9999983520508,2|0,3:2|0:0,0:0:0:0:
51,192,179756,1,10,0:0:0:0:
51,192,179833,1,8,0:0:0:0:
51,192,179911,2,0,L|46:138,1,53.9999983520508,10|0,0:0|0:0,0:0:0:0:
275,39,180065,6,0,B|282:128|282:128|305:159|305:159|311:248,1,215.999993408203,14|2,0:0|3:2,0:0:0:0:
465,103,180526,2,0,B|417:78|417:78|365:92,1,107.999996704102,10|2,0:0|0:0,0:0:0:0:
222,194,180834,1,2,3:2:0:0:
438,352,180988,1,2,0:0:0:0:
409,165,181142,1,10,0:0:0:0:
251,381,181296,6,0,P|156:332|49:340,1,215.999993408203,2|2,3:2|3:2,0:0:0:0:
136,198,181757,2,0,P|151:248|129:296,1,107.999996704102,10|0,0:0|0:0,0:0:0:0:
67,151,182065,2,0,P|52:101|74:53,1,107.999996704102,2|0,3:2|3:2,0:0:0:0:
353,47,182372,2,0,B|305:72|305:72|253:58,1,107.999996704102,10|6,0:0|3:2,0:0:0:0:
67,151,182680,5,8,3:0:0:0:
22,217,182757,1,8,3:0:0:0:
37,295,182834,1,8,3:0:0:0:
103,340,182911,1,8,3:0:0:0:
181,325,182988,5,8,3:0:0:0:
229,300,183064,1,8,3:0:0:0:
283,295,183141,1,8,3:0:0:0:
335,308,183218,1,8,3:0:0:0:
379,338,183295,5,8,3:0:0:0:
352,336,183371,1,8,3:0:0:0:
327,327,183448,1,8,3:0:0:0:
304,313,183525,1,8,3:0:0:0:
284,295,183602,1,8,3:0:0:0:
269,272,183680,1,8,3:0:0:0:
259,247,183757,1,8,3:0:0:0:
255,221,183834,1,8,3:0:0:0:
256,192,183911,1,12,3:2:0:0:
256,192,184526,5,2,0:0:0:0:
272,185,184602,1,2,0:0:0:0:
288,192,184679,1,2,0:0:0:0:
294,208,184756,1,2,0:0:0:0:
287,224,184833,1,10,0:0:0:0:
271,230,184910,1,10,0:0:0:0:
256,223,184988,6,0,B|211:205|167:235|183:247|143:281|91:262,1,180,6|0,3:2|3:2,0:0:0:0:
215,382,185449,2,0,P|236:343|232:299,1,90,10|0,0:0|3:2,0:0:0:0:
114,185,185757,2,0,L|117:140,1,45,2|0,3:2|0:0,0:0:0:0:
87,307,185911,2,0,L|90:262,1,45,2|0,3:2|0:0,0:0:0:0:
141,63,186065,1,8,0:0:0:0:
225,178,186219,5,2,0:0:0:0:
225,178,186296,1,2,0:0:0:0:
225,178,186372,2,0,P|247:179|268:172,1,45,2|0,3:2|0:0,0:0:0:0:
114,185,186526,2,0,P|129:201|150:211,1,45,2|0,0:0|0:0,0:0:0:0:
299,96,186680,2,0,P|315:81|325:61,1,45,10|0,0:0|0:0,0:0:0:0:
428,211,186834,2,0,B|388:190|388:190|345:202,1,90,2|2,0:0|3:2,0:0:0:0:
166,40,187142,2,0,B|209:52|209:52|249:31,1,90,2|8,3:2|0:0,0:0:0:0:
443,43,187449,6,0,L|430:186,1,135,6|0,3:2|0:0,0:0:0:0:
428,211,187757,1,2,3:2:0:0:
372,367,187911,2,0,L|379:277,1,90,10|0,0:0|0:0,0:0:0:0:
346,69,188219,2,0,L|349:113,1,45,2|0,3:2|0:0,0:0:0:0:
294,284,188372,2,0,L|290:239,1,45,2|0,3:2|0:0,0:0:0:0:
266,97,188526,1,8,0:0:0:0:
147,263,188680,5,2,0:0:0:0:
147,263,188757,1,2,0:0:0:0:
147,263,188834,2,0,P|141:241|144:218,1,45,2|0,3:2|0:0,0:0:0:0:
187,74,188988,2,0,P|170:88|148:97,1,45,2|0,0:0|0:0,0:0:0:0:
5,134,189142,2,0,P|25:139|44:153,1,45,10|0,0:0|0:0,0:0:0:0:
179,340,189296,2,0,B|136:352|136:352|96:331,1,90,2|0,0:0|3:2,0:0:0:0:
144,219,189603,1,2,3:2:0:0:
144,219,189680,1,8,0:0:0:0:
144,219,189757,1,10,0:0:0:0:
264,361,189911,6,0,P|304:340|348:345,1,90,6|0,3:2|0:0,0:0:0:0:
432,375,190219,1,2,3:2:0:0:
408,175,190372,1,10,0:0:0:0:
347,344,190526,1,2,0:0:0:0:
359,108,190680,2,0,B|399:87|399:87|442:99,1,90,2|2,3:2|0:0,0:0:0:0:
378,259,190988,1,10,0:0:0:0:
276,116,191142,1,2,0:0:0:0:
133,218,191296,5,2,3:2:0:0:
133,218,191449,1,2,0:0:0:0:
116,43,191603,1,10,0:0:0:0:
116,43,191757,1,2,3:2:0:0:
77,280,191911,1,2,3:2:0:0:
160,141,192065,1,2,3:2:0:0:
299,224,192219,1,10,0:0:0:0:
1,318,192372,6,0,B|46:300|90:330|74:342|114:376|166:357,1,180,6|2,3:2|3:2,0:0:0:0:
246,332,192757,1,0,3:2:0:0:
246,332,192834,1,10,0:0:0:0:
77,280,192988,1,2,3:2:0:0:
302,166,193142,5,10,0:0:0:0:
133,218,193296,1,0,3:2:0:0:
240,110,193449,5,14,0:0:0:0:
71,58,193603,1,2,0:0:0:0:
319,83,193757,5,2,3:2:0:0:
325,105,193834,1,8,0:0:0:0:
323,127,193911,1,8,0:0:0:0:
315,148,193988,1,8,3:2:0:0:
302,166,194064,1,8,3:2:0:0:
268,196,194142,1,8,0:0:0:0:
255,238,194219,1,8,0:0:0:0:
267,281,194296,1,8,0:0:0:0:
299,311,194372,6,0,P|319:288|324:269,1,45,10|10,0:0|0:0,0:0:0:0:
180,183,194526,2,0,P|186:158|184:139,1,45,10|10,0:0|0:0,0:0:0:0:
45,275,194680,2,0,P|69:286|103:293,1,45,10|10,0:0|0:0,0:0:0:0:
299,311,194834,6,0,B|355:316|355:316|374:330|374:330|430:334,1,135,14|0,0:0|0:0,0:0:0:0:
471,338,195142,1,2,3:2:0:0:
402,164,195296,2,0,B|423:204|423:204|411:247,1,90,10|0,0:0|0:0,0:0:0:0:
198,258,195603,2,0,L|195:213,1,45,2|0,3:2|0:0,0:0:0:0:
225,380,195757,2,0,L|222:335,1,45,2|0,0:0|0:0,0:0:0:0:
171,136,195911,1,8,0:0:0:0:
293,260,196065,5,2,0:0:0:0:
293,260,196142,1,2,0:0:0:0:
293,260,196219,2,0,P|315:259|336:266,1,45,2|0,3:2|0:0,0:0:0:0:
178,341,196373,2,0,P|200:342|221:335,1,45,2|0,0:0|0:0,0:0:0:0:
378,336,196526,2,0,L|437:342,1,45,10|0,0:0|0:0,0:0:0:0:
343,176,196680,2,0,L|336:266,1,90,2|0,0:0|3:2,0:0:0:0:
178,341,196988,2,0,L|171:251,1,90,2|8,3:2|0:0,0:0:0:0:
45,155,197296,6,0,L|188:168,1,135,6|0,3:2|0:0,0:0:0:0:
213,170,197604,1,2,3:2:0:0:
0,249,197757,2,0,L|89:242,1,90,10|0,0:0|0:0,0:0:0:0:
195,78,198065,2,0,L|150:81,1,45,2|0,3:2|0:0,0:0:0:0:
171,251,198219,2,0,L|216:254,1,45,2|0,0:0|0:0,0:0:0:0:
275,115,198372,1,8,0:0:0:0:
322,267,198526,5,2,0:0:0:0:
322,267,198603,1,2,0:0:0:0:
322,267,198680,2,0,P|321:245|328:224,1,45,2|0,3:2|0:0,0:0:0:0:
439,166,198834,2,0,P|419:176|404:193,1,45,2|0,0:0|0:0,0:0:0:0:
289,342,198988,2,0,P|298:362|315:378,1,45,8|0,0:0|0:0,0:0:0:0:
448,250,199142,2,0,B|460:207|460:207|439:167,1,90,2|0,0:0|3:2,0:0:0:0:
338,57,199449,1,2,0:0:0:0:
338,57,199526,1,8,0:0:0:0:
338,57,199603,1,8,0:0:0:0:
132,134,199757,6,0,B|137:190|137:190|151:209|151:209|155:265,1,135,6|0,3:2|0:0,0:0:0:0:
159,306,200065,1,2,3:2:0:0:
234,276,200218,1,10,0:0:0:0:
309,246,200372,1,2,0:0:0:0:
133,299,200526,5,2,3:2:0:0:
227,261,200679,1,2,0:0:0:0:
321,224,200833,1,10,0:0:0:0:
107,291,200988,5,2,0:0:0:0:
220,246,201141,1,2,3:2:0:0:
333,201,201295,1,2,0:0:0:0:
81,284,201449,5,10,0:0:0:0:
213,231,201602,1,2,0:0:0:0:
344,179,201756,1,2,3:2:0:0:
55,277,201911,5,2,3:2:0:0:
355,157,202065,2,0,B|398:145|398:145|438:166,1,90,14|0,0:0|3:2,0:0:0:0:
346,345,202372,5,14,0:0:0:0:
308,354,202448,1,8,3:0:0:0:
269,350,202525,1,8,3:0:0:0:
233,334,202602,1,8,3:0:0:0:
201,310,202679,1,8,3:0:0:0:
170,286,202756,1,8,3:0:0:0:
133,271,202833,1,12,0:0:0:0:
94,269,202910,1,8,3:0:0:0:
55,277,202988,6,0,L|62:348,1,45,8|8,3:0|3:0,0:0:0:0:
197,203,203142,2,0,L|201:158,1,45,8|8,3:0|3:0,0:0:0:0:
41,95,203295,1,10,3:2:0:0:
200,158,203449,2,0,B|171:110|195:35|271:25|271:25|285:75|285:75|220:98|149:41,1,360,6|0,3:2|0:0,0:0:0:0:
287,164,204834,1,14,0:0:0:0:
256,192,204911,12,0,209757,0:0:0:0:
