osu file format v14

[General]
AudioFilename: audio.mp3
AudioLeadIn: 0
PreviewTime: 112757
Countdown: 0
SampleSet: Soft
StackLeniency: 0.7
Mode: 0
LetterboxInBreaks: 0
WidescreenStoryboard: 1

[Editor]
Bookmarks: 10219,20065,30065,39911,49757,54911,55065,55219,55372,55603,55680,55911,56065,56219,56372,56526,56680,59449,69296,78065,84526,84680,84834,84988,85219,85372,85526,85680,85834,85988,86142,86296,86526,86680,86834,86988,87219,87372,87526,87680,87834,87988,94065,103911,109065,109219,109372,109526,109757,109911,110065,110219,110449,110603,110757,113603,116065,123449,133680,133988,134296,134526,134834,135065,135296,135526,135834,136219,136449,136680,136988,137219,137449,137757,137988,138219,138449,138680,138988,139219,139526,139757,139988,140296,140526,140757,140988,141296,141526,141757,141988,142296,142526,142757,153142,163372,163526,163680,163834,163988,164142,164296,164449,164603,164757,164911,165065,165219,165372,165526,165680,165834,165988,166142,166296,166449,166603,166757,175142,184988,194834
DistanceSpacing: 0.1
BeatDivisor: 4
GridSize: 16
TimelineZoom: 3.799999

[Metadata]
Title:LOUDER
TitleUnicode:LOUDER
Artist:Roselia
ArtistUnicode:Roselia
Creator:SkyFlame
Version:Mocacchi's INSANE
Source:バンドリ!ガールズバンドパーティ!
Tags:semifinals sf owc osu! world cup 2019 nm1 Event Garupa Bandori BanG Dream! ガルパ! Girls Band Party! Minato Yukina 湊友希那 Hikawa Sayo 氷川紗夜 Imai Lisa 今井リサ Udagawa Ako 宇田川あこ Shirogane Rinko 白金燐子 ロゼリア Aiba Aina 相羽あいな Akesaka Satomi 明坂聡美 Endou Yurika 遠藤ゆりか Kudou Haruka 工藤晴香 Sakuragawa Megu 桜川めぐ BLACK SHOUT Full ver. Version japanese video game female vocal Cynplytholowazy Hinsvar Mocaotic Ayucchi Amateurre newton- seolv [_L_u_k_a_s_] lukas
BeatmapID:2235977
BeatmapSetID:1040095

[Difficulty]
HPDrainRate:5
CircleSize:3.8
OverallDifficulty:8
ApproachRate:9
SliderMultiplier:1.7
SliderTickRate:1

[Events]
//Background and Video events
0,0,"bg.jpg",0,0
//Break Periods
2,54880,56234
2,84419,87772
2,109034,110388
2,133649,142388
2,164834,166542
//Storyboard Layer 0 (Background)
//Storyboard Layer 1 (Fail)
//Storyboard Layer 2 (Pass)
//Storyboard Layer 3 (Foreground)
//Storyboard Layer 4 (Overlay)
//Storyboard Sound Samples

[TimingPoints]
-704,307.692307692308,4,2,1,60,1,0
1757,-125,4,2,1,60,0,0
5449,-125,4,2,1,65,0,0
7911,-125,4,2,1,70,0,0
9142,-125,4,2,1,65,0,0
10219,-100,4,2,1,75,0,0
10449,-100,4,2,1,5,0,0
10526,-100,4,2,1,75,0,0
20296,-100,4,2,1,5,0,0
20372,-100,4,2,1,75,0,0
28680,-250,4,2,1,60,0,0
29449,-250,4,2,1,65,0,0
30065,-125,4,2,1,60,0,0
39911,-100,4,2,1,65,0,0
49757,-111.111111111111,4,2,1,60,0,0
54680,-111.111111111111,4,2,1,55,0,0
56834,-100,4,2,1,70,0,0
58372,-100,4,2,1,65,0,0
58988,-100,4,2,1,75,0,0
59372,-100,4,2,1,5,0,0
59449,-90.9090909090909,4,2,1,85,0,1
69219,-90.9090909090909,4,2,1,85,0,0
69296,-90.9090909090909,4,2,1,85,0,1
78065,-100,4,2,1,55,0,0
79296,-100,4,2,1,80,0,0
83757,-133.333333333333,4,2,1,80,0,0
84219,-133.333333333333,4,2,1,55,0,0
88372,-125,4,2,1,55,0,0
89142,-125,4,2,1,60,0,0
91603,-100,4,2,1,70,0,0
92680,-100,4,2,1,75,0,0
93757,-133.333333333333,4,2,1,75,0,0
94065,-100,4,2,1,80,0,0
98834,-100,4,2,1,76,0,0
103911,-100,4,2,1,70,0,0
108834,-100,4,2,1,50,0,0
110988,-100,4,2,1,70,0,0
111296,-100,4,2,1,75,0,0
112680,-100,4,2,1,78,0,0
113142,-100,4,2,1,82,0,0
113603,-90.9090909090909,4,2,1,85,0,1
123372,-100,4,2,1,85,0,0
123449,-90.9090909090909,4,2,1,85,0,1
132219,-100,4,2,1,60,0,0
133449,-100,4,2,1,50,0,0
142680,-125,4,2,1,50,0,0
142988,-125,4,2,1,60,0,0
143296,-125,4,2,1,65,0,0
151911,-111.111111111111,4,2,1,70,0,0
153142,-100,4,2,1,84,0,0
154372,-100,4,2,1,80,0,0
155603,-100,4,2,1,84,0,0
156834,-100,4,2,1,80,0,0
158065,-100,4,2,1,84,0,0
159296,-100,4,2,1,82,0,0
160526,-100,4,2,1,85,0,0
162834,-100,4,2,1,80,0,0
164526,-100,4,2,1,50,0,0
167142,-100,4,2,1,80,0,0
167680,-100,4,2,1,5,0,0
167757,-90.9090909090909,4,2,1,87,0,1
175065,-90.9090909090909,4,2,1,87,0,0
175142,-90.9090909090909,4,2,1,87,0,1
184988,-100,4,2,1,75,0,0
185219,-100,4,2,1,5,0,0
185296,-100,4,2,1,75,0,0
187680,-100,4,2,1,5,0,0
187757,-100,4,2,1,75,0,0
190142,-100,4,2,1,5,0,0
190219,-100,4,2,1,75,0,0
195065,-100,4,2,1,5,0,0
195142,-100,4,2,1,75,0,0
197526,-100,4,2,1,5,0,0
197603,-100,4,2,1,75,0,0
203449,-250,4,2,1,70,0,0
204834,-250,4,2,1,65,0,0
206065,-250,4,2,1,60,0,0
207296,-250,4,2,1,55,0,0
208526,-250,4,2,1,50,0,0
209757,-250,4,2,1,5,0,0

[Colours]
Combo1 : 153,67,160
Combo2 : 244,244,138
Combo3 : 108,179,242
Combo4 : 155,128,115
SliderBorder : 172,141,209

[HitObjects]
169,148,372,5,0,3:2:0:0:
169,148,449,1,0,3:2:0:0:
169,148,526,1,14,0:0:0:0:
256,192,603,12,0,1449,0:0:0:0:
271,252,1757,6,0,B|350:260|350:260|368:246|368:246|382:263|382:263|477:273,2,204,10|8|4,0:0|0:3|0:3,0:0:0:0:
159,318,2988,5,6,0:0:0:0:
256,192,3065,12,0,3911,0:0:0:0:
275,163,4065,6,0,B|267:155|263:151|260:148|199:143,2,34,0|0|10,3:2|3:2|0:0,0:0:0:0:
275,163,4372,6,0,B|254:227|254:227|265:308,2,136,0|8|8,0:3|0:3|0:3,0:0:0:0:
361,74,5296,1,4,0:3:0:0:
361,74,5372,1,4,0:3:0:0:
361,74,5449,6,0,P|319:61|273:70,1,68,4|0,3:2|0:0,0:0:0:0:
212,111,5757,2,0,P|170:124|124:115,1,68,2|0,3:2|0:0,0:0:0:0:
47,58,6065,2,0,L|37:152,1,68,2|0,3:2|0:0,0:0:0:0:
95,211,6372,2,0,L|105:305,1,68,2|0,3:2|0:0,0:0:0:0:
12,383,6680,6,0,P|58:360|102:372,1,68,2|0,3:2|0:0,0:0:0:0:
172,326,6988,2,0,P|218:349|262:337,1,68,2|0,3:2|0:0,0:0:0:0:
314,294,7296,1,2,3:2:0:0:
314,294,7449,1,0,0:0:0:0:
402,353,7603,1,2,3:2:0:0:
402,353,7757,1,0,0:0:0:0:
453,234,7911,5,14,0:0:0:0:
386,101,8219,2,0,L|433:110,3,34,10|8|8|8,0:0|0:0|0:0|0:0,0:0:0:0:
301,164,8526,2,0,L|254:173,3,34,10|8|8|8,0:0|0:0|0:0|0:0,0:0:0:0:
219,251,8834,1,10,0:0:0:0:
193,240,8911,1,8,0:0:0:0:
175,218,8988,1,8,0:0:0:0:
168,191,9065,1,8,0:0:0:0:
175,164,9142,5,10,0:0:0:0:
79,186,9296,1,2,0:0:0:0:
50,280,9449,1,2,0:0:0:0:
93,203,9603,5,2,0:0:0:0:
64,297,9757,1,2,0:0:0:0:
130,369,9910,1,2,0:0:0:0:
180,211,10065,1,2,0:0:0:0:
184,236,10142,1,2,0:0:0:0:
188,262,10219,6,0,B|237:227|237:227|348:243,1,170,6|0,3:2|3:2,0:0:0:0:
484,358,10680,2,0,L|473:253,1,85,10|0,0:0|3:2,0:0:0:0:
399,170,10988,1,2,3:2:0:0:
326,246,11142,1,2,3:2:0:0:
224,123,11296,2,0,L|329:112,1,85,8|2,0:0|0:0,0:0:0:0:
362,95,11526,1,2,0:0:0:0:
362,95,11603,6,0,L|467:84,1,85,2|2,3:2|0:0,0:0:0:0:
312,0,11911,1,10,0:0:0:0:
308,114,12065,2,0,L|320:212,1,85,2|0,0:0|3:2,0:0:0:0:
408,280,12372,1,2,3:2:0:0:
496,163,12526,1,8,0:0:0:0:
391,304,12680,6,0,B|346:275|346:275|218:288,1,170,6|2,3:2|3:2,0:0:0:0:
109,170,13142,2,0,L|202:178,1,85,10|0,0:0|0:0,0:0:0:0:
292,82,13449,1,2,3:2:0:0:
347,190,13603,1,2,3:2:0:0:
198,102,13757,2,0,P|202:54|224:17,1,85,8|2,0:0|0:0,0:0:0:0:
271,2,13988,1,2,0:0:0:0:
271,2,14065,6,0,B|298:24|298:24|378:37,1,85,2|2,3:2|0:0,0:0:0:0:
478,137,14372,2,0,P|416:164|363:156,1,85,10|2,0:0|0:0,0:0:0:0:
287,115,14680,1,0,3:2:0:0:
287,115,14834,1,2,3:2:0:0:
209,256,14988,1,10,0:0:0:0:
116,113,15142,6,0,B|82:153|82:153|93:283,1,170,6|2,3:2|3:2,0:0:0:0:
244,203,15603,2,0,P|201:181|142:191,1,85,10|2,0:0|0:0,0:0:0:0:
226,296,15911,2,0,P|274:293|322:256,1,85,2|2,3:2|0:0,0:0:0:0:
328,100,16219,2,0,L|333:224,1,85,10|2,0:0|0:0,0:0:0:0:
385,41,16526,5,2,3:2:0:0:
269,45,16680,1,2,0:0:0:0:
331,184,16834,2,0,L|431:172,1,85,10|2,0:0|0:2,0:0:0:0:
310,286,17142,2,0,L|210:274,1,85,2|2,3:2|3:2,0:0:0:0:
102,162,17449,1,10,0:0:0:0:
112,331,17603,6,0,L|101:157,1,170,6|2,3:2|3:2,0:0:0:0:
71,123,17988,1,0,3:2:0:0:
71,123,18065,2,0,B|100:133|100:133|170:126,1,85,10|2,0:0|3:2,0:0:0:0:
301,26,18372,1,10,0:0:0:0:
266,157,18526,1,0,3:2:0:0:
144,23,18680,2,0,P|72:15|36:36,1,85,14|2,0:0|0:0,0:0:0:0:
18,43,18911,1,8,0:0:0:0:
18,43,18988,6,0,L|28:163,1,85,2|8,3:2|0:0,0:0:0:0:
32,178,19219,1,8,3:2:0:0:
32,178,19296,1,8,3:2:0:0:
138,251,19449,2,0,L|132:315,2,42.5,8|8|10,0:0|0:0|0:0,0:0:0:0:
227,161,19757,1,10,0:0:0:0:
227,161,19834,1,10,0:0:0:0:
227,161,19911,1,10,0:0:0:0:
328,276,20065,6,0,B|305:217|305:217|361:106,1,170,14|2,0:0|3:2,0:0:0:0:
496,233,20526,2,0,L|401:223,1,85,10|0,0:0|0:0,0:0:0:0:
272,232,20834,1,2,3:2:0:0:
353,121,20988,1,2,0:0:0:0:
404,237,21142,2,0,P|393:276|413:326,1,85,8|2,0:0|0:0,0:0:0:0:
426,335,21372,1,2,0:0:0:0:
426,335,21449,6,0,B|397:322|397:322|313:335,1,85,2|2,3:2|0:0,0:0:0:0:
202,367,21757,1,10,0:0:0:0:
245,206,21911,2,0,L|258:296,1,85,2|0,0:0|3:2,0:0:0:0:
146,139,22219,2,0,L|133:229,1,85,2|8,3:2|0:0,0:0:0:0:
33,88,22526,6,0,B|75:123|75:123|193:103,1,170,6|2,3:2|3:2,0:0:0:0:
284,25,22988,2,0,L|302:119,1,85,10|0,0:0|0:0,0:0:0:0:
231,206,23296,1,2,3:2:0:0:
305,294,23449,1,2,0:0:0:0:
74,280,23603,2,0,P|126:260|189:277,1,85,8|2,0:0|0:0,0:0:0:0:
172,274,23834,1,2,0:0:0:0:
172,274,23911,6,0,B|162:312|162:312|181:362,1,85,2|2,3:2|0:0,0:0:0:0:
267,227,24219,1,8,0:0:0:0:
422,290,24372,2,0,L|328:305,1,85,2|0,0:0|3:2,0:0:0:0:
512,149,24680,1,2,0:0:0:0:
512,149,24757,1,8,0:0:0:0:
512,149,24834,1,8,0:0:0:0:
472,334,24988,6,0,B|429:292|429:292|444:156,1,170,6|2,3:2|3:2,0:0:0:0:
392,258,25449,2,0,P|336:262|291:288,1,85,10|2,0:0|0:0,0:0:0:0:
284,355,25757,1,2,3:2:0:0:
182,182,25911,6,0,P|238:186|283:212,1,85,2|10,0:0|0:0,0:0:0:0:
290,279,26219,1,2,0:0:0:0:
392,106,26372,6,0,P|336:110|291:136,1,85,2|2,3:2|0:0,0:0:0:0:
284,203,26680,1,10,0:0:0:0:
182,30,26834,6,0,P|238:34|283:60,1,85,2|2,0:0|3:2,0:0:0:0:
290,127,27142,1,2,3:2:0:0:
206,112,27296,1,14,0:0:0:0:
144,169,27449,1,0,3:2:0:0:
76,75,27603,5,14,0:0:0:0:
76,75,27680,1,8,3:0:0:0:
76,75,27757,2,0,L|123:85,3,42.5,8|8|8|8,3:0|3:0|3:0|3:0,0:0:0:0:
41,166,28065,2,0,L|-6:176,3,42.5,12|8|8|8,0:0|3:0|3:0|3:0,0:0:0:0:
120,217,28372,2,0,L|167:227,1,42.5,8|8,3:0|3:0,0:0:0:0:
85,308,28526,2,0,L|38:318,1,42.5,10|8,3:2|3:0,0:0:0:0:
178,354,28680,6,0,P|230:311|303:324,1,136,6|0,3:2|0:0,0:0:0:0:
387,376,29449,1,2,0:0:0:0:
373,265,29603,1,2,3:2:0:0:
373,265,29680,1,0,3:2:0:0:
373,265,29757,1,10,0:0:0:0:
468,233,29911,1,2,0:0:0:0:
285,191,30065,6,0,L|282:110,1,68,2|2,3:2|3:2,0:0:0:0:
355,41,30372,1,10,0:0:0:0:
371,47,30680,1,8,0:0:0:0:
388,53,30988,2,0,P|425:87|433:121,1,68,10|2,0:0|0:0,0:0:0:0:
380,200,31296,6,0,L|282:216,1,68,10|2,0:0|0:0,0:0:0:0:
234,131,31603,1,10,0:0:0:0:
220,116,31911,1,8,0:0:0:0:
157,46,32065,1,2,3:2:0:0:
157,46,32142,1,0,3:2:0:0:
157,46,32219,2,0,P|120:70|85:68,1,68,8|2,0:0|3:2,0:0:0:0:
48,172,32526,6,0,L|59:263,1,68,8|2,0:0|0:0,0:0:0:0:
153,301,32834,1,8,0:0:0:0:
169,306,33142,1,8,0:0:0:0:
185,311,33449,2,0,P|224:309|255:285,1,68,10|2,0:0|3:2,0:0:0:0:
332,221,33757,6,0,P|371:223|402:247,1,68,10|0,0:0|0:0,0:0:0:0:
490,185,34065,1,10,0:0:0:0:
426,109,34219,1,2,3:2:0:0:
426,109,34296,1,0,3:2:0:0:
426,109,34372,2,0,P|408:74|413:35,1,68,8|2,0:0|3:2,0:0:0:0:
247,67,34680,2,0,P|265:102|260:141,1,68,8|2,0:0|3:2,0:0:0:0:
139,184,34988,6,0,L|46:181,1,68,14|0,0:0|0:0,0:0:0:0:
55,71,35296,1,8,0:0:0:0:
64,56,35603,1,8,0:0:0:0:
73,41,35911,2,0,P|120:25|149:25,1,68,10|2,0:0|3:2,0:0:0:0:
234,80,36219,6,0,L|228:165,1,68,8|0,0:0|0:0,0:0:0:0:
137,207,36526,1,8,0:0:0:0:
121,214,36834,1,10,0:0:0:0:
69,316,36988,1,2,3:2:0:0:
69,316,37065,1,0,3:2:0:0:
69,316,37142,2,0,P|96:353|136:373,1,68,10|2,0:0|3:2,0:0:0:0:
222,376,37449,6,0,L|312:368,1,68,12|2,0:0|0:0,0:0:0:0:
346,273,37757,1,8,0:0:0:0:
362,278,38065,1,8,0:0:0:0:
378,283,38372,2,0,P|430:276|454:256,1,68,8|2,0:0|3:2,0:0:0:0:
473,161,38680,5,8,0:0:0:0:
378,283,38834,2,0,L|385:344,2,34,2|2|10,3:2|0:0|0:0,0:0:0:0:
300,162,39142,1,2,3:2:0:0:
209,259,39296,1,0,3:2:0:0:
209,259,39372,1,0,3:2:0:0:
209,259,39449,2,0,L|156:245,3,34,2|0|8|8,3:2|3:2|0:0|0:0,0:0:0:0:
83,237,39757,1,0,3:2:0:0:
57,268,39834,1,0,3:2:0:0:
50,308,39911,6,0,P|98:333|143:312,1,85,6|2,3:2|0:0,0:0:0:0:
222,160,40219,2,0,L|127:173,1,85,10|0,0:0|0:0,0:0:0:0:
282,229,40526,1,2,3:2:0:0:
281,90,40680,2,0,L|376:103,1,85,2|10,0:0|0:0,0:0:0:0:
233,10,40988,6,0,P|202:38|193:79,1,85,2|2,0:0|3:2,0:0:0:0:
222,160,41296,1,2,0:0:0:0:
63,45,41449,2,0,P|94:72|103:113,1,85,10|2,0:0|0:0,0:0:0:0:
24,177,41757,1,2,3:2:0:0:
140,291,41911,1,2,0:0:0:0:
56,255,42065,1,10,0:0:0:0:
204,214,42219,1,2,0:0:0:0:
286,333,42372,6,0,P|336:348|394:299,1,127.5,0|0,3:2|0:0,0:0:0:0:
402,287,42680,2,0,P|401:330|420:381,1,85,8|0,0:0|0:0,0:0:0:0:
464,220,42988,1,0,3:2:0:0:
322,255,43142,2,0,P|323:212|304:161,1,85,2|10,0:0|0:0,0:0:0:0:
140,100,43449,6,0,L|252:110,1,85,2|2,0:0|3:2,0:0:0:0:
308,84,43757,1,2,0:0:0:0:
395,179,43911,2,0,L|283:169,1,85,10|2,0:0|0:0,0:0:0:0:
473,144,44219,1,0,3:2:0:0:
404,261,44372,1,2,0:0:0:0:
308,84,44526,1,8,0:0:0:0:
180,248,44680,6,0,B|217:201|217:201|348:217,1,170,6|0,0:0|0:0,0:0:0:0:
395,179,45142,2,0,P|383:132|416:70,1,85,8|0,0:0|0:0,0:0:0:0:
466,44,45449,1,0,3:2:0:0:
305,2,45603,2,0,P|317:49|284:111,1,85,2|10,0:0|0:0,0:0:0:0:
209,209,45911,6,0,L|200:106,1,85,2|0,0:0|3:2,0:0:0:0:
231,43,46219,1,0,0:0:0:0:
120,25,46372,2,0,L|111:128,1,85,8|0,0:0|0:0,0:0:0:0:
20,83,46680,1,2,3:2:0:0:
201,124,46834,1,2,0:0:0:0:
69,197,46988,2,0,P|105:211|133:260,1,85,10|2,0:0|0:0,0:0:0:0:
0,346,47296,5,4,3:2:0:0:
57,279,47449,1,2,0:0:0:0:
212,320,47603,2,0,L|115:332,1,85,8|2,0:0|0:0,0:0:0:0:
270,374,47911,1,0,3:2:0:0:
195,232,48065,2,0,L|292:244,1,85,2|8,3:2|0:0,0:0:0:0:
119,198,48372,6,0,P|111:239|126:279,1,85,2|0,0:0|3:2,0:0:0:0:
186,136,48680,1,2,3:2:0:0:
33,182,48834,2,0,P|47:142|39:101,1,85,8|2,0:0|3:2,0:0:0:0:
26,87,49065,1,0,3:2:0:0:
26,87,49142,5,8,0:0:0:0:
96,20,49296,1,4,3:0:0:0:
186,28,49449,1,8,3:0:0:0:
226,111,49603,1,4,3:0:0:0:
328,29,49757,6,0,L|415:25,1,76.4999976654053,6|0,3:2|3:2,0:0:0:0:
442,13,50219,2,0,B|412:7|412:7|389:74|419:142,1,152.999995330811,14|0,0:0|0:0,0:0:0:0:
483,209,50680,6,0,P|492:258|483:297,1,76.4999976654053,0|0,3:2|3:2,0:0:0:0:
460,307,51142,2,0,B|409:288|409:288|311:359,1,152.999995330811,12|0,0:0|0:0,0:0:0:0:
233,380,51603,2,0,L|175:374,3,38.2499988327027,2|0|2|0,3:2|3:2|3:2|3:2,0:0:0:0:
175,355,51911,2,0,P|136:340|89:346,1,76.4999976654053,12|2,0:0|0:0,0:0:0:0:
13,254,52219,6,0,L|19:343,1,76.4999976654053,0|2,3:2|3:2,0:0:0:0:
33,358,52680,2,0,B|80:325|80:325|87:220,1,152.999995330811,14|2,0:0|0:0,0:0:0:0:
180,147,53142,6,0,P|138:134|94:138,1,76.4999976654053,0|2,3:2|3:2,0:0:0:0:
70,113,53603,1,4,3:2:0:0:
204,31,53757,1,8,0:0:0:0:
276,91,53911,1,0,3:2:0:0:
276,91,53988,1,0,3:2:0:0:
276,91,54065,5,8,0:0:0:0:
234,173,54219,1,8,3:0:0:0:
146,197,54372,1,4,3:0:0:0:
79,133,54526,1,4,3:0:0:0:
16,294,54680,5,6,0:0:0:0:
19,70,56834,5,8,0:0:0:0:
45,52,56910,1,4,3:0:0:0:
75,44,56987,1,4,3:0:0:0:
107,47,57064,1,4,3:0:0:0:
136,61,57142,6,0,L|131:171,1,85,14|0,0:0|0:0,0:0:0:0:
19,261,57449,1,10,0:0:0:0:
123,347,57603,1,10,0:0:0:0:
123,347,57680,1,8,0:0:0:0:
123,347,57757,2,0,L|199:337,3,42.5,8|8|10|8,0:0|0:0|0:0|0:0,0:0:0:0:
224,251,58065,2,0,L|300:261,3,42.5,10|8|10|8,0:0|0:0|0:0|0:0,0:0:0:0:
374,344,58372,5,14,0:0:0:0:
383,342,58988,6,0,L|391:282,1,42.5,2|0,0:0|0:0,0:0:0:0:
361,184,59142,1,2,0:0:0:0:
361,184,59449,6,0,B|312:222|312:222|180:209,1,187.000005706787,6|0,3:2|3:2,0:0:0:0:
85,93,59911,2,0,L|207:74,1,93.5000028533936,10|0,0:0|0:0,0:0:0:0:
232,247,60219,2,0,L|110:228,1,93.5000028533936,2|0,3:2|3:2,0:0:0:0:
51,179,60526,1,10,0:0:0:0:
31,322,60680,6,0,B|87:290|127:312|113:326|164:355|219:332,1,187.000005706787,2|0,0:0|0:0,0:0:0:0:
319,289,61142,2,0,P|332:340|310:388,1,93.5000028533936,8|0,0:0|0:0,0:0:0:0:
180,257,61449,1,2,3:2:0:0:
277,206,61603,2,0,P|326:199|384:221,1,93.5000028533936,2|8,3:2|0:0,0:0:0:0:
434,321,61911,6,0,P|403:257|460:163,1,187.000005706787,6|0,3:2|3:2,0:0:0:0:
359,101,62372,2,0,P|310:108|252:86,1,93.5000028533936,10|0,0:0|0:0,0:0:0:0:
440,69,62680,1,2,3:2:0:0:
457,164,62834,1,2,3:2:0:0:
509,6,62988,1,10,0:0:0:0:
359,101,63142,6,0,L|366:206,1,93.5000028533936,2|0,0:0|3:2,0:0:0:0:
497,272,63449,1,2,0:0:0:0:
317,274,63603,2,0,B|376:301|415:275|406:269|447:244|497:272,1,187.000005706787,8|0,0:0|3:2,0:0:0:0:
362,150,64065,1,10,0:0:0:0:
362,150,64142,1,8,0:0:0:0:
362,150,64219,1,10,0:0:0:0:
241,310,64372,6,0,B|217:265|248:224|248:224|258:167|200:130,1,187.000005706787,6|2,3:2|3:2,0:0:0:0:
72,195,64834,2,0,P|129:216|162:208,1,93.5000028533936,10|2,0:0|0:0,0:0:0:0:
266,81,65142,1,2,3:2:0:0:
147,41,65296,2,0,P|123:89|129:138,1,93.5000028533936,2|10,3:2|0:0,0:0:0:0:
245,197,65603,6,0,B|200:158|200:158|62:178,1,187.000005706787,2|2,3:2|3:2,0:0:0:0:
163,327,66065,2,0,P|179:284|167:231,1,93.5000028533936,10|2,0:0|0:0,0:0:0:0:
63,103,66372,1,2,3:2:0:0:
9,290,66526,2,0,L|145:271,1,93.5000028533936,2|10,3:2|0:0,0:0:0:0:
245,166,66834,6,0,P|157:128|169:46,1,187.000005706787,6|0,3:2|3:2,0:0:0:0:
197,29,67219,1,0,3:2:0:0:
197,29,67296,2,0,P|246:26|298:55,1,93.5000028533936,8|0,0:0|3:2,0:0:0:0:
349,151,67603,2,0,P|353:103|410:58,1,93.5000028533936,10|2,0:0|3:2,0:0:0:0:
423,185,67911,2,0,L|402:298,1,93.5000028533936,8|2,0:0|3:2,0:0:0:0:
265,217,68219,5,8,0:0:0:0:
398,313,68372,1,2,3:2:0:0:
447,168,68526,5,8,0:0:0:0:
311,316,68680,1,2,3:2:0:0:
157,182,68834,5,10,0:0:0:0:
229,301,68988,1,10,0:0:0:0:
229,301,69065,1,8,0:0:0:0:
229,301,69142,1,8,0:0:0:0:
343,141,69296,6,8,B|309:98|309:98|170:83,1,187.000005706787,6|0,3:2|3:2,0:0:0:0:
234,253,69757,2,0,P|267:191|251:144,1,93.5000028533936,10|0,0:0|0:0,0:0:0:0:
105,120,70065,2,0,L|116:257,1,93.5000028533936,2|0,3:2|3:2,0:0:0:0:
232,42,70372,1,10,0:0:0:0:
49,55,70526,6,0,B|141:13|156:76|238:39,1,187.000005706787,2|0,3:2|3:2,0:0:0:0:
401,108,70988,2,0,P|418:174|400:217,1,93.5000028533936,10|0,0:0|0:0,0:0:0:0:
246,159,71296,1,2,3:2:0:0:
345,28,71449,2,0,L|444:20,1,93.5000028533936,2|8,3:2|0:0,0:0:0:0:
512,239,71757,6,0,B|375:222|375:222|351:246|309:255,1,187.000005706787,6|0,3:2|3:2,0:0:0:0:
174,331,72219,2,0,L|165:211,1,93.5000028533936,10|0,0:0|0:0,0:0:0:0:
279,149,72526,1,2,3:2:0:0:
329,281,72680,1,2,3:2:0:0:
271,128,72834,1,10,0:0:0:0:
436,192,72988,6,0,P|456:231|442:297,1,93.5000028533936,2|0,0:0|3:2,0:0:0:0:
257,225,73296,1,2,0:0:0:0:
275,46,73449,2,0,B|239:147|239:147|257:225,1,187.000005706787,8|0,0:0|3:2,0:0:0:0:
421,203,73911,1,10,0:0:0:0:
421,203,73988,1,8,0:0:0:0:
421,203,74065,1,10,0:0:0:0:
228,318,74219,6,0,B|298:303|298:303|344:320|344:320|437:298,1,187.000005706787,6|2,3:2|3:2,0:0:0:0:
220,228,74680,2,0,P|212:273|257:346,1,93.5000028533936,10|2,0:0|0:0,0:0:0:0:
306,162,74988,1,2,3:2:0:0:
205,120,75142,1,2,0:0:0:0:
299,265,75296,1,10,0:0:0:0:
124,341,75449,6,0,B|180:375|180:375|303:349,1,187.000005706787,2|2,3:2|3:2,0:0:0:0:
197,196,75911,2,0,P|186:260|218:312,1,93.5000028533936,10|0,0:0|0:0,0:0:0:0:
297,250,76219,1,2,3:2:0:0:
297,250,76372,1,0,3:2:0:0:
138,116,76526,2,0,L|250:110,1,93.5000028533936,10|6,0:0|3:2,0:0:0:0:
49,44,76834,5,8,3:0:0:0:
49,72,76911,1,8,3:0:0:0:
49,100,76988,1,8,3:0:0:0:
49,127,77065,1,8,3:0:0:0:
49,155,77142,6,0,L|63:222,3,46.7500014266968,8|8|8|8,3:0|3:0|3:0|3:0,0:0:0:0:
193,240,77449,2,0,L|153:316,3,46.7500014266968,8|8|8|8,3:0|3:0|3:0|3:0,0:0:0:0:
106,357,77757,1,8,3:0:0:0:
61,366,77833,1,8,3:0:0:0:
19,346,77910,1,8,3:0:0:0:
0,305,77987,1,8,3:0:0:0:
9,260,78065,1,12,3:2:0:0:
299,271,79142,5,2,3:2:0:0:
299,271,79219,1,0,3:2:0:0:
299,271,79296,6,0,P|342:283|380:322,1,85,14|2,0:0|3:2,0:0:0:0:
438,376,79603,1,2,3:2:0:0:
511,204,79757,6,0,P|468:216|430:255,1,85,14|2,0:0|3:2,0:0:0:0:
372,309,80064,1,2,3:2:0:0:
299,137,80219,6,0,P|342:149|380:188,1,85,14|2,0:0|3:2,0:0:0:0:
438,242,80526,1,2,3:2:0:0:
487,41,80680,5,14,0:0:0:0:
430,97,80834,1,2,3:2:0:0:
508,119,80988,1,2,3:2:0:0:
312,17,81142,6,0,P|301:50|319:124,1,85,14|2,0:0|3:2,0:0:0:0:
178,205,81449,2,0,P|189:172|171:98,1,85,14|2,0:0|3:2,0:0:0:0:
5,167,81757,6,0,P|53:161|105:191,1,85,14|2,0:0|3:2,0:0:0:0:
19,337,82065,1,2,3:2:0:0:
177,156,82219,6,0,P|206:194|206:254,1,85,14|2,0:0|3:2,0:0:0:0:
36,253,82527,1,2,3:2:0:0:
272,299,82680,6,0,P|253:343|201:373,1,85,14|2,0:0|3:2,0:0:0:0:
118,225,82988,1,2,3:2:0:0:
228,191,83142,5,8,3:0:0:0:
228,191,83219,1,8,3:0:0:0:
228,191,83296,2,0,L|336:212,1,85,8|4,3:0|3:0,0:0:0:0:
337,383,83603,1,10,0:0:0:0:
487,298,83757,2,0,P|404:279|319:300,1,159.375006079674,6|0,3:2|0:0,0:0:0:0:
319,303,84219,5,6,0:0:0:0:
147,252,88372,6,0,L|151:302,2,34,8|8|8,3:0|3:0|3:0,0:0:0:0:
218,212,88680,1,8,3:0:0:0:
207,133,88834,1,4,3:0:0:0:
131,102,88988,1,4,3:0:0:0:
268,79,89142,6,0,B|308:70|340:80|317:95|374:104|421:72,1,136,6|2,3:2|3:2,0:0:0:0:
487,50,89603,1,0,0:0:0:0:
487,50,89757,2,0,P|495:83|466:139,1,68,2|0,3:2|0:0,0:0:0:0:
427,179,90065,1,2,3:2:0:0:
480,242,90219,1,0,0:0:0:0:
447,320,90372,6,0,B|402:293|402:293|301:314,1,136,2|2,3:2|3:2,0:0:0:0:
238,361,90834,1,0,0:0:0:0:
238,361,90988,2,0,L|221:270,1,68,2|0,3:2|0:0,0:0:0:0:
232,197,91296,2,0,P|189:213|115:184,1,102,2|0,3:2|0:0,0:0:0:0:
119,168,91603,6,0,P|123:226|114:281,1,85,12|2,0:0|3:2,0:0:0:0:
7,158,91911,1,2,3:2:0:0:
76,51,92065,1,10,0:0:0:0:
119,168,92219,2,0,L|210:153,1,85,2|2,3:2|3:2,0:0:0:0:
349,73,92526,2,0,L|258:58,1,85,8|2,0:0|3:2,0:0:0:0:
385,151,92834,5,12,0:0:0:0:
477,132,92988,1,10,0:0:0:0:
313,210,93142,5,8,0:0:0:0:
449,214,93296,1,10,0:0:0:0:
306,298,93449,6,0,P|274:317|219:327,1,85,8|10,0:0|3:2,0:0:0:0:
90,304,93757,6,0,P|108:273|119:321,1,95.6250036478044,8|0,0:0|0:0,0:0:0:0:
90,304,94065,6,0,L|97:189,1,85,12|0,3:2|3:2,0:0:0:0:
15,134,94372,1,0,3:2:0:0:
170,49,94526,6,0,L|177:164,1,85,12|0,0:0|3:2,0:0:0:0:
95,219,94833,1,2,3:2:0:0:
250,303,94988,6,0,L|257:188,1,85,14|2,0:0|3:2,0:0:0:0:
175,133,95295,1,2,3:2:0:0:
330,48,95449,6,0,L|337:163,1,85,14|2,0:0|3:2,0:0:0:0:
255,218,95756,1,2,3:2:0:0:
410,302,95911,6,0,L|417:187,1,85,14|0,0:0|3:2,0:0:0:0:
490,47,96219,2,0,L|497:162,1,85,14|2,0:0|3:2,0:0:0:0:
333,223,96526,6,0,P|383:210|434:227,1,85,12|2,0:0|3:2,0:0:0:0:
327,314,96834,1,0,3:2:0:0:
178,257,96988,6,0,P|228:270|279:253,1,85,12|0,0:0|3:2,0:0:0:0:
172,166,97296,1,2,3:2:0:0:
23,223,97449,6,0,P|73:210|124:227,1,85,12|2,0:0|3:2,0:0:0:0:
17,314,97757,1,2,3:2:0:0:
26,138,97911,6,0,L|21:249,1,85,14|2,0:0|3:2,0:0:0:0:
125,326,98219,1,2,3:2:0:0:
281,209,98372,6,0,P|205:214|174:241,1,85,12|2,0:0|3:2,0:0:0:0:
345,335,98680,1,12,0:0:0:0:
443,142,98834,6,0,P|463:198|420:331,1,170,6|0,3:2|3:2,0:0:0:0:
358,145,99296,2,0,L|461:141,1,85,8|0,0:0|0:0,0:0:0:0:
340,286,99603,2,0,L|237:282,1,85,0|2,3:2|3:2,0:0:0:0:
160,125,99911,1,10,0:0:0:0:
76,257,100065,1,2,0:0:0:0:
257,202,100219,6,0,P|263:145|244:90,1,85,0|0,3:2|0:0,0:0:0:0:
95,47,100526,2,0,L|184:41,1,85,8|0,0:0|0:0,0:0:0:0:
90,178,100834,1,2,3:2:0:0:
3,58,100988,1,2,3:2:0:0:
105,193,101142,1,10,0:0:0:0:
263,38,101296,6,0,P|244:87|279:200,1,170,6|2,3:2|3:2,0:0:0:0:
452,297,101757,2,0,P|457:242|446:192,1,85,10|2,0:0|3:2,0:0:0:0:
314,375,102065,2,0,P|304:320|310:269,1,85,8|2,0:0|3:2,0:0:0:0:
160,290,102372,2,0,P|165:235|154:185,1,85,8|2,0:0|3:2,0:0:0:0:
321,61,102680,6,0,P|316:116|327:166,1,85,8|2,0:0|3:2,0:0:0:0:
120,90,102988,2,0,P|175:95|225:84,1,85,8|2,0:0|3:2,0:0:0:0:
355,212,103296,1,8,0:0:0:0:
362,242,103372,1,8,0:0:0:0:
361,274,103449,1,2,3:2:0:0:
353,305,103526,1,0,3:2:0:0:
336,332,103603,2,0,L|262:344,3,42.5,8|0|2|0,3:2|3:2|3:2|3:2,0:0:0:0:
440,347,103911,6,0,P|446:300|440:246,1,85,12|0,0:0|3:2,0:0:0:0:
348,82,104219,2,0,P|342:129|348:183,1,85,8|0,0:0|3:2,0:0:0:0:
512,229,104526,2,0,P|469:187|434:185,1,85,8|0,0:0|3:2,0:0:0:0:
391,294,104834,1,10,0:0:0:0:
310,159,104988,1,0,3:2:0:0:
257,328,105142,5,10,0:0:0:0:
318,169,105296,1,0,3:2:0:0:
185,256,105449,2,0,P|142:255|101:246,1,85,8|0,0:0|3:2,0:0:0:0:
22,79,105757,2,0,P|64:79|105:88,1,85,8|0,0:0|3:2,0:0:0:0:
142,294,106065,1,10,0:0:0:0:
35,186,106219,1,2,3:2:0:0:
35,186,106296,1,0,3:2:0:0:
35,186,106372,6,0,P|20:243|17:269,1,85,14|2,0:0|3:2,0:0:0:0:
210,351,106680,2,0,P|225:294|228:268,1,85,8|2,0:0|3:2,0:0:0:0:
124,144,106988,1,8,0:0:0:0:
275,80,107142,1,2,3:2:0:0:
138,145,107296,1,8,0:0:0:0:
302,203,107449,1,2,3:2:0:0:
386,62,107603,6,0,P|385:121|391:151,1,85,10|0,0:0|3:2,0:0:0:0:
489,284,107911,2,0,P|490:225|484:195,1,85,8|0,0:0|3:2,0:0:0:0:
352,285,108219,6,0,L|360:371,2,56.6666666666667,8|8|8,0:0|0:0|0:0,0:0:0:0:
269,232,108526,6,0,L|274:175,2,56.6666666666667,4|4|4,3:0|3:0|3:0,0:0:0:0:
195,287,108834,5,6,3:2:0:0:
368,99,110988,5,14,0:0:0:0:
365,109,111065,1,4,3:0:0:0:
360,118,111142,1,4,3:0:0:0:
356,127,111219,1,4,3:0:0:0:
352,136,111296,6,0,P|284:151|243:147,1,85,14|0,0:0|3:2,0:0:0:0:
132,15,111603,1,10,0:0:0:0:
69,153,111757,1,2,3:2:0:0:
252,224,111911,1,8,0:0:0:0:
153,98,112065,1,2,3:2:0:0:
34,282,112219,2,0,L|118:272,1,85,10|2,0:0|3:2,0:0:0:0:
252,148,112526,5,8,3:2:0:0:
93,56,112680,1,8,0:0:0:0:
93,56,112757,1,8,0:0:0:0:
93,56,112834,2,0,L|104:119,3,42.5,10|8|8|8,0:0|0:0|0:0|0:0,0:0:0:0:
160,169,113142,2,0,L|148:231,1,42.5,10|8,0:0|0:0,0:0:0:0:
55,261,113296,1,10,0:0:0:0:
55,261,113372,1,8,0:0:0:0:
55,261,113449,2,0,L|2:260,1,42.5,8|8,0:0|0:0,0:0:0:0:
80,361,113603,6,0,B|120:310|120:310|178:299|245:370,1,187.000005706787,6|0,3:2|3:2,0:0:0:0:
380,258,114065,2,0,P|343:303|343:354,1,93.5000028533936,10|0,0:0|0:0,0:0:0:0:
497,301,114372,2,0,L|491:186,1,93.5000028533936,2|0,3:2|3:2,0:0:0:0:
347,110,114680,1,10,0:0:0:0:
512,70,114834,6,0,B|467:120|467:120|323:108,1,187.000005706787,2|0,3:2|3:2,0:0:0:0:
206,0,115296,2,0,L|213:112,1,93.5000028533936,8|0,0:0|0:0,0:0:0:0:
362,33,115603,1,2,3:2:0:0:
318,193,115757,2,0,L|203:187,1,93.5000028533936,2|8,3:2|0:0,0:0:0:0:
48,54,116065,6,0,B|93:104|93:104|237:92,1,187.000005706787,6|0,3:2|3:2,0:0:0:0:
397,193,116526,2,0,P|412:137|396:83,1,93.5000028533936,10|0,0:0|3:2,0:0:0:0:
381,61,116757,1,0,3:2:0:0:
381,61,116834,2,0,L|284:59,1,93.5000028533936,0|2,3:2|3:2,0:0:0:0:
189,187,117142,1,8,0:0:0:0:
94,36,117296,6,0,L|103:149,1,93.5000028533936,2|0,0:0|3:2,0:0:0:0:
31,261,117603,1,2,0:0:0:0:
211,245,117757,2,0,B|132:289|111:211|31:261,1,187.000005706787,8|0,0:0|3:2,0:0:0:0:
204,135,118219,1,10,0:0:0:0:
204,135,118296,1,8,0:0:0:0:
204,135,118372,1,8,0:0:0:0:
323,326,118526,6,0,B|279:345|279:345|226:286|280:197,1,187.000005706787,6|2,3:2|3:2,0:0:0:0:
444,138,118988,2,0,P|391:155|331:133,1,93.5000028533936,10|2,0:0|0:0,0:0:0:0:
261,22,119296,1,2,3:2:0:0:
199,147,119449,1,2,0:0:0:0:
269,0,119603,1,10,0:0:0:0:
453,68,119757,6,0,B|472:129|472:129|464:269,1,187.000005706787,2|2,0:0|0:0,0:0:0:0:
342,116,120219,1,10,0:0:0:0:
256,266,120372,1,2,0:0:0:0:
256,266,120526,2,0,P|303:278|353:264,1,93.5000028533936,2|2,3:2|3:2,0:0:0:0:
246,114,120834,1,8,0:0:0:0:
199,338,120988,6,0,B|156:369|156:369|25:317,1,187.000005706787,6|0,3:2|3:2,0:0:0:0:
0,304,121372,1,0,3:2:0:0:
0,304,121449,2,0,P|-8:247|17:190,1,93.5000028533936,8|0,0:0|3:2,0:0:0:0:
176,93,121757,2,0,P|198:145|189:207,1,93.5000028533936,10|2,0:0|3:2,0:0:0:0:
32,320,122065,2,0,P|24:263|49:206,1,93.5000028533936,8|2,0:0|3:2,0:0:0:0:
208,109,122372,5,8,0:0:0:0:
250,275,122526,1,2,3:2:0:0:
369,137,122680,5,8,0:0:0:0:
225,110,122834,1,2,3:2:0:0:
328,269,122988,5,8,0:0:0:0:
375,161,123142,1,10,0:0:0:0:
375,161,123219,1,8,0:0:0:0:
375,161,123296,1,8,0:0:0:0:
486,318,123449,6,0,P|416:265|309:315,1,187.000005706787,6|0,3:2|3:2,0:0:0:0:
195,338,123911,2,0,P|234:372|288:380,1,93.5000028533936,10|0,0:0|0:0,0:0:0:0:
204,212,124219,2,0,P|152:215|108:248,1,93.5000028533936,2|0,3:2|3:2,0:0:0:0:
59,350,124526,1,10,0:0:0:0:
4,155,124680,6,0,B|53:190|53:190|185:166,1,187.000005706787,2|0,3:2|3:2,0:0:0:0:
293,73,125142,2,0,P|319:120|319:172,1,93.5000028533936,8|0,0:0|0:0,0:0:0:0:
228,270,125449,1,2,3:2:0:0:
395,217,125603,2,0,L|508:228,1,93.5000028533936,2|8,3:2|0:0,0:0:0:0:
447,84,125911,6,0,L|261:107,1,187.000005706787,6|0,3:2|3:2,0:0:0:0:
98,38,126372,2,0,L|91:155,1,93.5000028533936,10|0,0:0|0:0,0:0:0:0:
205,243,126680,1,2,3:2:0:0:
92,148,126834,1,2,3:2:0:0:
160,346,126988,1,10,0:0:0:0:
20,261,127142,6,0,P|76:247|134:259,1,93.5000028533936,2|0,0:0|3:2,0:0:0:0:
232,335,127449,1,2,3:2:0:0:
221,163,127603,2,0,B|194:281|194:281|232:335,1,187.000005706787,8|0,0:0|3:2,0:0:0:0:
369,225,128065,1,10,0:0:0:0:
369,225,128142,1,8,0:0:0:0:
369,225,128219,1,8,0:0:0:0:
294,45,128372,6,0,B|222:45|222:45|191:61|191:61|103:64,1,187.000005706787,6|2,3:2|3:2,0:0:0:0:
251,218,128834,2,0,P|266:164|240:116,1,93.5000028533936,10|0,0:0|0:0,0:0:0:0:
112,180,129142,1,2,3:2:0:0:
196,282,129296,1,2,0:0:0:0:
101,166,129449,1,10,0:0:0:0:
96,334,129603,6,0,P|173:323|277:358,1,187.000005706787,2|2,0:0|0:0,0:0:0:0:
434,266,130065,2,0,P|369:270|332:300,1,93.5000028533936,10|2,0:0|0:0,0:0:0:0:
499,329,130372,1,2,3:2:0:0:
499,329,130526,1,2,3:2:0:0:
357,376,130680,2,0,L|250:362,1,93.5000028533936,10|6,0:0|3:2,0:0:0:0:
127,377,130988,5,8,3:0:0:0:
127,349,131065,1,8,3:0:0:0:
127,321,131142,1,8,3:0:0:0:
127,294,131219,1,8,3:0:0:0:
127,266,131296,6,0,L|141:199,3,46.7500014266968,8|8|8|8,3:0|3:0|3:0|3:0,0:0:0:0:
266,182,131603,2,0,L|226:106,3,46.7500014266968,8|8|8|8,3:0|3:0|3:0|3:0,0:0:0:0:
167,70,131911,1,8,3:0:0:0:
121,65,131987,1,8,3:0:0:0:
80,87,132064,1,8,3:0:0:0:
58,127,132141,1,8,3:0:0:0:
62,173,132218,1,12,3:2:0:0:
62,173,133296,6,0,L|57:218,1,42.5,2|0,0:0|0:0,0:0:0:0:
45,303,133449,1,6,0:0:0:0:
328,126,142988,5,2,0:0:0:0:
423,88,143142,1,10,3:0:0:0:
423,88,143219,1,8,3:0:0:0:
423,88,143296,6,0,B|428:151|428:151|425:168|425:168|431:245,1,136,14|10,0:0|3:0,0:0:0:0:
465,318,143757,2,0,L|510:327,2,34,10|8|4,3:0|3:0|3:0,0:0:0:0:
371,356,144065,1,10,3:0:0:0:
371,356,144219,2,0,P|331:347|296:364,1,68,6|8,3:0|3:0,0:0:0:0:
221,308,144526,5,6,3:0:0:0:
221,308,144680,2,0,L|217:215,1,68,10|4,3:0|3:0,0:0:0:0:
251,142,144988,2,0,L|293:141,2,34,6|4|6,3:0|3:0|3:0,0:0:0:0:
154,122,145296,1,8,3:0:0:0:
154,122,145449,2,0,P|147:170|161:206,1,68,6|8,3:0|3:0,0:0:0:0:
170,228,145680,1,8,3:0:0:0:
170,228,145757,6,0,B|222:221|222:221|252:246|252:246|324:239,1,136,6|6,3:0|3:0,0:0:0:0:
399,239,146219,2,0,L|409:293,2,34,10|8|4,3:0|3:0|3:0,0:0:0:0:
360,149,146526,1,10,3:0:0:0:
360,149,146680,2,0,P|316:149|283:165,1,68,6|8,3:0|3:0,0:0:0:0:
195,155,146988,5,6,3:0:0:0:
195,155,147142,2,0,P|188:117|215:68,1,68,6|8,3:0|3:0,0:0:0:0:
256,6,147449,2,0,L|300:0,2,34,10|8|4,3:0|3:0|3:0,0:0:0:0:
153,16,147757,1,8,3:0:0:0:
197,138,147911,2,0,L|282:143,1,68,6|0,3:2|3:0,0:0:0:0:
373,37,148219,6,0,B|316:43|316:43|294:55|294:55|239:59,1,136,6|4,3:2|3:0,0:0:0:0:
146,18,148680,2,0,L|83:10,2,34,10|8|4,3:0|3:0|3:0,0:0:0:0:
157,124,148988,1,8,3:0:0:0:
157,124,149142,2,0,P|165:174|150:212,1,68,6|8,3:0|3:0,0:0:0:0:
114,281,149449,5,4,3:0:0:0:
122,289,149757,1,4,3:0:0:0:
215,331,149911,2,0,L|216:378,2,34,4|4|4,3:0|3:0|3:0,0:0:0:0:
289,260,150219,1,4,3:0:0:0:
289,260,150372,2,0,P|320:245|364:261,1,68,6|4,3:0|3:0,0:0:0:0:
461,340,150680,6,0,B|465:288|465:288|482:265|482:265|485:197,1,136,6|4,3:2|3:0,0:0:0:0:
496,107,151142,2,0,L|493:65,2,34,6|4|4,3:0|3:0|3:0,0:0:0:0:
405,150,151449,1,4,3:0:0:0:
405,150,151603,2,0,L|312:140,1,68,6|4,3:0|3:0,0:0:0:0:
189,20,151911,6,0,L|197:123,1,76.4999976654053,12|0,0:0|3:2,0:0:0:0:
265,289,152219,2,0,L|273:186,1,76.4999976654053,10|0,0:0|3:2,0:0:0:0:
442,216,152526,1,10,0:0:0:0:
460,241,152602,1,8,0:0:0:0:
469,271,152679,1,8,0:0:0:0:
468,302,152756,1,8,0:0:0:0:
460,335,152834,2,0,L|388:348,3,38.2499988327027,10|8|10|8,0:0|0:0|0:0|0:0,0:0:0:0:
295,361,153142,6,0,L|186:330,1,85,14|0,0:0|3:2,0:0:0:0:
109,360,153449,1,0,3:2:0:0:
275,254,153603,6,0,L|166:223,1,85,10|0,0:0|3:2,0:0:0:0:
89,253,153910,1,0,3:2:0:0:
255,147,154065,6,0,L|146:116,1,85,10|0,0:0|3:2,0:0:0:0:
69,146,154372,1,2,3:2:0:0:
299,67,154526,6,0,P|333:95|347:136,1,85,12|0,0:0|3:2,0:0:0:0:
317,216,154834,1,2,3:2:0:0:
173,123,154988,6,0,L|255:147,1,85,8|0,0:0|3:2,0:0:0:0:
398,192,155296,2,0,L|317:216,1,85,10|0,0:0|3:2,0:0:0:0:
426,115,155603,6,0,P|477:161|474:207,1,85,14|0,0:0|3:2,0:0:0:0:
437,272,155911,1,0,3:2:0:0:
332,127,156065,6,0,P|346:59|387:39,1,85,10|0,0:0|3:2,0:0:0:0:
462,38,156373,1,0,3:2:0:0:
390,203,156526,6,0,P|324:224|286:198,1,85,14|0,0:0|3:2,0:0:0:0:
248,134,156834,1,2,3:2:0:0:
198,330,156988,6,0,L|309:315,1,85,12|0,0:0|3:2,0:0:0:0:
312,220,157296,1,2,3:2:0:0:
133,278,157449,6,0,P|114:327|124:366,1,85,8|0,0:0|3:2,0:0:0:0:
30,266,157757,2,0,P|49:217|39:178,1,85,10|0,0:0|3:2,0:0:0:0:
20,43,158065,6,0,L|128:58,1,85,14|0,0:0|0:0,0:0:0:0:
226,171,158372,2,0,L|118:186,1,85,8|2,0:0|0:0,0:0:0:0:
220,76,158680,1,0,3:2:0:0:
220,76,158834,1,0,3:2:0:0:
83,241,158988,2,0,P|58:178|66:140,1,85,10|0,0:0|0:0,0:0:0:0:
226,171,159296,6,0,P|279:188|301:218,1,85,2|0,3:2|0:0,0:0:0:0:
361,308,159603,2,0,P|390:278|431:269,1,85,8|2,0:0|0:0,0:0:0:0:
439,362,159911,1,0,3:2:0:0:
439,362,160065,1,0,3:2:0:0:
377,196,160219,2,0,L|361:91,1,85,8|0,0:0|3:2,0:0:0:0:
206,148,160526,6,0,P|168:203|210:276,1,127.5,6|0,0:0|0:0,0:0:0:0:
200,273,160834,2,0,L|254:280,3,42.5,10|0|0|0,0:0|3:2|3:2|3:2,0:0:0:0:
150,350,161142,2,0,L|96:357,3,42.5,10|0|0|0,0:0|3:2|3:2|3:2,0:0:0:0:
310,344,161449,1,10,0:0:0:0:
326,339,161526,1,0,3:2:0:0:
342,334,161603,1,0,3:2:0:0:
358,329,161680,1,0,3:2:0:0:
374,324,161757,6,0,L|369:266,3,42.5,10|0|0|0,0:0|3:2|3:2|3:2,0:0:0:0:
459,213,162065,2,0,L|464:271,3,42.5,10|0|0|0,0:0|3:2|3:2|3:2,0:0:0:0:
355,188,162372,6,0,P|350:159|368:126,1,42.5,10|0,0:0|0:0,0:0:0:0:
472,97,162526,2,0,P|449:115|411:116,1,42.5,10|0,0:0|0:0,0:0:0:0:
335,42,162680,2,0,P|362:52|382:84,1,42.5,10|0,0:0|0:0,0:0:0:0:
266,192,162834,5,14,0:0:0:0:
343,126,167142,5,0,3:2:0:0:
343,126,167219,1,0,3:2:0:0:
343,126,167296,2,0,L|347:192,1,42.5,14|0,0:0|0:0,0:0:0:0:
353,313,167449,1,2,0:0:0:0:
353,313,167757,6,0,B|324:294|304:271|304:271|255:314|165:310,1,187.000005706787,6|0,3:2|3:2,0:0:0:0:
46,142,168218,2,0,P|94:134|149:161,1,93.5000028533936,10|0,0:0|0:0,0:0:0:0:
249,83,168526,1,2,3:2:0:0:
290,228,168680,1,2,3:2:0:0:
382,61,168834,1,10,0:0:0:0:
459,243,168988,6,0,L|346:234,1,93.5000028533936,2|0,0:0|3:2,0:0:0:0:
261,108,169295,1,2,0:0:0:0:
259,284,169449,2,0,B|306:211|210:197|262:105,1,187.000005706787,8|0,0:0|3:2,0:0:0:0:
176,325,169911,1,10,0:0:0:0:
176,325,169988,1,8,0:0:0:0:
176,325,170064,1,10,0:0:0:0:
26,162,170218,6,0,P|96:157|158:278,1,187.000005706787,6|2,3:2|3:2,0:0:0:0:
327,356,170680,2,0,P|336:300|386:261,1,93.5000028533936,10|2,0:0|0:0,0:0:0:0:
501,252,170988,1,2,3:2:0:0:
363,168,171141,1,2,0:0:0:0:
512,260,171295,1,10,0:0:0:0:
318,356,171449,6,0,B|356:319|356:319|507:337,1,187.000005706787,2|2,3:2|3:2,0:0:0:0:
400,151,171911,1,10,0:0:0:0:
268,281,172064,1,2,0:0:0:0:
268,281,172218,2,0,P|219:292|168:272,1,93.5000028533936,2|2,3:2|3:2,0:0:0:0:
313,128,172526,1,10,0:0:0:0:
102,14,172680,6,0,B|97:76|97:76|117:141|117:141|107:203,1,187.000005706787,6|0,3:2|3:2,0:0:0:0:
97,241,173064,1,0,3:2:0:0:
97,241,173142,2,0,P|33:258|-13:233,1,93.5000028533936,8|0,0:0|3:2,0:0:0:0:
235,222,173449,2,0,P|282:268|283:321,1,93.5000028533936,10|2,0:0|3:2,0:0:0:0:
149,111,173757,2,0,P|165:46|210:19,1,93.5000028533936,8|2,0:0|3:2,0:0:0:0:
375,179,174064,5,8,0:0:0:0:
261,114,174219,1,2,3:2:0:0:
261,114,174296,1,0,3:2:0:0:
261,114,174372,1,8,2:0:0:0:
276,260,174526,6,0,L|281:187,1,46.7500014266968,2|0,3:2|3:2,0:0:0:0:
320,44,174680,1,10,2:0:0:0:
345,24,174756,1,8,0:0:0:0:
375,11,174833,1,10,0:0:0:0:
407,8,174911,1,8,0:0:0:0:
439,13,174987,1,8,0:0:0:0:
469,26,175065,1,8,0:0:0:0:
497,45,175142,6,0,L|472:234,1,187.000005706787,6|0,3:2|3:2,0:0:0:0:
252,152,175603,2,0,P|316:131|361:142,1,93.5000028533936,10|0,0:0|0:0,0:0:0:0:
481,244,175911,2,0,P|417:265|372:254,1,93.5000028533936,2|0,3:2|3:2,0:0:0:0:
348,117,176219,1,10,0:0:0:0:
439,355,176372,6,0,B|361:360|361:360|332:334|332:334|234:340,1,187.000005706787,2|0,3:2|3:2,0:0:0:0:
138,253,176834,2,0,L|254:247,1,93.5000028533936,10|0,0:0|0:0,0:0:0:0:
133,369,177142,1,2,3:2:0:0:
294,303,177296,2,0,P|313:263|294:198,1,93.5000028533936,2|8,3:2|0:0,0:0:0:0:
70,126,177603,6,0,B|89:182|67:227|60:206|43:247|70:326,1,187.000005706787,6|0,3:2|3:2,0:0:0:0:
170,134,178065,2,0,L|293:153,1,93.5000028533936,10|0,0:0|0:0,0:0:0:0:
138,253,178372,1,2,3:2:0:0:
269,159,178526,1,2,3:2:0:0:
219,334,178680,1,10,0:0:0:0:
365,239,178834,6,0,L|242:258,1,93.5000028533936,2|0,0:0|3:2,0:0:0:0:
420,315,179142,1,2,0:0:0:0:
407,156,179296,2,0,P|455:232|420:315,1,187.000005706787,8|0,0:0|3:2,0:0:0:0:
233,251,179757,1,10,0:0:0:0:
233,251,179834,1,8,0:0:0:0:
233,251,179911,1,10,0:0:0:0:
296,23,180065,6,0,B|283:85|283:85|320:204,1,187.000005706787,6|2,3:2|3:2,0:0:0:0:
464,94,180526,2,0,P|421:74|349:84,1,93.5000028533936,10|2,0:0|0:0,0:0:0:0:
207,144,180834,1,2,3:2:0:0:
331,212,180988,1,2,0:0:0:0:
196,137,181142,1,10,0:0:0:0:
354,74,181296,6,0,B|279:74|279:74|257:53|257:53|171:54,1,187.000005706787,2|2,3:2|3:2,0:0:0:0:
71,171,181757,2,0,L|193:170,1,93.5000028533936,10|0,0:0|0:0,0:0:0:0:
94,31,182065,1,2,3:2:0:0:
94,31,182219,1,0,3:2:0:0:
0,127,182372,2,0,P|-9:182|14:246,1,93.5000028533936,10|6,0:0|3:2,0:0:0:0:
115,298,182680,5,8,3:0:0:0:
138,281,182757,1,8,3:0:0:0:
165,275,182834,1,8,3:0:0:0:
192,278,182911,1,8,3:0:0:0:
216,290,182988,6,0,P|245:293|267:285,3,46.7500014266968,8|8|8|8,3:0|3:0|3:0|3:0,0:0:0:0:
316,208,183296,2,0,P|345:205|367:213,3,46.7500014266968,8|8|8|8,3:0|3:0|3:0|3:0,0:0:0:0:
419,285,183603,1,8,3:0:0:0:
464,278,183679,1,8,3:0:0:0:
499,248,183756,1,8,3:0:0:0:
512,204,183833,1,8,3:0:0:0:
498,160,183910,1,12,3:2:0:0:
180,46,184526,5,2,0:0:0:0:
180,46,184603,1,2,0:0:0:0:
180,46,184680,1,2,0:0:0:0:
180,46,184757,1,2,0:0:0:0:
180,46,184834,2,0,L|237:52,1,46.7500014266968,10|10,0:0|0:0,0:0:0:0:
334,45,184988,6,0,B|300:88|300:88|328:212,1,170,6|0,3:2|3:2,0:0:0:0:
468,265,185449,2,0,P|479:213|460:160,1,85,10|0,0:0|3:2,0:0:0:0:
391,109,185757,1,2,3:2:0:0:
313,210,185911,2,0,L|228:219,1,85,2|8,3:2|0:0,0:0:0:0:
328,322,186219,1,2,0:0:0:0:
328,322,186296,1,2,0:0:0:0:
328,322,186372,6,0,L|431:333,1,85,2|2,3:2|0:0,0:0:0:0:
396,216,186680,1,10,0:0:0:0:
256,274,186834,2,0,P|242:319|255:368,1,85,2|2,0:0|3:2,0:0:0:0:
150,258,187142,2,0,P|164:213|151:164,1,85,2|8,3:2|0:0,0:0:0:0:
130,161,187372,1,8,0:0:0:0:
130,161,187449,6,0,B|162:115|162:115|300:117,1,170,6|2,3:2|3:2,0:0:0:0:
414,171,187911,2,0,P|428:119|411:55,1,85,10|0,0:0|0:0,0:0:0:0:
332,33,188219,1,2,3:2:0:0:
235,87,188372,2,0,L|127:88,1,85,2|8,3:2|0:0,0:0:0:0:
218,217,188680,1,2,0:0:0:0:
218,217,188757,1,2,0:0:0:0:
218,217,188834,6,0,L|309:224,1,85,2|2,3:2|0:0,0:0:0:0:
286,337,189142,1,10,0:0:0:0:
141,268,189296,2,0,P|125:222|136:169,1,85,2|0,0:0|3:2,0:0:0:0:
222,105,189603,1,2,3:2:0:0:
222,105,189680,1,8,0:0:0:0:
222,105,189757,1,10,0:0:0:0:
65,93,189911,6,0,P|37:173|45:278,1,170,6|2,3:2|3:2,0:0:0:0:
149,302,190372,2,0,P|200:289|249:305,1,85,10|2,0:0|0:0,0:0:0:0:
319,362,190680,2,0,P|319:308|367:261,1,85,2|2,3:2|0:0,0:0:0:0:
487,323,190988,2,0,L|388:341,1,85,10|2,0:0|0:0,0:0:0:0:
320,191,191296,6,0,L|419:209,1,85,2|2,3:2|0:0,0:0:0:0:
260,255,191603,2,0,P|235:200|243:150,1,85,10|2,0:0|3:2,0:0:0:0:
332,77,191911,1,2,3:2:0:0:
403,206,192065,1,2,3:2:0:0:
322,63,192219,1,10,0:0:0:0:
260,255,192372,6,0,B|217:281|217:281|98:270,1,170,6|2,3:2|3:2,0:0:0:0:
77,252,192757,1,0,3:2:0:0:
77,252,192834,2,0,P|72:199|87:145,1,85,10|2,0:0|3:2,0:0:0:0:
199,96,193142,2,0,P|204:149|189:203,1,85,10|0,0:0|3:2,0:0:0:0:
24,71,193449,2,0,L|146:89,1,85,14|2,0:0|0:0,0:0:0:0:
222,14,193757,6,0,P|266:12|311:29,1,85,2|8,3:2|0:0,0:0:0:0:
324,48,193988,1,8,3:2:0:0:
324,48,194065,1,8,3:2:0:0:
383,172,194219,2,0,L|433:173,2,42.5,8|8|10,0:0|0:0|0:0,0:0:0:0:
238,166,194526,1,10,0:0:0:0:
238,166,194603,1,10,0:0:0:0:
238,166,194680,1,10,0:0:0:0:
186,345,194834,6,0,B|240:312|240:312|364:332,1,170,14|2,0:0|3:2,0:0:0:0:
490,216,195295,2,0,L|400:221,1,85,10|0,0:0|0:0,0:0:0:0:
285,146,195603,1,2,3:2:0:0:
223,266,195757,1,2,0:0:0:0:
86,190,195911,2,0,P|75:151|95:101,1,85,8|2,0:0|0:0,0:0:0:0:
116,75,196141,1,2,0:0:0:0:
116,75,196218,6,0,B|145:62|145:62|231:67,1,85,2|2,3:2|0:0,0:0:0:0:
269,185,196526,1,10,0:0:0:0:
369,31,196680,2,0,L|364:120,1,85,2|0,0:0|3:2,0:0:0:0:
273,269,196988,2,0,L|268:180,1,85,2|8,3:2|0:0,0:0:0:0:
110,74,197295,6,0,B|147:113|147:113|268:100,1,170,6|2,3:2|3:2,0:0:0:0:
126,220,197757,2,0,L|30:206,1,85,10|0,0:0|0:0,0:0:0:0:
149,112,198065,1,2,3:2:0:0:
230,186,198218,1,2,0:0:0:0:
347,78,198372,2,0,L|251:92,1,85,8|2,0:0|0:0,0:0:0:0:
223,105,198603,1,2,0:0:0:0:
223,105,198680,6,0,B|213:143|213:143|232:193,1,85,2|2,3:2|0:0,0:0:0:0:
342,84,198988,1,8,0:0:0:0:
443,209,199142,2,0,P|460:168|451:115,1,85,2|0,0:0|3:2,0:0:0:0:
310,255,199449,1,2,0:0:0:0:
310,255,199526,1,8,0:0:0:0:
310,255,199603,1,8,0:0:0:0:
462,357,199757,6,0,B|422:322|422:322|284:343,1,170,6|2,3:2|3:2,0:0:0:0:
196,273,200218,2,0,P|194:330|214:379,1,85,10|2,0:0|0:0,0:0:0:0:
98,322,200526,1,2,3:2:0:0:
201,189,200680,6,0,P|203:246|183:295,1,85,2|10,0:0|0:0,0:0:0:0:
299,238,200988,1,2,0:0:0:0:
196,106,201142,6,0,P|194:163|214:212,1,85,2|2,3:2|0:0,0:0:0:0:
98,155,201450,1,10,0:0:0:0:
201,22,201604,6,0,P|203:79|183:128,1,85,2|2,0:0|3:2,0:0:0:0:
299,71,201912,1,2,3:2:0:0:
337,238,202065,1,14,0:0:0:0:
209,195,202218,1,0,3:2:0:0:
388,127,202372,5,14,0:0:0:0:
388,127,202449,1,8,3:0:0:0:
388,127,202526,2,0,L|341:137,3,42.5,8|8|8|8,3:0|3:0|3:0|3:0,0:0:0:0:
423,218,202834,2,0,L|470:228,3,42.5,12|8|8|8,0:0|3:0|3:0|3:0,0:0:0:0:
344,269,203142,2,0,L|297:279,1,42.5,8|8,3:0|3:0,0:0:0:0:
379,360,203295,2,0,L|426:370,1,42.5,10|8,0:2|0:0,0:0:0:0:
228,357,203449,6,0,B|168:245|50:373|-16:269,1,272,6|0,3:2|0:0,0:0:0:0:
135,128,204834,5,6,0:0:0:0:
256,192,204988,12,0,209757,0:0:0:0:
