osu file format v14

[General]
AudioFilename: audio.mp3
AudioLeadIn: 0
PreviewTime: 112757
Countdown: 0
SampleSet: Soft
StackLeniency: 0.7
Mode: 0
LetterboxInBreaks: 0
WidescreenStoryboard: 1

[Editor]
Bookmarks: 54911,55065,55219,55372,55603,55680,55911,56065,56219,56372,56526,56680,84526,84680,84834,84988,85219,85372,85526,85680,85834,85988,86142,86296,86526,86680,86834,86988,87219,87372,87526,87680,87834,87988,96988,109065,109219,109372,109526,109757,109911,110065,110219,110449,110603,110757,133680,133988,134296,134526,134834,135065,135296,135526,135834,136219,136449,136680,136988,137219,137449,137757,137988,138219,138449,138680,138988,139219,139526,139757,139988,140296,140526,140757,140988,141296,141526,141757,141988,142296,142526,142757,163372,163526,163680,163834,163988,164142,164296,164449,164603,164757,164911,165065,165219,165372,165526,165680,165834,165988,166142,166296,166449,166603,166757
DistanceSpacing: 1.4
BeatDivisor: 4
GridSize: 8
TimelineZoom: 1.5

[Metadata]
Title:LOUDER
TitleUnicode:LOUDER
Artist:Roselia
ArtistUnicode:Roselia
Creator:SkyFlame
Version:Hinsvar's HARD
Source:バンドリ!ガールズバンドパーティ!
Tags:semifinals sf owc osu! world cup 2019 nm1 Event Garupa Bandori BanG Dream! ガルパ! Girls Band Party! Minato Yukina 湊友希那 Hikawa Sayo 氷川紗夜 Imai Lisa 今井リサ Udagawa Ako 宇田川あこ Shirogane Rinko 白金燐子 ロゼリア Aiba Aina 相羽あいな Akesaka Satomi 明坂聡美 Endou Yurika 遠藤ゆりか Kudou Haruka 工藤晴香 Sakuragawa Megu 桜川めぐ BLACK SHOUT Full ver. Version japanese video game female vocal Cynplytholowazy Hinsvar Mocaotic Ayucchi Amateurre newton- seolv [_L_u_k_a_s_] lukas
BeatmapID:2203978
BeatmapSetID:1040095

[Difficulty]
HPDrainRate:5
CircleSize:3.5
OverallDifficulty:7
ApproachRate:8
SliderMultiplier:1.28
SliderTickRate:1

[Events]
//Background and Video events
0,0,"bg.jpg",0,0
//Break Periods
2,54880,56084
2,84419,87622
2,109034,110238
2,133649,142392
2,163034,164834
//Storyboard Layer 0 (Background)
//Storyboard Layer 1 (Fail)
//Storyboard Layer 2 (Pass)
//Storyboard Layer 3 (Foreground)
//Storyboard Layer 4 (Overlay)
//Storyboard Sound Samples

[TimingPoints]
-704,307.692307692308,4,2,1,60,1,0
526,-133.333333333333,4,2,1,60,0,0
10219,-100,4,2,1,60,0,0
28680,-200,4,2,1,60,0,0
29757,-133.333333333333,4,2,1,60,0,0
30065,-100,4,2,1,60,0,0
49757,-133.333333333333,4,2,1,60,0,0
56834,-100,4,2,1,60,0,0
59449,-88.4955752212389,4,2,1,85,0,1
69219,-88.4955752212389,4,2,1,85,0,0
69296,-88.4955752212389,4,2,1,85,0,1
78065,-100,4,2,1,55,0,0
89142,-133.333333333333,4,2,1,55,0,0
91603,-100,4,2,1,55,0,0
113603,-88.4955752212389,4,2,1,85,0,1
123372,-88.4955752212389,4,2,1,85,0,0
123449,-88.4955752212389,4,2,1,85,0,1
132219,-133.333333333333,4,2,1,60,0,0
153142,-100,4,2,1,60,0,0
167757,-88.4955752212389,4,2,1,87,0,1
175065,-88.4955752212389,4,2,1,87,0,0
175142,-88.4955752212389,4,2,1,87,0,1
184988,-100,4,2,1,75,0,0
203449,-200,4,2,1,75,0,0
209757,-200,4,2,1,5,0,0

[Colours]
Combo1 : 153,67,160
Combo2 : 244,244,138
Combo3 : 108,179,242
Combo4 : 155,128,115
SliderBorder : 172,141,209

[HitObjects]
32,134,526,6,0,P|58:43|144:57,1,192.000007324219,14|0,2:0|0:0,0:0:0:0:
263,157,1449,1,0,2:0:0:0:
364,29,1757,2,0,B|413:35|413:35|444:54|444:54|501:62,2,144.000005493164,10|8|4,2:0|2:3|2:3,0:0:0:0:
320,186,2988,6,0,P|365:265|449:237,1,192.000007324219,6|0,2:0|2:0,0:0:0:0:
495,82,3911,1,0,2:0:0:0:
345,15,4219,5,10,2:0:0:0:
345,15,4372,2,0,P|308:31|252:41,1,96.0000036621095,0|8,2:3|2:3,0:0:0:0:
92,10,4988,1,8,2:3:0:0:
47,167,5296,1,4,2:3:0:0:
47,167,5372,1,4,2:3:0:0:
47,167,5449,6,0,P|61:210|65:264,1,96.0000036621095,4|2,3:2|3:2,0:0:0:0:
18,328,5911,1,0,2:0:0:0:
88,368,6065,2,0,L|144:353,1,48.0000018310548,2|0,3:2|2:0,0:0:0:0:
182,289,6372,2,0,L|238:304,1,48.0000018310548,2|0,3:2|2:0,0:0:0:0:
292,353,6680,5,2,3:2:0:0:
450,313,6988,1,2,3:2:0:0:
483,238,7142,1,0,2:0:0:0:
485,156,7296,2,0,L|452:120,1,48.0000018310548,2|0,3:2|2:0,0:0:0:0:
407,52,7603,2,0,P|381:64|355:69,1,48.0000018310548,2|0,3:2|2:0,0:0:0:0:
296,18,7911,6,0,B|226:2|226:2|205:13,1,96.0000036621095,14|10,2:0|2:0,0:0:0:0:
242,96,8372,1,8,2:0:0:0:
242,96,8449,1,8,2:0:0:0:
242,96,8526,2,0,L|230:149,1,48.0000018310548,10|8,2:0|2:0,0:0:0:0:
292,211,8834,2,0,P|300:234|304:264,1,48.0000018310548,10|8,2:0|2:0,0:0:0:0:
302,282,9065,1,8,2:0:0:0:
302,282,9142,5,10,2:0:0:0:
302,282,10219,6,0,P|249:249|183:230,1,128,6|0,3:2|3:2,0:0:0:0:
96,227,10680,2,0,P|90:198|86:163,1,64,10|0,2:0|3:2,0:0:0:0:
51,86,10988,1,2,3:2:0:0:
51,86,11142,2,0,P|106:126|172:127,1,128,2|2,3:2|2:0,0:0:0:0:
233,72,11603,6,0,P|237:40|243:4,2,64,2|2|10,3:2|2:0|2:0,0:0:0:0:
313,113,12065,2,0,P|329:141|342:185,1,64,2|0,2:0|3:2,0:0:0:0:
338,261,12372,1,2,3:2:0:0:
259,303,12526,1,8,2:0:0:0:
342,373,12680,6,0,P|369:306|420:294,1,128,6|2,3:2|3:2,0:0:0:0:
489,237,13142,2,0,P|499:205|502:170,1,64,10|0,2:0|2:0,0:0:0:0:
444,105,13449,2,0,P|434:73|431:38,2,64,2|2|8,3:2|3:2|2:0,0:0:0:0:
367,152,13911,1,2,2:0:0:0:
367,152,13988,1,2,2:0:0:0:
367,152,14065,6,0,P|330:147|297:137,1,64,2|2,3:2|2:0,0:0:0:0:
236,79,14372,1,10,2:0:0:0:
164,132,14526,2,0,P|151:192|139:268,1,128,2|2,2:0|3:2,0:0:0:0:
187,334,14988,1,10,2:0:0:0:
299,301,15142,5,6,3:2:0:0:
299,301,15449,1,2,3:2:0:0:
249,225,15603,2,0,P|218:230|186:244,1,64,10|2,2:0|2:0,0:0:0:0:
131,172,15911,2,0,P|142:142|146:107,1,64,2|2,3:2|2:0,0:0:0:0:
232,85,16219,2,0,P|251:109|279:130,1,64,10|2,2:0|2:0,0:0:0:0:
355,84,16526,6,0,P|418:56|483:71,1,128,2|10,3:2|2:0,0:0:0:0:
506,150,16988,1,2,2:0:0:0:
435,205,17142,2,0,P|404:201|371:187,2,64,2|2|10,3:2|3:2|2:0,0:0:0:0:
443,313,17603,6,0,P|379:335|327:378,1,128,6|2,3:2|3:2,0:0:0:0:
306,362,17988,1,0,3:2:0:0:
306,362,18065,2,0,L|291:288,1,64,10|2,2:0|3:2,0:0:0:0:
203,297,18372,2,0,L|218:223,1,64,10|0,2:0|3:2,0:0:0:0:
142,181,18680,1,14,2:0:0:0:
331,63,18988,6,0,P|277:54|225:1,1,128,2|8,3:2|3:2,0:0:0:0:
148,48,19449,2,0,L|142:82,2,32,8|8|10,2:0|2:0|2:0,0:0:0:0:
67,8,19757,1,10,2:0:0:0:
12,79,19911,1,10,2:0:0:0:
12,79,19988,1,10,2:0:0:0:
12,79,20065,6,0,P|30:140|41:221,1,128,14|2,2:0|3:2,0:0:0:0:
9,288,20526,1,10,2:0:0:0:
169,367,20834,2,0,P|197:358|233:337,1,64,2|2,3:2|2:0,0:0:0:0:
189,259,21142,1,8,2:0:0:0:
220,180,21296,1,2,2:0:0:0:
220,180,21372,1,2,2:0:0:0:
220,180,21449,6,0,P|254:178|286:199,1,64,2|2,3:2|2:0,0:0:0:0:
338,260,21757,1,10,2:0:0:0:
412,210,21911,2,0,B|389:130|389:130|419:77,1,128,2|2,2:0|3:2,0:0:0:0:
497,115,22372,1,8,2:0:0:0:
439,14,22526,6,0,P|379:8|312:34,1,128,6|2,3:2|3:2,0:0:0:0:
239,78,22988,2,0,B|205:94|175:71|181:66|149:47|111:65,1,128,10|2,2:0|3:2,0:0:0:0:
40,109,23449,2,0,P|30:143|25:180,1,64,2|8,2:0|2:0,0:0:0:0:
85,252,23757,1,2,2:0:0:0:
85,252,23834,1,2,2:0:0:0:
85,252,23911,6,0,P|114:231|157:232,2,64,2|2|8,3:2|2:0|2:0,0:0:0:0:
53,334,24372,1,2,2:0:0:0:
256,307,24680,2,0,L|264:263,2,32,2|8|8,2:0|2:0|2:0,0:0:0:0:
320,370,24988,6,0,P|374:341|449:344,1,128,6|2,3:2|3:2,0:0:0:0:
500,275,25449,2,0,P|500:240|512:201,1,64,10|2,2:0|2:0,0:0:0:0:
458,135,25757,1,2,3:2:0:0:
377,175,25911,2,0,P|346:159|320:133,2,64,2|10|2,2:0|2:0|2:0,0:0:0:0:
323,247,26372,5,2,3:2:0:0:
252,301,26526,2,0,P|233:329|223:365,2,64,2|10|2,2:0|2:0|2:0,0:0:0:0:
160,270,26988,2,0,P|149:242|149:201,1,64,2|2,3:2|3:2,0:0:0:0:
234,183,27296,2,0,P|245:155|245:114,1,64,14|0,2:0|3:2,0:0:0:0:
198,22,27603,6,0,P|187:52|86:58,1,128,14|8,2:0|3:0,0:0:0:0:
47,143,28065,1,12,2:0:0:0:
47,143,28142,1,8,3:0:0:0:
47,143,28219,1,8,3:0:0:0:
110,205,28372,2,0,L|152:199,2,32,8|8|10,3:0|3:0|3:2,0:0:0:0:
222,275,28680,6,0,P|224:231|250:118,1,160,6|2,3:2|2:0,0:0:0:0:
311,53,29603,1,2,3:2:0:0:
311,53,29680,1,0,3:2:0:0:
311,53,29757,6,0,P|333:58|369:59,1,48.0000018310548,10|2,2:0|2:0,0:0:0:0:
444,32,30065,6,0,P|454:57|465:103,1,64,2|2,3:2|3:2,0:0:0:0:
446,180,30372,1,10,2:0:0:0:
446,180,30680,1,8,2:0:0:0:
361,210,30834,2,0,P|333:205|301:190,2,64,2|10|2,2:0|2:0|2:0,0:0:0:0:
400,290,31296,5,10,2:0:0:0:
312,309,31449,2,0,P|297:334|286:370,1,64,2|10,2:0|2:0,0:0:0:0:
205,327,31757,2,0,P|190:257|152:201,1,128,2|2,2:0|3:2,0:0:0:0:
131,188,32142,1,0,3:2:0:0:
131,188,32219,1,8,2:0:0:0:
53,108,32372,6,0,P|112:102|172:67,1,128,2|2,3:2|2:0,0:0:0:0:
231,1,32834,1,8,2:0:0:0:
231,1,33142,1,8,2:0:0:0:
307,48,33296,2,0,P|321:81|328:115,2,64,2|10|2,3:2|2:0|3:2,0:0:0:0:
386,7,33757,6,0,B|468:32|468:32|445:75,1,128,10|10,2:0|2:0,0:0:0:0:
389,137,34219,2,0,L|354:144,2,32,2|0|8,3:2|3:2|2:0,0:0:0:0:
462,188,34526,1,2,3:2:0:0:
476,276,34680,2,0,B|445:277|445:277|415:261,1,64,8|2,2:0|3:2,0:0:0:0:
315,216,34988,6,0,P|281:266|261:335,1,128,14|8,2:0|2:0,0:0:0:0:
93,355,35603,1,8,2:0:0:0:
72,267,35757,2,0,P|49:250|6:238,2,64,2|10|2,3:2|2:0|3:2,0:0:0:0:
155,231,36219,6,0,P|173:181|178:106,1,128,8|8,2:0|2:0,0:0:0:0:
332,15,36834,1,10,2:0:0:0:
413,51,36988,2,0,P|429:52|459:37,2,32,2|0|10,3:2|3:2|2:0,0:0:0:0:
340,105,37296,1,2,3:2:0:0:
430,168,37449,6,0,P|419:198|396:242,1,64,12|2,2:0|2:0,0:0:0:0:
349,297,37757,2,0,B|390:314|390:314|425:311|425:311|478:325,2,128,8|8|8,2:0|2:0|2:0,0:0:0:0:
262,154,38680,6,0,B|253:119|253:119|272:77,1,64,8|2,2:0|3:2,0:0:0:0:
217,9,38988,2,0,P|181:50|91:69,1,128,8|0,2:0|3:2,0:0:0:0:
35,116,39449,2,0,L|3:99,2,32,2|0|8,3:2|3:2|2:0,0:0:0:0:
83,204,39757,1,0,3:2:0:0:
83,204,39834,1,0,3:2:0:0:
83,204,39911,6,0,P|75:236|46:267,1,64,6|2,3:2|2:0,0:0:0:0:
95,341,40219,1,10,2:0:0:0:
169,292,40372,2,0,B|201:282|231:303|226:308|254:330|293:321,1,128,0|2,2:0|2:0,0:0:0:0:
358,264,40834,2,0,P|354:233|363:197,1,64,10|2,2:0|2:0,0:0:0:0:
293,150,41142,5,2,3:2:0:0:
293,150,41296,2,0,P|261:136|219:125,1,64,2|10,2:0|2:0,0:0:0:0:
155,83,41603,2,0,P|221:69|288:44,1,128,2|2,2:0|2:0,0:0:0:0:
357,6,42065,1,10,2:0:0:0:
417,72,42219,5,2,2:0:0:0:
288,236,42526,1,2,2:0:0:0:
203,190,42680,2,0,P|199:253|222:312,1,128,8|0,2:0|3:2,0:0:0:0:
301,356,43142,2,0,P|329:347|369:340,2,64,2|10|2,2:0|2:0|2:0,0:0:0:0:
213,336,43603,5,2,3:2:0:0:
141,281,43757,2,0,P|126:308|118:344,1,64,2|10,2:0|2:0,0:0:0:0:
28,349,44065,2,0,P|22:285|7:212,1,128,2|2,2:0|2:0,0:0:0:0:
51,143,44526,1,8,2:0:0:0:
105,233,44680,6,0,P|138:189|218:192,1,128,6|0,2:0|2:0,0:0:0:0:
252,263,45142,2,0,P|285:272|321:274,1,64,8|0,2:0|2:0,0:0:0:0:
483,214,45603,2,0,P|491:246|495:283,2,64,2|10|2,2:0|2:0|2:0,0:0:0:0:
396,189,46065,6,0,P|387:132|407:57,1,128,0|8,3:2|2:0,0:0:0:0:
470,5,46526,1,0,2:0:0:0:
403,64,46680,2,0,P|370:56|335:40,2,64,2|2|10,3:2|2:0|2:0,0:0:0:0:
464,129,47142,1,2,2:0:0:0:
412,202,47296,5,4,3:2:0:0:
412,202,47449,2,0,P|437:264|445:338,1,128,2|2,2:0|2:0,0:0:0:0:
366,369,47911,1,0,3:2:0:0:
287,326,48065,2,0,P|259:326|225:342,1,64,2|8,3:2|2:0,0:0:0:0:
171,243,48372,6,0,P|238:243|287:205,1,128,2|2,2:0|3:2,0:0:0:0:
315,122,48834,1,8,2:0:0:0:
254,55,48988,2,0,L|262:14,2,32,2|0|8,3:2|3:2|2:0,0:0:0:0:
176,101,49296,2,0,L|157:38,2,64,4|8|4,3:0|3:0|3:0,0:0:0:0:
113,160,49757,5,6,3:2:0:0:
113,160,49911,1,0,3:2:0:0:
36,316,50219,2,0,P|111:327|191:347,1,144.000005493164,14|0,2:0|3:2,0:0:0:0:
177,342,50834,1,0,3:2:0:0:
278,201,51142,2,0,P|240:236|151:231,1,144.000005493164,12|2,2:0|3:2,0:0:0:0:
93,168,51757,2,0,L|51:178,2,24.0000009155274,2|0|12,3:2|3:2|2:0,0:0:0:0:
210,40,52219,5,0,3:2:0:0:
210,40,52372,1,2,3:2:0:0:
359,127,52680,2,0,P|355:207|337:273,1,144.000005493164,14|0,2:0|3:2,0:0:0:0:
338,268,53296,1,2,3:2:0:0:
181,176,53603,1,4,3:2:0:0:
181,176,53757,1,8,0:0:0:0:
154,93,53911,2,0,L|110:81,2,24.0000009155274,0|0|8,3:2|3:2|2:0,0:0:0:0:
222,38,54219,1,8,3:0:0:0:
295,82,54372,2,0,P|322:78|348:67,1,48.0000018310548,4|4,3:0|3:0,0:0:0:0:
409,124,54680,5,6,2:0:0:0:
406,55,56834,5,8,2:0:0:0:
478,127,56988,1,4,3:0:0:0:
478,127,57065,1,4,3:0:0:0:
478,127,57142,6,0,P|478:196|457:261,1,128,14|10,2:0|2:0,0:0:0:0:
388,304,57603,2,0,P|357:286|325:275,1,64,10|8,2:0|2:0,0:0:0:0:
246,344,57911,1,10,2:0:0:0:
246,344,57988,1,8,2:0:0:0:
246,344,58065,1,10,2:0:0:0:
159,277,58219,2,0,L|119:282,2,32,10|8|14,2:0|2:0|2:0,0:0:0:0:
159,277,59449,6,0,P|174:210|129:149,1,144.640000441406,6|0,3:2|3:2,0:0:0:0:
79,72,59911,1,10,2:0:0:0:
145,4,60065,1,0,2:0:0:0:
223,56,60219,2,0,P|293:77|365:83,1,144.640000441406,2|10,3:2|2:0,0:0:0:0:
458,84,60680,6,0,P|492:138|500:231,1,144.640000441406,2|0,2:0|2:0,0:0:0:0:
457,299,61141,1,8,2:0:0:0:
290,211,61449,2,0,P|293:175|304:139,2,72.3200002207031,2|2|8,3:2|3:2|2:0,0:0:0:0:
215,301,61911,6,0,P|204:237|131:190,1,144.640000441406,6|0,3:2|3:2,0:0:0:0:
100,276,62372,1,10,2:0:0:0:
100,276,62680,2,0,L|16:259,2,72.3200002207031,2|2|10,3:2|3:2|2:0,0:0:0:0:
178,339,63142,6,0,L|193:255,1,72.3200002207031,2|0,2:0|3:2,0:0:0:0:
260,204,63449,1,2,2:0:0:0:
214,121,63603,2,0,P|273:163|356:171,1,144.640000441406,8|0,2:0|3:2,0:0:0:0:
418,114,64065,1,10,2:0:0:0:
418,114,64142,1,8,2:0:0:0:
418,114,64219,1,10,2:0:0:0:
504,152,64372,6,0,P|466:219|456:299,1,144.640000441406,6|2,3:2|3:2,0:0:0:0:
391,355,64834,2,0,P|357:342|324:320,1,72.3200002207031,10|2,2:0|2:0,0:0:0:0:
284,237,65142,1,2,3:2:0:0:
367,194,65296,2,0,P|375:158|376:119,1,72.3200002207031,2|10,3:2|2:0,0:0:0:0:
418,38,65603,6,0,P|347:79|266:79,1,144.640000441406,2|2,3:2|3:2,0:0:0:0:
217,148,66065,2,0,B|203:182|203:182|198:227,1,72.3200002207031,10|2,2:0|2:0,0:0:0:0:
133,285,66372,2,0,B|114:254|114:254|87:229,1,72.3200002207031,2|2,3:2|3:2,0:0:0:0:
37,149,66680,1,10,2:0:0:0:
42,43,66834,6,0,P|100:83|188:101,1,144.640000441406,6|0,3:2|3:2,0:0:0:0:
254,53,67296,1,8,2:0:0:0:
254,53,67603,2,0,B|289:35|289:35|326:44,1,72.3200002207031,10|2,2:0|3:2,0:0:0:0:
388,109,67911,2,0,B|420:132|420:132|464:129,1,72.3200002207031,8|2,2:0|3:2,0:0:0:0:
485,226,68219,6,0,B|450:222|450:222|416:255,1,72.3200002207031,8|2,2:0|3:2,0:0:0:0:
462,333,68526,2,0,P|418:288|331:296,1,144.640000441406,8|10,2:0|2:0,0:0:0:0:
260,239,68988,1,10,2:0:0:0:
260,239,69065,1,8,2:0:0:0:
260,239,69142,1,8,2:0:0:0:
315,162,69296,6,0,B|236:110|236:110|173:131,1,144.640000441406,6|0,3:2|3:2,0:0:0:0:
103,84,69757,2,0,B|75:108|75:108|33:96,1,72.3200002207031,10|0,2:0|2:0,0:0:0:0:
0,192,70065,2,0,P|68:210|106:275,1,144.640000441406,2|10,3:2|2:0,0:0:0:0:
215,322,70526,6,0,P|196:255|212:182,1,144.640000441406,2|0,3:2|3:2,0:0:0:0:
258,101,70987,1,10,2:0:0:0:
441,31,71296,1,2,3:2:0:0:
441,31,71449,2,0,P|468:46|519:51,1,72.3200002207031,2|8,3:2|2:0,0:0:0:0:
466,152,71757,6,0,P|397:127|329:154,1,144.640000441406,6|0,3:2|3:2,0:0:0:0:
388,233,72219,1,10,2:0:0:0:
388,233,72526,2,0,P|398:269|400:313,1,72.3200002207031,2|2,3:2|3:2,0:0:0:0:
328,365,72834,1,10,2:0:0:0:
250,314,72988,6,0,P|181:321|104:347,1,144.640000441406,2|2,2:0|2:0,0:0:0:0:
25,302,73449,2,0,P|27:264|15:225,1,72.3200002207031,8|0,2:0|2:0,0:0:0:0:
60,146,73757,1,0,3:2:0:0:
151,204,73911,1,10,2:0:0:0:
151,204,73988,1,8,2:0:0:0:
151,204,74065,1,10,2:0:0:0:
180,91,74219,6,0,P|225:136|303:125,1,144.640000441406,6|2,3:2|3:2,0:0:0:0:
379,75,74680,2,0,B|417:75|417:75|448:103,1,72.3200002207031,10|2,2:0|2:0,0:0:0:0:
493,177,74988,2,0,P|458:188|417:224,1,72.3200002207031,2|2,3:2|2:0,0:0:0:0:
403,299,75296,1,10,2:0:0:0:
334,362,75449,6,0,P|307:306|308:213,1,144.640000441406,2|2,3:2|3:2,0:0:0:0:
216,190,75911,2,0,P|180:189|143:204,1,72.3200002207031,10|0,2:0|2:0,0:0:0:0:
64,278,76219,2,0,P|141:301|187:362,1,144.640000441406,2|10,3:2|2:0,0:0:0:0:
279,285,76680,1,6,3:2:0:0:
330,363,76834,6,0,L|369:353,2,36.1600001103516,8|8|8,3:0|3:0|3:0,0:0:0:0:
368,259,77142,2,0,P|381:188|412:118,1,144.640000441406,8|8,3:0|3:0,0:0:0:0:
461,46,77603,1,8,3:0:0:0:
461,46,77680,1,8,3:0:0:0:
461,46,77757,1,8,3:0:0:0:
372,9,77911,1,8,3:0:0:0:
301,55,78065,5,12,3:2:0:0:
216,32,79142,1,2,3:2:0:0:
216,32,79219,1,0,3:2:0:0:
216,32,79296,6,0,P|153:53|117:120,1,128,14|2,2:0|3:2,0:0:0:0:
82,183,79757,2,0,L|13:199,2,64,14|2|2,2:0|3:2|3:2,0:0:0:0:
125,276,80219,2,0,B|170:235|170:235|239:263,1,128,14|2,2:0|3:2,0:0:0:0:
305,323,80680,6,0,P|286:269|291:190,1,128,14|2,2:0|3:2,0:0:0:0:
378,149,81142,2,0,P|408:140|449:137,1,64,14|2,2:0|3:2,0:0:0:0:
441,34,81449,2,0,P|409:30|378:21,1,64,14|2,2:0|3:2,0:0:0:0:
293,80,81757,5,14,2:0:0:0:
126,183,82065,1,2,3:2:0:0:
59,105,82219,2,0,P|38:164|35:239,1,128,14|2,2:0|3:2,0:0:0:0:
17,329,82680,2,0,P|61:285|123:271,1,128,14|2,2:0|3:2,0:0:0:0:
193,327,83142,6,0,L|185:372,2,32,8|8|8,3:0|3:0|3:0,0:0:0:0:
258,265,83449,1,4,3:0:0:0:
342,295,83603,1,10,2:0:0:0:
400,213,83757,2,0,P|432:261|419:337,1,128,6|0,3:2|2:0,0:0:0:0:
507,362,84219,5,6,2:0:0:0:
432,249,88372,6,0,L|435:206,2,32,8|8|8,3:0|3:0|3:0,0:0:0:0:
363,308,88680,1,8,3:0:0:0:
283,267,88834,1,4,3:0:0:0:
283,267,88988,1,4,3:0:0:0:
202,305,89142,6,0,P|148:293|97:267,1,96.0000036621095,6|2,3:2|3:2,0:0:0:0:
69,117,89757,2,0,L|81:60,1,48.0000018310548,2|0,3:2|0:0,0:0:0:0:
147,16,90065,2,0,L|193:25,1,48.0000018310548,2|0,3:2|0:0,0:0:0:0:
257,77,90372,5,2,3:2:0:0:
417,48,90680,1,2,3:2:0:0:
467,112,90834,1,0,0:0:0:0:
467,193,90988,2,0,P|461:217|444:251,2,48.0000018310548,2|0|2,3:2|0:0|3:2,0:0:0:0:
302,122,91603,6,0,B|236:114|236:114|176:149,1,128,12|2,2:0|3:2,0:0:0:0:
93,195,92065,2,0,L|19:179,2,64,10|2|2,2:0|3:2|3:2,0:0:0:0:
141,285,92526,2,0,L|215:269,1,64,8|2,2:0|3:2,0:0:0:0:
274,346,92834,5,12,2:0:0:0:
343,276,92988,1,10,2:0:0:0:
343,276,93142,2,0,P|342:243|354:204,1,64,8|10,2:0|2:0,0:0:0:0:
407,128,93449,2,0,P|399:95|377:61,1,64,8|10,2:0|3:2,0:0:0:0:
299,12,93757,1,8,2:0:0:0:
98,55,94065,6,0,P|63:46|31:32,1,64,12|0,3:2|3:2,0:0:0:0:
1,117,94372,1,0,3:2:0:0:
46,194,94526,2,0,P|107:164|178:154,1,128,12|2,2:0|3:2,0:0:0:0:
226,237,94988,2,0,P|226:267|217:311,2,64,14|2|2,2:0|3:2|3:2,0:0:0:0:
316,189,95449,6,0,P|355:141|365:57,1,128,14|2,2:0|3:2,0:0:0:0:
290,8,95911,1,14,2:0:0:0:
168,174,96219,1,14,2:0:0:0:
168,174,96372,1,2,3:2:0:0:
143,74,96526,6,0,P|113:66|73:65,1,64,12|2,2:0|3:2,0:0:0:0:
76,270,96988,2,0,P|106:278|146:279,1,64,12|0,2:0|3:2,0:0:0:0:
233,353,97296,1,2,3:2:0:0:
233,353,97449,2,0,P|240:314|247:282,1,64,12|2,2:0|3:2,0:0:0:0:
317,234,97757,1,2,3:2:0:0:
267,144,97911,6,0,B|209:130|209:130|143:175,1,128,14|2,2:0|3:2,0:0:0:0:
62,120,98372,2,0,B|48:94|48:94|52:57,1,64,12|2,2:0|3:2,0:0:0:0:
136,1,98680,1,12,2:0:0:0:
228,45,98834,6,0,P|292:38|370:22,1,128,6|0,3:2|3:2,0:0:0:0:
444,28,99296,2,0,P|471:50|488:90,1,64,8|0,2:0|2:0,0:0:0:0:
498,163,99603,2,0,P|463:166|423:150,1,64,0|2,3:2|3:2,0:0:0:0:
359,109,99911,1,10,2:0:0:0:
290,166,100065,6,0,P|294:236|305:303,1,128,2|0,2:0|2:0,0:0:0:0:
358,363,100526,1,8,2:0:0:0:
187,306,100834,2,0,P|162:311|129:331,2,64,2|2|10,3:2|3:2|2:0,0:0:0:0:
216,206,101296,6,0,P|150:193|93:148,1,128,6|2,3:2|3:2,0:0:0:0:
57,80,101757,2,0,L|76:9,1,64,10|2,2:0|3:2,0:0:0:0:
163,7,102065,2,0,L|234:26,1,64,8|2,2:0|3:2,0:0:0:0:
297,77,102372,2,0,L|278:148,1,64,8|2,2:0|3:2,0:0:0:0:
322,218,102680,6,0,B|371:200|371:200|400:214|400:214|452:193,2,128,8|8|8,2:0|2:0|2:0,0:0:0:0:
223,278,103449,2,0,L|268:292,2,32,2|0|8,3:2|3:2|3:2,0:0:0:0:
146,360,103757,1,2,3:2:0:0:
146,360,103834,1,0,3:2:0:0:
146,360,103911,6,0,P|126:298|125:226,1,128,12|8,2:0|2:0,0:0:0:0:
163,154,104372,1,0,3:2:0:0:
133,55,104526,2,0,L|206:72,1,64,8|0,2:0|3:2,0:0:0:0:
267,15,104834,2,0,B|302:26|302:26|333:50,1,64,10|0,2:0|3:2,0:0:0:0:
384,125,105142,6,0,P|374:70|426:11,1,128,10|8,2:0|2:0,0:0:0:0:
492,60,105603,1,0,3:2:0:0:
498,149,105757,2,0,B|493:179|493:179|472:212,1,64,8|0,2:0|3:2,0:0:0:0:
457,295,106065,2,0,P|430:279|396:268,1,64,10|2,2:0|3:2,0:0:0:0:
376,291,106296,1,0,3:2:0:0:
376,291,106372,6,0,P|322:324|246:311,1,128,14|8,2:0|2:0,0:0:0:0:
176,283,106834,1,2,3:2:0:0:
202,197,106988,2,0,B|202:165|202:165|186:133,1,64,8|2,2:0|3:2,0:0:0:0:
98,119,107296,2,0,B|98:151|98:151|114:183,1,64,8|2,2:0|3:2,0:0:0:0:
69,259,107603,6,0,L|-2:243,2,64,10|0|8,2:0|3:2|2:0,0:0:0:0:
260,335,108219,6,0,L|307:325,2,42.6666666666667,8|8|8,2:0|2:0|2:0,0:0:0:0:
231,282,108526,2,0,L|257:241,2,42.6666666666667,4|4|4,3:0|3:0|3:0,0:0:0:0:
173,264,108834,5,6,3:2:0:0:
101,266,110988,5,14,2:0:0:0:
182,327,111142,1,4,3:0:0:0:
182,327,111219,1,4,3:0:0:0:
182,327,111296,6,0,B|214:321|243:303|239:294|270:276|306:267,1,128,14|10,2:0|2:0,0:0:0:0:
353,201,111757,2,0,P|352:166|342:137,2,64,2|8|2,3:2|2:0|3:2,0:0:0:0:
412,285,112219,1,10,2:0:0:0:
486,213,112372,6,0,P|501:152|487:81,1,128,2|8,3:2|2:0,0:0:0:0:
431,20,112834,2,0,P|382:59|311:76,1,128,10|10,2:0|2:0,0:0:0:0:
237,39,113296,2,0,L|226:-8,2,32,10|8|8,2:0|2:0|2:0,0:0:0:0:
221,153,113603,6,0,P|169:94|96:77,1,144.640000441406,6|0,3:2|3:2,0:0:0:0:
49,151,114065,2,0,P|42:222|26:297,1,144.640000441406,10|2,2:0|3:2,0:0:0:0:
89,364,114526,2,0,P|123:345|168:336,1,72.3200002207031,0|10,3:2|2:0,0:0:0:0:
256,341,114834,6,0,P|192:308|175:240,1,144.640000441406,2|0,3:2|3:2,0:0:0:0:
234,168,115296,1,8,2:0:0:0:
397,259,115603,2,0,P|437:250|467:237,2,72.3200002207031,2|2|8,3:2|3:2|2:0,0:0:0:0:
439,150,116065,6,0,P|459:101|469:-2,1,144.640000441406,6|0,3:2|3:2,0:0:0:0:
378,31,116526,2,0,P|340:39|300:40,1,72.3200002207031,10|0,2:0|2:0,0:0:0:0:
215,14,116834,1,0,3:2:0:0:
151,83,116988,2,0,P|149:118|136:167,1,72.3200002207031,2|8,3:2|2:0,0:0:0:0:
235,146,117296,6,0,P|247:210|287:280,1,144.640000441406,2|2,2:0|2:0,0:0:0:0:
353,344,117757,1,8,2:0:0:0:
167,310,118065,1,0,3:2:0:0:
89,360,118219,1,10,2:0:0:0:
89,360,118296,1,8,2:0:0:0:
89,360,118372,1,8,2:0:0:0:
32,256,118526,6,0,B|86:198|86:198|156:224,1,144.640000441406,6|2,3:2|3:2,0:0:0:0:
233,180,118988,1,10,2:0:0:0:
287,103,119142,2,0,P|287:67|274:32,2,72.3200002207031,2|2|2,2:0|3:2|2:0,0:0:0:0:
375,134,119603,1,10,2:0:0:0:
461,171,119757,6,0,P|379:174|369:229,1,144.640000441406,2|2,2:0|2:0,0:0:0:0:
435,288,120219,1,10,2:0:0:0:
369,354,120372,2,0,P|332:346|298:323,1,72.3200002207031,2|2,2:0|3:2,0:0:0:0:
217,368,120680,1,2,3:2:0:0:
183,280,120834,1,8,2:0:0:0:
293,224,120988,6,0,P|315:159|315:70,1,144.640000441406,6|0,3:2|3:2,0:0:0:0:
242,25,121449,1,8,2:0:0:0:
27,112,121757,2,0,P|60:124|113:132,1,72.3200002207031,10|2,2:0|3:2,0:0:0:0:
132,234,122065,2,0,P|99:222|46:214,1,72.3200002207031,8|2,2:0|3:2,0:0:0:0:
90,319,122372,6,0,P|164:325|217:276,1,144.640000441406,8|8,2:0|2:0,0:0:0:0:
250,193,122834,1,2,3:2:0:0:
336,252,122988,2,0,P|397:250|448:236,1,108.480000331055,8|8,2:0|2:0,0:0:0:0:
474,219,123296,1,8,2:0:0:0:
384,158,123449,6,0,P|403:87|477:57,1,144.640000441406,6|0,3:2|3:2,0:0:0:0:
368,1,123911,2,0,P|332:3|294:11,1,72.3200002207031,10|0,2:0|2:0,0:0:0:0:
249,92,124219,2,0,P|190:75|112:36,1,144.640000441406,2|10,3:2|2:0,0:0:0:0:
14,47,124680,6,0,B|62:130|62:130|47:177,1,144.640000441406,2|0,3:2|3:2,0:0:0:0:
36,270,125142,1,8,2:0:0:0:
221,296,125449,2,0,P|216:257|207:225,1,72.3200002207031,2|2,3:2|3:2,0:0:0:0:
163,141,125757,1,8,2:0:0:0:
275,168,125911,6,0,P|347:158|419:138,1,144.640000441406,6|0,3:2|3:2,0:0:0:0:
481,206,126372,2,0,P|478:244|466:283,1,72.3200002207031,10|0,2:0|2:0,0:0:0:0:
375,260,126680,2,0,P|344:261|311:292,1,72.3200002207031,2|2,3:2|3:2,0:0:0:0:
270,371,126988,1,10,2:0:0:0:
195,313,127142,6,0,P|178:262|177:166,1,144.640000441406,2|2,2:0|3:2,0:0:0:0:
223,90,127603,1,8,2:0:0:0:
14,191,127911,1,0,3:2:0:0:
65,269,128065,2,0,L|55:305,2,36.1600001103516,10|8|8,2:0|2:0|2:0,0:0:0:0:
151,232,128372,6,0,P|216:210|297:202,1,144.640000441406,6|2,3:2|3:2,0:0:0:0:
360,266,128834,2,0,P|327:211|353:129,1,144.640000441406,10|2,2:0|3:2,0:0:0:0:
320,45,129296,2,0,P|286:27|245:27,1,72.3200002207031,2|10,2:0|2:0,0:0:0:0:
160,48,129603,6,0,P|228:65|214:139,1,144.640000441406,2|2,2:0|2:0,0:0:0:0:
153,190,130065,2,0,P|119:181|83:176,1,72.3200002207031,10|2,2:0|2:0,0:0:0:0:
29,254,130372,2,0,P|44:288|51:333,1,72.3200002207031,2|2,3:2|3:2,0:0:0:0:
129,374,130680,1,10,2:0:0:0:
205,284,130834,6,0,P|235:304|272:302,1,72.3200002207031,6|8,3:2|3:0,0:0:0:0:
348,247,131142,1,8,3:0:0:0:
348,247,131219,1,8,3:0:0:0:
348,247,131296,2,0,P|327:185|345:103,1,144.640000441406,8|8,3:0|3:0,0:0:0:0:
415,50,131757,2,0,L|461:42,2,36.1600001103516,8|8|8,3:0|3:0|3:0,0:0:0:0:
330,6,132065,1,8,3:0:0:0:
246,42,132219,5,14,3:2:0:0:
266,342,133449,1,6,2:0:0:0:
477,331,143142,5,10,3:0:0:0:
477,331,143219,1,8,3:0:0:0:
477,331,143296,2,0,P|476:283|444:246,1,96.0000036621095,14|10,2:0|3:0,0:0:0:0:
384,194,143757,2,0,L|394:157,2,24.0000009155274,10|8|4,3:0|3:0|3:0,0:0:0:0:
313,236,144065,1,10,3:0:0:0:
313,236,144219,2,0,L|251:246,1,48.0000018310548,6|8,3:0|3:0,0:0:0:0:
209,315,144526,5,6,3:0:0:0:
131,266,144680,2,0,P|115:223|108:173,1,96.0000036621095,10|6,3:0|3:0,0:0:0:0:
121,144,145065,1,4,3:0:0:0:
121,144,145142,2,0,P|167:159|222:171,1,96.0000036621095,6|6,3:0|3:0,0:0:0:0:
337,35,145757,6,0,P|364:76|377:130,1,96.0000036621095,6|6,3:0|3:0,0:0:0:0:
438,174,146219,2,0,L|472:167,2,24.0000009155274,10|8|4,3:0|3:0|3:0,0:0:0:0:
392,241,146526,1,10,3:0:0:0:
392,241,146680,2,0,L|382:292,1,48.0000018310548,6|8,3:0|3:0,0:0:0:0:
308,342,146988,5,6,3:0:0:0:
308,342,147142,2,0,P|296:297|275:248,1,96.0000036621095,6|10,3:0|3:0,0:0:0:0:
206,192,147603,1,4,3:0:0:0:
115,207,147757,1,8,3:0:0:0:
58,279,147911,1,6,3:2:0:0:
226,371,148219,6,0,B|265:380|295:353|286:347|320:322|363:334,2,144.000005493164,6|10|6,3:2|3:0|3:0,0:0:0:0:
171,310,149296,1,8,3:0:0:0:
228,240,149449,5,4,3:0:0:0:
228,240,149757,1,4,3:0:0:0:
298,199,149911,2,0,L|304:169,2,24.0000009155274,4|4|4,3:0|3:0|3:0,0:0:0:0:
363,248,150219,2,0,P|385:243|417:233,2,48.0000018310548,4|6|4,3:0|3:0|3:0,0:0:0:0:
350,347,150680,6,0,L|453:365,1,96.0000036621095,6|4,3:2|3:0,0:0:0:0:
505,302,151142,1,6,3:0:0:0:
505,302,151219,1,4,3:0:0:0:
505,302,151296,2,0,L|493:246,1,48.0000018310548,4|4,3:0|3:0,0:0:0:0:
433,201,151603,2,0,L|445:145,1,48.0000018310548,6|4,3:0|3:0,0:0:0:0:
498,93,151911,5,12,2:0:0:0:
342,17,152219,1,10,2:0:0:0:
211,127,152526,2,0,P|165:119|114:102,1,96.0000036621095,10|10,2:0|2:0,0:0:0:0:
38,65,152988,1,10,2:0:0:0:
38,65,153065,1,8,2:0:0:0:
38,65,153142,6,0,P|14:112|32:185,1,128,14|0,2:0|3:2,0:0:0:0:
15,273,153603,2,0,P|62:231|131:212,1,128,10|0,2:0|3:2,0:0:0:0:
200,259,154065,2,0,L|213:328,1,64,10|0,2:0|3:2,0:0:0:0:
291,363,154372,5,2,3:2:0:0:
378,343,154526,1,12,2:0:0:0:
491,203,154834,1,2,3:2:0:0:
491,203,154988,2,0,P|432:189|386:137,1,128,8|10,2:0|2:0,0:0:0:0:
308,47,155449,1,0,3:2:0:0:
308,47,155526,1,0,3:2:0:0:
308,47,155603,6,0,B|208:66|208:66|236:86,1,128,14|0,2:0|3:2,0:0:0:0:
276,182,156065,2,0,P|273:248|257:315,1,128,10|0,2:0|3:2,0:0:0:0:
149,341,156526,2,0,P|135:309|127:272,1,64,14|0,2:0|3:2,0:0:0:0:
149,190,156834,5,2,3:2:0:0:
46,226,156988,1,12,2:0:0:0:
17,46,157296,1,2,3:2:0:0:
17,46,157449,2,0,P|74:72|152:73,1,128,8|10,2:0|2:0,0:0:0:0:
203,13,157911,1,0,3:2:0:0:
301,40,158065,6,0,P|273:71|256:180,1,128,14|8,2:0|2:0,0:0:0:0:
298,229,158526,2,0,L|372:211,1,64,2|0,2:0|3:2,0:0:0:0:
442,251,158834,1,0,3:2:0:0:
463,163,158988,2,0,B|466:130|466:130|449:100,1,64,10|0,2:0|2:0,0:0:0:0:
453,12,159296,6,0,P|429:66|360:58,1,128,2|8,3:2|2:0,0:0:0:0:
270,30,159757,2,0,P|277:93|301:158,1,128,2|0,2:0|3:2,0:0:0:0:
363,215,160219,1,8,2:0:0:0:
244,349,160526,6,0,P|193:364|107:367,1,128,6|10,2:0|2:0,0:0:0:0:
55,303,160988,1,0,3:2:0:0:
82,217,161142,2,0,P|109:232|133:262,1,64,10|0,2:0|3:2,0:0:0:0:
209,192,161449,1,10,2:0:0:0:
262,288,161603,1,0,3:2:0:0:
262,288,161680,1,0,3:2:0:0:
262,288,161757,6,0,L|368:268,1,96,10|0,2:0|3:2,0:0:0:0:
382,294,162065,2,0,L|408:189,1,96,10|0,2:0|3:2,0:0:0:0:
395,167,162372,1,10,2:0:0:0:
306,115,162526,1,10,2:0:0:0:
393,61,162680,1,10,2:0:0:0:
300,15,162834,5,14,2:0:0:0:
187,39,167142,5,0,3:2:0:0:
187,39,167219,1,0,3:2:0:0:
187,39,167296,2,0,L|121:22,2,64,14|2|0,2:0|2:0|0:0,0:0:0:0:
264,102,167757,6,0,P|282:177|351:205,1,144.640000441406,6|0,3:2|3:2,0:0:0:0:
411,144,168219,2,0,B|413:107|413:107|401:72,1,72.3200002207031,10|0,2:0|2:0,0:0:0:0:
331,11,168526,1,2,3:2:0:0:
257,69,168680,1,2,3:2:0:0:
170,31,168834,1,10,2:0:0:0:
83,67,168988,6,0,P|49:135|46:208,1,144.640000441406,2|2,2:0|2:0,0:0:0:0:
80,290,169449,1,8,2:0:0:0:
252,213,169757,1,0,3:2:0:0:
332,262,169911,2,0,L|375:255,2,36.1600001103516,10|8|10,2:0|2:0|2:0,0:0:0:0:
245,329,170219,6,0,P|308:346|387:362,1,144.640000441406,6|2,3:2|3:2,0:0:0:0:
474,330,170680,2,0,P|485:293|488:249,1,72.3200002207031,10|2,2:0|2:0,0:0:0:0:
449,172,170988,1,2,3:2:0:0:
459,71,171142,2,0,P|425:88|384:93,1,72.3200002207031,2|10,2:0|2:0,0:0:0:0:
317,35,171449,6,0,P|262:81|285:151,1,144.640000441406,2|2,3:2|3:2,0:0:0:0:
210,211,171911,2,0,P|182:187|135:190,1,72.3200002207031,10|2,2:0|2:0,0:0:0:0:
76,247,172219,1,2,3:2:0:0:
128,324,172372,2,0,P|162:315|203:301,1,72.3200002207031,2|10,3:2|2:0,0:0:0:0:
256,376,172680,6,0,P|234:323|289:267,1,144.640000441406,6|0,3:2|3:2,0:0:0:0:
381,302,173142,1,8,2:0:0:0:
381,302,173449,2,0,L|452:286,1,72.3200002207031,10|2,2:0|3:2,0:0:0:0:
493,200,173757,2,0,L|477:129,1,72.3200002207031,8|2,2:0|3:2,0:0:0:0:
416,47,174065,6,0,P|385:94|293:91,1,144.640000441406,8|8,2:0|2:0,0:0:0:0:
213,68,174526,2,0,L|202:30,2,36.1600001103516,2|0|10,3:2|3:2|2:0,0:0:0:0:
160,141,174834,1,10,2:0:0:0:
160,141,174911,1,8,2:0:0:0:
160,141,174988,1,8,2:0:0:0:
57,232,175142,6,0,P|71:177|8:110,1,144.640000441406,6|0,3:2|3:2,0:0:0:0:
61,28,175603,2,0,P|97:26|136:11,1,72.3200002207031,10|0,2:0|2:0,0:0:0:0:
214,60,175911,2,0,P|231:126|244:207,1,144.640000441406,2|10,3:2|2:0,0:0:0:0:
202,302,176372,6,0,P|250:251|321:252,1,144.640000441406,2|0,3:2|3:2,0:0:0:0:
356,338,176833,1,10,2:0:0:0:
479,135,177142,1,2,3:2:0:0:
479,135,177296,2,0,L|464:210,1,72.3200002207031,2|8,3:2|2:0,0:0:0:0:
368,156,177603,6,0,P|378:228|426:289,1,144.640000441406,6|0,3:2|3:2,0:0:0:0:
369,365,178065,2,0,P|338:351|291:341,1,72.3200002207031,10|0,2:0|2:0,0:0:0:0:
208,360,178372,2,0,P|194:327|206:284,1,72.3200002207031,2|2,3:2|3:2,0:0:0:0:
263,220,178680,1,10,2:0:0:0:
206,143,178834,6,0,P|137:125|59:112,1,144.640000441406,2|2,2:0|2:0,0:0:0:0:
97,209,179296,1,8,2:0:0:0:
200,35,179603,2,0,P|235:19|283:12,1,72.3200002207031,0|10,3:2|2:0,0:0:0:0:
308,27,179834,1,8,2:0:0:0:
308,27,179911,1,10,2:0:0:0:
416,20,180065,6,0,P|384:73|365:157,1,144.640000441406,6|2,3:2|3:2,0:0:0:0:
411,235,180526,1,10,2:0:0:0:
325,274,180680,2,0,P|288:265|254:246,2,72.3200002207031,2|2|2,2:0|3:2|2:0,0:0:0:0:
368,358,181142,1,10,2:0:0:0:
454,320,181296,6,0,P|474:254|445:187,1,144.640000441406,2|2,3:2|3:2,0:0:0:0:
483,85,181757,2,0,L|402:103,1,72.3200002207031,10|0,2:0|2:0,0:0:0:0:
347,31,182065,2,0,P|320:18|273:17,1,72.3200002207031,2|0,3:2|3:2,0:0:0:0:
211,81,182372,1,10,2:0:0:0:
321,123,182526,6,0,P|336:157|348:199,1,72.3200002207031,6|8,3:2|3:0,0:0:0:0:
309,282,182834,1,8,3:0:0:0:
309,282,182911,1,8,3:0:0:0:
309,282,182988,2,0,B|263:292|241:305|241:305|233:278|199:235,1,144.640000441406,8|8,3:0|3:0,0:0:0:0:
174,153,183449,2,0,P|157:140|134:136,2,36.1600001103516,8|8|8,3:0|3:0|3:0,0:0:0:0:
268,120,183757,1,8,3:0:0:0:
268,120,183834,1,8,3:0:0:0:
268,120,183911,5,12,3:2:0:0:
360,161,184834,1,10,2:0:0:0:
360,161,184911,1,10,2:0:0:0:
360,161,184988,6,0,P|421:157|492:135,1,128,6|0,3:2|3:2,0:0:0:0:
442,238,185449,2,0,P|433:277|429:306,1,64,10|0,2:0|3:2,0:0:0:0:
364,362,185757,1,2,3:2:0:0:
297,302,185911,2,0,P|235:310|196:358,1,128,2|2,3:2|2:0,0:0:0:0:
130,297,186372,6,0,B|104:279|104:279|64:282,2,64,2|2|10,3:2|2:0|2:0,0:0:0:0:
193,221,186834,2,0,P|189:163|175:87,1,128,2|2,2:0|3:2,0:0:0:0:
150,8,187296,1,8,2:0:0:0:
262,77,187449,6,0,P|325:71|367:22,1,128,6|2,3:2|3:2,0:0:0:0:
456,27,187911,2,0,P|473:86|488:162,1,128,10|2,2:0|3:2,0:0:0:0:
498,240,188372,2,0,P|485:267|475:305,1,64,2|8,3:2|2:0,0:0:0:0:
410,360,188680,1,2,2:0:0:0:
410,360,188757,1,2,2:0:0:0:
410,360,188834,6,0,P|358:331|286:356,1,128,2|10,3:2|2:0,0:0:0:0:
217,300,189296,2,0,P|206:264|183:239,1,64,2|0,2:0|3:2,0:0:0:0:
220,156,189603,2,0,L|268:141,2,32,2|8|10,3:2|2:0|2:0,0:0:0:0:
140,87,189911,6,0,B|174:30|174:30|222:66,1,128,6|2,3:2|3:2,0:0:0:0:
316,23,190372,2,0,P|310:54|326:93,1,64,10|2,2:0|2:0,0:0:0:0:
401,123,190680,1,2,3:2:0:0:
502,271,190988,2,0,P|499:302|474:336,1,64,10|2,2:0|2:0,0:0:0:0:
396,359,191296,6,0,P|371:303|302:268,1,128,2|10,3:2|2:0,0:0:0:0:
241,321,191757,1,2,3:2:0:0:
185,249,191911,2,0,P|174:216|173:180,2,64,2|2|10,3:2|3:2|2:0,0:0:0:0:
85,221,192372,6,0,P|86:159|135:105,1,128,6|2,3:2|3:2,0:0:0:0:
123,19,192834,2,0,P|153:32|192:40,1,64,10|2,2:0|3:2,0:0:0:0:
271,22,193142,2,0,P|286:55|289:92,1,64,10|0,2:0|3:2,0:0:0:0:
366,128,193449,2,0,B|357:159|357:159|329:190,1,64,14|2,2:0|2:0,0:0:0:0:
361,269,193757,6,0,L|476:243,1,96,2|8,3:2|3:2,0:0:0:0:
483,269,194065,1,8,3:2:0:0:
507,182,194219,1,8,2:0:0:0:
507,182,194296,1,8,2:0:0:0:
507,182,194372,1,10,2:0:0:0:
452,110,194526,2,0,L|466:76,2,32,10|10|10,2:0|2:0|2:0,0:0:0:0:
386,5,194834,6,0,P|366:62|297:45,1,128,14|2,2:0|3:2,0:0:0:0:
235,15,195296,2,0,P|218:81|211:141,1,128,10|2,2:0|3:2,0:0:0:0:
251,220,195757,1,2,2:0:0:0:
78,328,196065,1,2,2:0:0:0:
78,328,196142,1,2,2:0:0:0:
78,328,196219,6,0,P|71:292|65:254,1,64,2|2,3:2|2:0,0:0:0:0:
30,183,196526,1,10,2:0:0:0:
136,206,196680,2,0,P|197:192|266:166,1,128,2|2,2:0|3:2,0:0:0:0:
276,81,197142,1,8,2:0:0:0:
202,13,197296,6,0,P|185:69|189:146,1,128,6|2,3:2|3:2,0:0:0:0:
112,197,197757,2,0,P|161:235|194:301,1,128,10|2,2:0|3:2,0:0:0:0:
258,352,198219,2,0,P|290:351|321:346,1,64,2|8,2:0|2:0,0:0:0:0:
398,293,198526,1,2,2:0:0:0:
398,293,198603,1,2,2:0:0:0:
398,293,198680,6,0,P|416:266|455:252,2,64,2|2|8,3:2|2:0|2:0,0:0:0:0:
365,195,199142,2,0,P|332:131|295:79,1,128,2|2,2:0|2:0,0:0:0:0:
274,66,199526,1,8,2:0:0:0:
274,66,199603,1,8,2:0:0:0:
360,10,199757,6,0,P|421:24|483:47,1,128,6|2,3:2|3:2,0:0:0:0:
433,122,200219,2,0,P|425:151|422:191,1,64,10|2,2:0|2:0,0:0:0:0:
440,272,200526,1,2,3:2:0:0:
351,287,200680,2,0,P|328:269|304:225,2,64,2|10|2,2:0|2:0|2:0,0:0:0:0:
322,372,201142,5,2,3:2:0:0:
238,339,201296,2,0,P|208:344|173:365,2,64,2|10|2,2:0|2:0|2:0,0:0:0:0:
191,262,201757,1,2,3:2:0:0:
166,175,201911,1,2,3:2:0:0:
225,107,202065,2,0,B|256:90|256:90|293:90,1,64,14|0,2:0|3:2,0:0:0:0:
385,131,202372,5,14,2:0:0:0:
306,174,202526,2,0,L|292:218,2,32,8|8|8,3:0|3:0|3:0,0:0:0:0:
385,131,202834,1,12,2:0:0:0:
433,206,202988,2,0,L|447:250,2,32,8|8|8,3:0|3:0|3:0,0:0:0:0:
490,136,203296,1,10,2:0:0:0:
490,136,203372,1,8,2:0:0:0:
490,136,203449,6,0,P|468:66|302:52,1,256,6|0,3:2|2:0,0:0:0:0:
271,129,204834,5,6,2:0:0:0:
256,192,204988,12,0,209757,2:0:0:0:
