osu file format v14

[General]
AudioFilename: audio.mp3
AudioLeadIn: 0
PreviewTime: 112757
Countdown: 0
SampleSet: Soft
StackLeniency: 0.7
Mode: 0
LetterboxInBreaks: 0
WidescreenStoryboard: 1

[Editor]
Bookmarks: 54911,55065,55219,55296,55372,55449,55603,55680,55834,55911,55988,56065,56142,56219,56296,56372,56526,56680,84526,84680,84834,84988,85219,85372,85526,85680,85834,85988,86142,86296,86526,86680,86834,86988,87219,87372,87526,87680,87834,87988,109065,109219,109372,109526,109757,109911,110065,110219,110449,110603,110757,133680,133911,133988,134065,134219,134296,134372,134526,134680,134834,135065,135219,135296,135372,135526,135680,135834,136065,136219,136449,136603,136680,136757,136988,137142,137219,137372,137449,137526,137757,137911,137988,138142,138219,138296,138449,138526,138680,138911,138988,139065,139219,139296,139449,139526,139680,139757,139911,139988,140065,140296,140449,140526,140603,140757,140834,140988,141219,141296,141372,141526,141603,141757,141834,141911,141988,142065,142296,142449,142526,142603,142757,163372,163526,163680,163834,163988,164142,164296,164449,164603,164757
DistanceSpacing: 0.2
BeatDivisor: 3
GridSize: 8
TimelineZoom: 3.199999

[Metadata]
Title:LOUDER
TitleUnicode:LOUDER
Artist:Roselia
ArtistUnicode:Roselia
Creator:SkyFlame
Version:EVEN LOUDER
Source:バンドリ!ガールズバンドパーティ!
Tags:semifinals sf owc osu! world cup 2019 nm1 Event Garupa Bandori BanG Dream! ガルパ! Girls Band Party! Minato Yukina 湊友希那 Hikawa Sayo 氷川紗夜 Imai Lisa 今井リサ Udagawa Ako 宇田川あこ Shirogane Rinko 白金燐子 ロゼリア Aiba Aina 相羽あいな Akesaka Satomi 明坂聡美 Endou Yurika 遠藤ゆりか Kudou Haruka 工藤晴香 Sakuragawa Megu 桜川めぐ BLACK SHOUT Full ver. Version japanese video game female vocal Cynplytholowazy Hinsvar Mocaotic Ayucchi Amateurre newton- seolv [_L_u_k_a_s_] lukas
BeatmapID:2173926
BeatmapSetID:1040095

[Difficulty]
HPDrainRate:6
CircleSize:4.2
OverallDifficulty:9.2
ApproachRate:9.4
SliderMultiplier:1.9
SliderTickRate:1

[Events]
//Background and Video events
0,0,"bg.jpg",0,0
//Break Periods
2,54880,56294
2,84419,87832
2,109034,110448
2,133649,142448
2,163034,164294
//Storyboard Layer 0 (Background)
//Storyboard Layer 1 (Fail)
//Storyboard Layer 2 (Pass)
//Storyboard Layer 3 (Foreground)
//Storyboard Layer 4 (Overlay)
//Storyboard Sound Samples

[TimingPoints]
-704,307.692307692308,4,2,1,60,1,0
526,-133.333333333333,4,2,1,60,0,0
5449,-117.647058823529,4,2,1,65,0,0
7911,-117.647058823529,4,2,1,70,0,0
9142,-111.111111111111,4,2,1,65,0,0
10065,-83.3333333333333,4,2,1,65,0,0
10219,-90.9090909090909,4,2,1,75,0,0
10449,-90.9090909090909,4,2,1,5,0,0
10526,-90.9090909090909,4,2,1,75,0,0
20295,-90.9090909090909,4,2,1,5,0,0
20372,-90.9090909090909,4,2,1,75,0,0
28680,-133.333333333333,4,2,1,60,0,0
29449,-100,4,2,1,65,0,0
30065,-100,4,2,1,60,0,0
30372,-111.111111111111,4,2,1,60,0,0
39911,-111.111111111111,4,2,1,65,0,0
40219,-100,4,2,1,65,0,0
49757,-100,4,2,1,60,0,0
50219,-117.647058823529,4,2,1,60,0,0
54680,-117.647058823529,4,2,1,55,0,0
56834,-117.647058823529,4,2,1,70,0,0
56988,-100,4,2,1,70,0,0
58372,-133.333333333333,4,2,1,65,0,0
58988,-133.333333333333,4,2,1,75,0,0
59142,-100,4,2,1,75,0,0
59372,-100,4,2,1,5,0,0
59449,-83.3333333333333,4,2,1,85,0,1
69219,-83.3333333333333,4,2,1,85,0,0
69296,-83.3333333333333,4,2,1,85,0,1
78065,-83.3333333333333,4,2,1,55,0,0
79296,-83.3333333333333,4,2,1,80,0,0
83757,-100,4,2,1,80,0,0
84219,-100,4,2,1,55,0,0
89142,-100,4,2,1,60,0,0
91603,-100,4,2,1,70,0,0
92680,-100,4,2,1,75,0,0
93757,-83.3333333333333,4,2,1,75,0,0
94065,-83.3333333333333,4,2,1,80,0,0
98834,-100,4,2,1,76,0,0
103911,-100,4,2,1,70,0,0
108834,-100,4,2,1,50,0,0
110988,-100,4,2,1,70,0,0
111296,-100,4,2,1,75,0,0
112680,-100,4,2,1,78,0,0
113142,-100,4,2,1,82,0,0
113603,-83.3333333333333,4,2,1,85,0,1
123372,-83.3333333333333,4,2,1,85,0,0
123449,-83.3333333333333,4,2,1,85,0,1
132219,-133.333333333333,4,2,1,60,0,0
133449,-83.3333333333333,4,2,1,50,0,0
142988,-83.3333333333333,4,2,1,60,0,0
143296,-83.3333333333333,4,2,1,65,0,0
147911,-117.64705882353,4,2,1,65,0,0
151911,-117.64705882353,4,2,1,70,0,0
153142,-117.64705882353,4,2,1,84,0,0
154372,-117.64705882353,4,2,1,80,0,0
155603,-117.64705882353,4,2,1,84,0,0
156834,-117.64705882353,4,2,1,80,0,0
158065,-83.3333333333333,4,2,1,84,0,0
159296,-90.9090909090909,4,2,1,82,0,0
160526,-100,4,2,1,85,0,0
162834,-100,4,2,1,80,0,0
164834,-153.846153846153,4,2,1,40,0,0
165296,-133.333333333333,4,2,1,40,0,0
165757,-153.846153846153,4,2,1,40,0,0
166834,-153.846153846153,4,2,1,5,0,0
167142,-153.846153846153,4,2,1,80,0,0
167449,-125,4,2,1,80,0,0
167679,-125,4,2,1,5,0,0
167757,-76.9230769230769,4,2,1,87,0,1
175065,-76.9230769230769,4,2,1,87,0,0
175142,-76.9230769230769,4,2,1,87,0,1
184988,-90.9090909090909,4,2,1,75,0,0
185218,-90.9090909090909,4,2,1,5,0,0
185296,-90.9090909090909,4,2,1,75,0,0
187679,-90.9090909090909,4,2,1,5,0,0
187757,-90.9090909090909,4,2,1,75,0,0
190141,-90.9090909090909,4,2,1,5,0,0
190219,-90.9090909090909,4,2,1,75,0,0
195064,-90.9090909090909,4,2,1,5,0,0
195142,-90.9090909090909,4,2,1,75,0,0
197526,-90.9090909090909,4,2,1,5,0,0
197603,-90.9090909090909,4,2,1,75,0,0
203449,-133.333333333333,4,2,1,70,0,0
204834,-133.333333333333,4,2,1,65,0,0
206065,-133.333333333333,4,2,1,60,0,0
207296,-133.333333333333,4,2,1,55,0,0
208526,-133.333333333333,4,2,1,50,0,0
209757,-133.333333333333,4,2,1,5,0,0

[Colours]
Combo1 : 153,67,160
Combo2 : 244,244,138
Combo3 : 108,179,242
Combo4 : 155,128,115
SliderBorder : 172,141,209

[HitObjects]
136,114,372,5,0,3:2:0:0:
136,114,449,1,0,3:2:0:0:
136,114,526,2,0,P|112:155|155:264,1,142.820630435944,14|0,2:0|2:0,2:0:0:0:
197,181,988,2,0,L|339:195,1,142.820630435944,0|0,2:0|2:0,2:0:0:0:
390,259,1449,2,0,P|415:234|422:200,1,71.641877717972,0|0,2:0|2:0,2:0:0:0:
361,54,1757,6,0,L|336:212,1,142.820630435944,10|0,2:0|2:0,2:0:0:0:
190,320,2219,2,0,B|170:278|170:278|199:169,1,142.820630435944,8|0,2:3|2:0,2:0:0:0:
334,285,2680,2,0,L|253:266,1,71.641877717972,4|0,2:3|2:0,2:0:0:0:
418,248,2988,6,0,P|425:296|364:375,1,142.820630435944,6|0,2:0|2:0,2:0:0:0:
237,269,3449,1,0,2:0:0:0:
237,269,3603,2,0,L|224:187,1,71.641877717972,0|0,2:0|2:0,2:0:0:0:
355,125,3911,2,0,L|343:195,1,71.641877717972,0|0,2:0|2:0,2:0:0:0:
209,42,4219,1,10,2:0:0:0:
385,44,4372,6,0,P|434:87|442:122,1,71.641877717972,0|0,2:3|2:0,2:0:0:0:
442,272,4680,2,0,P|417:217|330:198,1,142.820630435944,8|8,2:3|2:3,2:0:0:0:
247,313,5142,1,0,2:0:0:0:
135,188,5296,1,4,2:3:0:0:
135,188,5372,1,4,2:3:0:0:
135,188,5449,6,0,P|91:211|44:209,1,81.1941265401841,4|0,3:2|2:0,2:0:0:0:
231,89,5757,2,0,L|322:110,1,81.1941265401841,2|0,3:2|2:0,2:0:0:0:
114,88,6065,2,0,P|91:44|93:-3,1,81.1941265401841,2|0,3:2|2:0,2:0:0:0:
234,193,6372,2,0,L|213:284,1,81.1941265401841,2|0,3:2|2:0,2:0:0:0:
135,188,6680,5,2,3:2:0:0:
135,188,6834,1,0,2:0:0:0:
328,259,6988,5,2,3:2:0:0:
328,259,7142,1,0,2:0:0:0:
310,107,7296,5,2,3:2:0:0:
215,272,7449,1,0,2:0:0:0:
329,122,7603,5,2,3:2:0:0:
195,256,7757,1,0,2:0:0:0:
398,304,7911,5,14,2:0:0:0:
438,294,7988,1,8,2:0:0:0:
473,272,8065,1,8,2:0:0:0:
498,238,8142,1,8,2:0:0:0:
511,198,8219,1,10,2:0:0:0:
510,157,8296,1,8,2:0:0:0:
496,118,8372,1,8,2:0:0:0:
469,86,8449,1,8,2:0:0:0:
434,65,8526,5,10,2:0:0:0:
392,56,8603,1,8,2:0:0:0:
351,61,8680,1,8,2:0:0:0:
313,80,8757,1,8,2:0:0:0:
284,111,8834,1,10,2:0:0:0:
251,134,8911,1,8,2:0:0:0:
211,143,8988,1,8,2:0:0:0:
171,136,9065,1,8,2:0:0:0:
135,115,9142,6,0,P|144:64|150:6,2,85.6923723907473,10|2|2,2:0|2:0|2:0,2:0:0:0:
201,219,9603,2,0,P|192:270|186:328,2,85.6923723907473,2|2|2,2:0|2:0|2:0,2:0:0:0:
313,80,10065,6,0,P|286:69|258:66,1,57.6839982604982,2|2,2:0|2:0,2:0:0:0:
102,186,10219,6,0,P|166:126|141:33,1,157.272504783631,6|0,3:2|2:0,2:0:0:0:
147,30,10526,1,0,3:2:0:0:
283,202,10680,2,0,P|335:210|390:211,1,105.074753189087,10|0,2:0|3:2,2:0:0:0:
487,72,10988,1,2,3:2:0:0:
405,322,11142,1,2,3:2:0:0:
317,100,11296,1,8,2:0:0:0:
202,275,11449,2,0,L|183:215,1,52.8770015945436,2|2,2:0|2:0,2:0:0:0:
192,76,11603,5,2,3:2:0:0:
49,204,11757,1,2,2:0:0:0:
286,295,11911,1,10,2:0:0:0:
115,131,12065,2,0,P|40:105|4:84,1,105.074753189087,2|0,2:0|3:2,2:0:0:0:
305,209,12372,2,0,P|380:183|416:162,1,105.074753189087,2|8,3:2|2:0,2:0:0:0:
208,99,12680,6,0,L|187:201,1,105.074753189087,6|0,3:2|2:0,2:0:0:0:
261,366,12988,1,2,3:2:0:0:
94,237,13142,2,0,P|23:244|-18:262,1,105.074753189087,10|0,2:0|2:0,2:0:0:0:
125,359,13449,1,2,3:2:0:0:
305,209,13603,1,2,3:2:0:0:
77,149,13757,1,8,2:0:0:0:
183,281,13911,6,0,P|202:258|212:233,1,52.8770015945436,2|2,2:0|2:0,2:0:0:0:
168,65,14065,1,2,3:2:0:0:
335,129,14219,1,2,2:0:0:0:
81,34,14372,1,10,2:0:0:0:
399,76,14526,6,0,P|415:127|403:183,1,105.074753189087,2|0,2:0|3:2,2:0:0:0:
210,237,14834,1,2,3:2:0:0:
452,309,14988,1,10,2:0:0:0:
202,136,15142,6,0,L|182:25,1,105.074753189087,6|0,3:2|2:0,2:0:0:0:
306,166,15449,1,2,3:2:0:0:
99,220,15603,1,10,2:0:0:0:
333,257,15757,1,2,2:0:0:0:
152,139,15911,1,2,3:2:0:0:
353,81,16065,1,2,2:0:0:0:
189,247,16219,1,10,2:0:0:0:
421,285,16372,1,2,2:0:0:0:
258,37,16526,5,2,3:2:0:0:
224,336,16680,1,2,2:0:0:0:
353,81,16834,1,10,2:0:0:0:
365,374,16988,1,2,2:0:0:0:
152,140,17142,1,2,3:2:0:0:
443,126,17296,1,2,3:2:0:0:
208,293,17449,1,10,2:0:0:0:
441,40,17603,6,0,P|514:85|491:205,1,209.470256378174,6|2,3:2|3:2,2:0:0:0:
479,220,17988,1,0,3:2:0:0:
461,235,18065,5,10,2:0:0:0:
196,140,18219,1,2,3:2:0:0:
443,126,18372,5,10,2:0:0:0:
236,320,18526,1,0,3:2:0:0:
169,38,18680,5,14,2:0:0:0:
328,237,18834,1,2,3:2:0:0:
38,261,18988,5,2,3:2:0:0:
263,32,19142,1,8,2:0:0:0:
303,48,19219,1,8,3:2:0:0:
324,89,19296,1,8,3:2:0:0:
318,135,19372,1,8,2:0:0:0:
286,168,19449,1,8,2:0:0:0:
254,201,19526,1,8,2:0:0:0:
248,247,19603,1,10,2:0:0:0:
269,288,19680,1,10,2:0:0:0:
309,309,19757,1,10,2:0:0:0:
355,304,19834,1,10,2:0:0:0:
388,273,19911,2,0,P|416:265|445:263,1,52.8770015945436,10|10,2:0|2:0,2:0:0:0:
512,327,20065,6,0,B|504:235|448:274|441:167,1,157.272504783631,14|0,2:0|2:0,2:0:0:0:
437,156,20372,1,2,3:2:0:0:
265,65,20526,2,0,L|289:183,1,105.074753189087,10|0,2:0|2:0,2:0:0:0:
423,49,20834,1,2,3:2:0:0:
387,272,20988,1,2,2:0:0:0:
184,128,21142,1,8,2:0:0:0:
132,303,21296,2,0,L|188:282,1,52.8770015945436,2|2,2:0|2:0,2:0:0:0:
158,150,21449,6,0,L|43:98,1,105.074753189087,2|2,3:2|2:0,2:0:0:0:
56,323,21757,1,10,2:0:0:0:
274,144,21911,2,0,P|248:69|227:33,1,105.074753189087,2|0,2:0|3:2,2:0:0:0:
0,238,22219,2,0,P|77:218|118:216,1,105.074753189087,2|8,3:2|2:0,2:0:0:0:
283,305,22526,6,0,L|181:284,1,105.074753189087,6|0,3:2|2:0,2:0:0:0:
356,179,22834,1,2,3:2:0:0:
427,353,22988,2,0,L|386:254,1,105.074753189087,10|0,2:0|2:0,2:0:0:0:
207,202,23296,1,2,3:2:0:0:
443,151,23449,1,2,2:0:0:0:
294,286,23603,1,8,2:0:0:0:
220,80,23757,1,2,2:0:0:0:
220,58,23834,1,2,2:0:0:0:
221,37,23911,5,2,3:2:0:0:
317,189,24065,1,2,2:0:0:0:
99,63,24219,1,8,2:0:0:0:
364,89,24372,2,0,P|413:74|471:58,1,105.074753189087,2|0,2:0|3:2,2:0:0:0:
224,215,24680,1,2,2:0:0:0:
183,203,24757,1,8,2:0:0:0:
143,191,24834,1,8,2:0:0:0:
327,282,24988,6,0,P|401:216|378:119,1,209.470256378174,6|2,3:2|3:2,2:0:0:0:
121,274,25449,1,10,2:0:0:0:
317,189,25603,1,2,2:0:0:0:
87,151,25757,1,2,3:2:0:0:
300,287,25911,1,2,2:0:0:0:
56,341,26065,1,10,2:0:0:0:
232,161,26219,1,2,2:0:0:0:
21,128,26372,1,2,3:2:0:0:
163,375,26526,5,2,2:0:0:0:
197,70,26680,1,10,2:0:0:0:
56,341,26834,1,2,2:0:0:0:
55,48,26988,1,2,3:2:0:0:
265,281,27142,1,2,3:2:0:0:
0,277,27296,1,14,2:0:0:0:
211,106,27449,1,0,3:2:0:0:
199,349,27603,5,14,2:0:0:0:
241,367,27680,1,8,3:0:0:0:
288,364,27757,1,8,3:0:0:0:
326,340,27834,1,8,3:0:0:0:
349,300,27911,1,8,3:0:0:0:
373,260,27988,1,8,3:0:0:0:
413,236,28065,1,12,2:0:0:0:
458,233,28142,1,8,3:0:0:0:
500,251,28219,6,0,L|485:188,1,52.8770015945436,8|8,3:0|3:0,2:0:0:0:
483,42,28372,2,0,L|512:89,1,52.8770015945436,8|8,3:0|3:0,2:0:0:0:
434,329,28526,1,10,3:2:0:0:
215,114,28680,6,0,B|191:82|142:80|142:80|100:142|159:236|229:206,1,285.178135871888,6|0,3:2|2:0,2:0:0:0:
322,162,29449,2,0,L|339:106,1,48.0700000000001,2|0,2:0|2:0,2:0:0:0:
394,237,29603,2,0,L|452:235,1,48.0700000000001,2|0,3:2|3:2,2:0:0:0:
344,328,29757,2,0,L|359:372,1,48.0700000000001,10|0,2:0|2:0,2:0:0:0:
241,309,29911,2,0,L|202:337,1,48.0700000000001,2|0,2:0|2:0,2:0:0:0:
228,206,30065,5,2,3:2:0:0:
432,140,30219,1,2,3:2:0:0:
222,226,30372,2,0,L|108:194,1,85.9702473907473,10|0,2:0|2:0,2:0:0:0:
345,79,30680,1,8,2:0:0:0:
304,242,30834,1,2,2:0:0:0:
221,89,30988,1,10,2:0:0:0:
425,23,31142,1,2,2:0:0:0:
215,109,31296,6,0,L|101:77,1,85.9702473907473,10|2,2:0|2:0,2:0:0:0:
215,242,31603,1,10,2:0:0:0:
17,207,31757,2,0,L|131:175,1,85.9702473907473,2|8,2:0|2:0,2:0:0:0:
17,340,32065,1,2,3:2:0:0:
17,340,32142,1,0,3:2:0:0:
17,340,32219,1,8,2:0:0:0:
200,261,32372,1,2,3:2:0:0:
331,352,32526,6,0,P|376:368|432:369,1,85.9702473907473,8|2,2:0|2:0,2:0:0:0:
485,178,32834,2,0,P|440:194|384:195,1,85.9702473907473,8|0,2:0|3:2,2:0:0:0:
285,112,33142,1,8,2:0:0:0:
318,326,33296,1,2,3:2:0:0:
402,196,33449,1,10,2:0:0:0:
188,229,33603,1,2,3:2:0:0:
333,313,33757,6,0,L|317:195,1,85.9702473907473,10|0,2:0|2:0,2:0:0:0:
185,140,34065,1,10,2:0:0:0:
112,316,34219,1,2,3:2:0:0:
112,316,34296,1,0,3:2:0:0:
112,316,34372,1,8,2:0:0:0:
226,227,34526,1,2,3:2:0:0:
0,157,34680,1,8,2:0:0:0:
215,249,34834,1,2,3:2:0:0:
21,349,34988,5,14,2:0:0:0:
144,108,35142,1,0,3:2:0:0:
262,359,35296,2,0,L|359:340,1,85.9702473907473,8|0,2:0|2:0,2:0:0:0:
403,232,35603,1,8,2:0:0:0:
485,354,35757,1,2,3:2:0:0:
512,142,35911,1,10,2:0:0:0:
469,362,36065,1,2,3:2:0:0:
339,153,36219,6,0,P|287:120|238:115,1,85.9702473907473,8|0,2:0|2:0,2:0:0:0:
231,337,36526,1,8,2:0:0:0:
110,95,36680,1,0,3:2:0:0:
77,317,36834,1,10,2:0:0:0:
251,226,36988,1,2,3:2:0:0:
259,213,37065,1,0,3:2:0:0:
268,201,37142,1,10,2:0:0:0:
37,186,37296,6,0,P|104:208|148:209,1,85.9702473907473,2|12,3:2|2:0,2:0:0:0:
231,337,37603,1,2,2:0:0:0:
273,119,37757,1,8,2:0:0:0:
252,324,37911,2,0,L|241:227,1,85.9702473907473,2|8,2:0|2:0,2:0:0:0:
346,167,38219,1,2,3:2:0:0:
157,136,38372,1,8,2:0:0:0:
356,265,38526,6,0,P|414:284|459:279,1,85.9702473907473,2|8,3:2|2:0,2:0:0:0:
286,115,38834,1,2,3:2:0:0:
331,352,38988,1,8,2:0:0:0:
346,187,39142,1,2,3:2:0:0:
231,337,39296,1,0,3:2:0:0:
286,115,39449,5,2,3:2:0:0:
332,110,39526,1,0,3:2:0:0:
378,121,39603,1,8,2:0:0:0:
417,148,39680,1,8,2:0:0:0:
445,186,39757,1,0,3:2:0:0:
457,231,39834,1,0,3:2:0:0:
455,277,39911,5,6,3:2:0:0:
235,253,40065,1,2,2:0:0:0:
407,359,40219,2,0,L|311:341,1,95.5225000000001,10|0,2:0|2:0,2:0:0:0:
150,307,40526,1,2,3:2:0:0:
315,164,40680,5,2,2:0:0:0:
129,213,40834,1,10,2:0:0:0:
340,246,40988,1,2,2:0:0:0:
177,140,41142,1,2,3:2:0:0:
280,337,41296,1,2,2:0:0:0:
257,92,41449,1,10,2:0:0:0:
255,312,41603,1,2,2:0:0:0:
352,89,41757,5,2,3:2:0:0:
239,286,41911,1,2,2:0:0:0:
152,123,42065,1,10,2:0:0:0:
306,212,42219,2,0,P|381:186|417:165,1,95.5225000000001,2|0,2:0|3:2,2:0:0:0:
143,145,42526,2,0,P|68:171|32:192,1,95.5225000000001,2|8,2:0|2:0,2:0:0:0:
294,216,42834,1,0,2:0:0:0:
119,307,42988,1,0,3:2:0:0:
222,120,43142,5,2,2:0:0:0:
237,339,43296,1,10,2:0:0:0:
108,229,43449,1,2,2:0:0:0:
353,295,43603,1,2,3:2:0:0:
165,374,43757,1,2,2:0:0:0:
139,98,43911,1,10,2:0:0:0:
351,135,44065,2,0,L|266:177,1,95.5225000000001,2|0,2:0|3:2,2:0:0:0:
69,307,44372,2,0,L|153:349,1,95.5225000000001,2|8,2:0|2:0,2:0:0:0:
426,364,44680,6,0,P|441:273|379:205,1,190.4275,6|0,2:0|2:0,2:0:0:0:
237,339,45142,2,0,P|289:313|330:301,1,95.5225000000001,8|0,2:0|2:0,2:0:0:0:
173,227,45449,1,0,3:2:0:0:
327,99,45603,1,2,2:0:0:0:
343,316,45757,1,10,2:0:0:0:
164,127,45911,6,0,L|147:255,1,95,2|0,2:0|3:2,0:0:0:0:
373,170,46219,1,0,2:0:0:0:
234,29,46372,2,0,L|250:125,1,95,8|0,2:0|2:0,0:0:0:0:
95,77,46680,1,2,3:2:0:0:
327,99,46834,1,2,2:0:0:0:
139,242,46988,1,10,2:0:0:0:
267,23,47142,1,2,2:0:0:0:
413,173,47296,6,0,P|470:183|516:183,1,95.5225000000001,4|2,3:2|2:0,2:0:0:0:
290,343,47603,2,0,L|272:228,1,95.5225000000001,8|2,2:0|2:0,2:0:0:0:
41,205,47911,1,0,3:2:0:0:
273,139,48065,1,2,3:2:0:0:
134,215,48219,1,8,2:0:0:0:
259,46,48372,6,0,P|323:33|379:39,1,95.5225000000001,2|0,2:0|3:2,2:0:0:0:
155,205,48680,2,0,P|128:145|91:102,1,95.5225000000001,2|8,3:2|2:0,2:0:0:0:
347,213,48988,1,2,3:2:0:0:
337,247,49065,1,0,3:2:0:0:
327,281,49142,1,8,2:0:0:0:
77,360,49296,1,4,3:0:0:0:
134,254,49449,1,8,3:0:0:0:
252,234,49603,1,4,3:0:0:0:
376,365,49757,5,6,3:2:0:0:
459,119,49911,1,0,3:2:0:0:
252,234,50219,6,0,B|282:271|323:260|323:260|348:219|400:216,1,161.863378080368,14|0,2:0|2:0,2:0:0:0:
248,97,50680,5,0,3:2:0:0:
165,343,50834,1,0,3:2:0:0:
41,212,51142,6,0,B|71:175|112:186|112:186|137:227|189:230,1,161.863378080368,12|0,2:0|2:0,2:0:0:0:
252,321,51603,1,2,3:2:0:0:
283,333,51680,1,0,3:2:0:0:
316,337,51757,1,2,3:2:0:0:
350,334,51834,1,0,3:2:0:0:
381,322,51911,6,0,L|400:243,1,81.1941265401841,12|2,2:0|2:0,2:0:0:0:
435,107,52219,1,0,3:2:0:0:
512,328,52372,1,2,3:2:0:0:
321,154,52680,6,0,B|280:144|280:144|203:169|203:169|166:157,1,161.863378080368,14|2,2:0|2:0,2:0:0:0:
301,269,53142,1,0,3:2:0:0:
210,56,53296,1,2,3:2:0:0:
43,178,53603,6,0,B|33:218|33:218|58:295|58:295|46:332,1,161.863378080368,4|0,3:2|3:2,2:0:0:0:
37,360,53988,1,0,3:2:0:0:
37,360,54065,1,8,2:0:0:0:
212,235,54219,1,8,3:0:0:0:
94,254,54372,1,4,3:0:0:0:
336,365,54526,1,4,3:0:0:0:
287,281,54680,5,6,2:0:0:0:
343,311,56834,5,8,2:0:0:0:
343,311,56911,1,4,3:0:0:0:
343,311,56988,2,0,L|332:239,1,48.0700000000001,4|4,3:0|3:0,2:0:0:0:
355,100,57142,6,0,L|210:134,1,142.975,14|0,2:0|2:0,2:0:0:0:
181,144,57449,1,10,2:0:0:0:
194,370,57603,1,10,2:0:0:0:
194,370,57680,1,8,2:0:0:0:
194,370,57757,1,8,2:0:0:0:
221,327,57834,1,8,2:0:0:0:
232,279,57911,1,10,2:0:0:0:
230,230,57988,1,8,2:0:0:0:
211,183,58065,1,10,2:0:0:0:
181,144,58142,1,8,2:0:0:0:
138,115,58219,1,10,2:0:0:0:
90,103,58296,1,8,2:0:0:0:
42,104,58372,6,0,L|62:181,3,71.333127717972,14|2|2|2,2:0|2:0|2:0|2:0,2:0:0:0:
173,45,58988,1,2,2:0:0:0:
245,134,59142,2,0,P|288:155|384:124,1,142.975,2|0,2:0|2:0,2:0:0:0:
405,112,59449,6,0,L|352:351,1,228.512993041992,6|0,3:2|3:2,2:0:0:0:
161,160,59911,2,0,P|165:103|199:59,1,114.626996520996,10|0,2:0|2:0,2:0:0:0:
245,258,60219,1,2,3:2:0:0:
359,54,60372,1,0,3:2:0:0:
145,180,60526,1,10,2:0:0:0:
404,136,60680,6,0,P|473:225|511:332,1,228.512993041992,2|0,2:0|2:0,2:0:0:0:
242,287,61142,2,0,P|292:255|358:236,1,114.626996520996,8|0,2:0|2:0,2:0:0:0:
479,336,61449,1,2,3:2:0:0:
346,209,61603,1,2,3:2:0:0:
471,362,61757,1,8,2:0:0:0:
242,287,61911,6,0,P|230:173|254:62,1,228.512993041992,6|0,3:2|3:2,2:0:0:0:
458,205,62372,2,0,P|400:184|340:179,1,114.626996520996,10|0,2:0|2:0,2:0:0:0:
156,226,62680,1,2,3:2:0:0:
334,155,62834,1,2,3:2:0:0:
139,190,62988,1,10,2:0:0:0:
335,365,63142,2,0,P|353:300|363:251,1,114.626996520996,2|0,2:0|3:2,2:0:0:0:
213,98,63449,2,0,P|224:153|240:208,1,114.626996520996,2|8,2:0|2:0,2:0:0:0:
410,149,63757,1,0,2:0:0:0:
213,21,63911,1,0,3:2:0:0:
69,164,64065,1,10,2:0:0:0:
77,191,64142,1,8,2:0:0:0:
85,218,64219,1,10,2:0:0:0:
206,130,64372,6,0,P|114:64|2:46,1,228.512993041992,6|2,3:2|3:2,2:0:0:0:
161,256,64834,1,10,2:0:0:0:
213,21,64988,1,2,2:0:0:0:
263,197,65142,1,2,3:2:0:0:
296,27,65296,1,2,3:2:0:0:
367,261,65449,1,10,2:0:0:0:
378,32,65603,6,0,P|485:46|512:150,1,228.512993041992,2|2,3:2|3:2,2:0:0:0:
265,221,66065,1,10,2:0:0:0:
426,110,66219,1,2,2:0:0:0:
451,319,66372,1,2,3:2:0:0:
324,135,66526,1,2,3:2:0:0:
489,237,66680,1,10,2:0:0:0:
285,329,66834,6,0,B|223:326|173:286|162:224|162:224|142:238|144:272,1,228.512993041992,6|0,3:2|3:2,2:0:0:0:
127,296,67219,1,0,3:2:0:0:
117,318,67296,5,8,2:0:0:0:
409,191,67449,1,0,3:2:0:0:
43,151,67603,5,10,2:0:0:0:
292,291,67757,1,2,3:2:0:0:
217,24,67911,5,8,2:0:0:0:
106,338,68065,1,2,3:2:0:0:
93,0,68219,5,8,2:0:0:0:
204,314,68372,1,2,3:2:0:0:
372,7,68526,5,8,2:0:0:0:
292,291,68680,1,2,3:2:0:0:
287,11,68834,5,10,2:0:0:0:
414,295,68988,1,10,2:0:0:0:
414,295,69065,1,8,2:0:0:0:
414,295,69142,1,8,2:0:0:0:
146,146,69296,6,0,P|64:141|-4:258,1,228.512993041992,6|0,3:2|3:2,2:0:0:0:
256,178,69757,2,0,P|250:121|231:47,1,114.626996520996,10|0,2:0|2:0,2:0:0:0:
114,258,70065,1,2,3:2:0:0:
345,115,70219,1,0,3:2:0:0:
113,47,70372,1,10,2:0:0:0:
387,36,70526,6,0,P|427:80|320:208,1,228.512993041992,2|0,3:2|3:2,2:0:0:0:
122,159,70988,2,0,P|187:128|232:118,1,114.626996520996,10|0,2:0|2:0,2:0:0:0:
364,243,71296,1,2,3:2:0:0:
245,81,71449,1,2,3:2:0:0:
283,327,71603,1,8,2:0:0:0:
143,64,71757,6,0,P|29:132|46:227,1,228.512993041992,6|0,3:2|3:2,2:0:0:0:
238,229,72219,2,0,L|136:172,1,114.626996520996,10|0,2:0|2:0,2:0:0:0:
68,299,72526,1,2,3:2:0:0:
210,111,72680,1,2,3:2:0:0:
239,331,72834,1,10,2:0:0:0:
36,212,72988,6,0,P|24:159|31:91,1,114.626996520996,2|0,2:0|3:2,2:0:0:0:
326,168,73296,2,0,P|337:220|331:289,1,114.626996520996,2|8,2:0|2:0,2:0:0:0:
92,291,73603,1,0,2:0:0:0:
329,364,73757,1,0,3:2:0:0:
219,139,73911,1,10,2:0:0:0:
219,139,73988,1,8,2:0:0:0:
219,139,74065,1,10,2:0:0:0:
11,218,74219,6,0,B|101:203|101:203|168:233|168:233|230:223,1,228.512993041992,6|2,3:2|3:2,2:0:0:0:
341,119,74680,1,10,2:0:0:0:
301,326,74834,1,2,2:0:0:0:
492,215,74988,1,2,3:2:0:0:
314,298,75142,1,2,2:0:0:0:
242,94,75296,1,10,2:0:0:0:
431,301,75449,6,0,L|465:67,1,228.512993041992,2|2,3:2|3:2,2:0:0:0:
292,199,75911,1,10,2:0:0:0:
207,17,76065,1,0,2:0:0:0:
372,88,76219,2,0,P|310:111|264:104,1,114.626996520996,2|0,3:2|3:2,2:0:0:0:
105,68,76526,1,10,2:0:0:0:
308,192,76680,1,6,3:2:0:0:
165,315,76834,5,8,3:0:0:0:
119,321,76911,1,8,3:0:0:0:
79,300,76988,1,8,3:0:0:0:
60,258,77065,1,8,3:0:0:0:
70,214,77142,1,8,3:0:0:0:
109,189,77219,1,8,3:0:0:0:
154,184,77296,1,8,3:0:0:0:
198,199,77372,1,8,3:0:0:0:
232,240,77449,1,8,3:0:0:0:
271,264,77526,1,8,3:0:0:0:
316,269,77603,1,8,3:0:0:0:
360,254,77680,1,8,3:0:0:0:
392,221,77757,2,0,P|397:163|390:147,3,57.1899982604982,8|8|8|8,3:0|3:0|3:0|3:0,2:0:0:0:
458,327,78065,5,12,3:2:0:0:
492,318,79142,5,2,3:2:0:0:
492,318,79219,1,0,3:2:0:0:
492,318,79296,1,14,2:0:0:0:
304,119,79449,1,2,3:2:0:0:
474,347,79603,1,2,3:2:0:0:
484,54,79757,5,14,2:0:0:0:
292,281,79911,1,2,3:2:0:0:
501,91,80065,1,2,3:2:0:0:
215,28,80219,5,14,2:0:0:0:
430,243,80372,1,2,3:2:0:0:
129,216,80526,1,2,3:2:0:0:
354,2,80680,5,14,2:0:0:0:
292,281,80834,1,2,3:2:0:0:
205,0,80988,1,2,3:2:0:0:
385,311,81142,5,14,2:0:0:0:
228,8,81296,1,2,3:2:0:0:
117,310,81449,2,0,P|57:307|4:276,1,114.626996520996,14|2,2:0|3:2,2:0:0:0:
51,55,81757,5,14,2:0:0:0:
245,256,81911,1,2,3:2:0:0:
62,20,82065,1,2,3:2:0:0:
117,310,82219,5,14,2:0:0:0:
305,52,82372,1,2,3:2:0:0:
94,284,82526,1,2,3:2:0:0:
332,325,82680,5,14,2:0:0:0:
110,107,82834,1,2,3:2:0:0:
409,151,82988,1,2,3:2:0:0:
189,374,83142,6,0,P|183:346|183:317,1,57.6839982604982,8|8,3:0|3:0,2:0:0:0:
273,112,83296,1,8,3:0:0:0:
348,343,83449,1,4,3:0:0:0:
83,115,83603,5,10,2:0:0:0:
375,356,83757,2,0,P|424:331|471:199,1,190.4275,6|0,3:2|2:0,2:0:0:0:
395,128,84219,5,6,2:0:0:0:
486,222,88372,21,8,3:0:0:0:
486,222,88449,1,8,3:0:0:0:
486,222,88526,1,8,3:0:0:0:
323,243,88680,1,8,3:0:0:0:
406,207,88834,1,4,3:0:0:0:
264,324,88988,1,4,3:0:0:0:
192,147,89142,5,6,3:2:0:0:
187,131,89449,1,2,3:2:0:0:
182,115,89757,1,2,3:2:0:0:
177,99,90065,1,2,3:2:0:0:
275,30,90372,5,2,3:2:0:0:
270,46,90680,1,2,3:2:0:0:
265,62,90988,1,2,3:2:0:0:
260,78,91296,1,2,3:2:0:0:
397,53,91603,21,12,2:0:0:0:
327,217,91757,1,2,3:2:0:0:
506,195,91911,1,2,3:2:0:0:
260,68,92065,21,10,2:0:0:0:
228,247,92219,1,2,3:2:0:0:
414,176,92372,1,2,3:2:0:0:
129,103,92526,5,8,2:0:0:0:
147,316,92680,1,2,3:2:0:0:
323,192,92834,5,12,2:0:0:0:
28,80,92988,1,10,2:0:0:0:
364,41,93142,1,8,2:0:0:0:
249,339,93296,1,10,2:0:0:0:
93,20,93449,1,8,2:0:0:0:
413,133,93603,1,10,3:2:0:0:
95,250,93757,2,0,P|66:300|78:369,1,113.999996520996,8|0,2:0|3:2,2:0:0:0:
93,20,94065,5,12,3:2:0:0:
321,168,94219,1,0,3:2:0:0:
346,164,94372,1,0,3:2:0:0:
413,53,94526,69,12,2:0:0:0:
189,160,94680,1,0,3:2:0:0:
164,164,94834,1,2,3:2:0:0:
44,144,94988,5,14,2:0:0:0:
334,260,95142,1,2,3:2:0:0:
359,264,95296,1,2,3:2:0:0:
467,144,95449,69,14,2:0:0:0:
176,260,95603,1,2,3:2:0:0:
151,264,95757,1,2,3:2:0:0:
44,252,95911,5,14,2:0:0:0:
259,82,96065,1,0,3:2:0:0:
467,252,96219,69,14,2:0:0:0:
251,57,96372,1,2,3:2:0:0:
93,343,96526,5,12,2:0:0:0:
440,254,96680,1,2,3:2:0:0:
115,166,96834,1,0,3:2:0:0:
413,53,96988,5,12,2:0:0:0:
108,61,97142,1,0,3:2:0:0:
394,167,97296,1,2,3:2:0:0:
63,256,97449,5,12,2:0:0:0:
417,343,97603,1,2,3:2:0:0:
255,140,97757,1,2,3:2:0:0:
467,252,97911,5,14,2:0:0:0:
111,355,98065,1,2,3:2:0:0:
255,140,98219,1,2,3:2:0:0:
400,377,98372,5,12,2:0:0:0:
254,113,98526,1,2,3:2:0:0:
82,344,98680,5,12,2:0:0:0:
340,152,98834,2,0,P|337:93|207:41,1,190.4275,6|0,3:2|3:2,2:0:0:0:
86,149,99296,2,0,P|108:190|127:234,1,95.5225000000001,8|0,2:0|2:0,2:0:0:0:
167,90,99603,1,0,3:2:0:0:
36,265,99757,5,2,3:2:0:0:
268,175,99911,1,10,2:0:0:0:
49,51,100065,2,0,P|143:54|228:12,1,190.4275,2|0,2:0|2:0,2:0:0:0:
415,118,100526,2,0,L|317:89,1,95.5225000000001,8|0,2:0|2:0,2:0:0:0:
472,25,100834,5,2,3:2:0:0:
414,222,100988,1,2,3:2:0:0:
332,0,101142,1,10,2:0:0:0:
263,316,101296,6,0,L|243:182,1,95.5225000000001,6|0,3:2|2:0,2:0:0:0:
230,109,101603,1,2,3:2:0:0:
382,27,101757,5,10,2:0:0:0:
134,158,101911,1,2,3:2:0:0:
396,202,102065,5,8,2:0:0:0:
126,62,102219,1,2,3:2:0:0:
456,127,102372,5,8,2:0:0:0:
97,240,102526,1,2,3:2:0:0:
455,289,102680,5,8,2:0:0:0:
43,166,102834,1,2,3:2:0:0:
368,53,102988,5,8,2:0:0:0:
67,335,103142,1,2,3:2:0:0:
441,114,103296,5,8,2:0:0:0:
404,97,103372,1,8,2:0:0:0:
362,100,103449,1,2,3:2:0:0:
326,122,103526,1,0,3:2:0:0:
307,160,103603,2,0,P|310:183|313:208,1,48.0700000000001,8|0,3:2|3:2,2:0:0:0:
214,359,103757,2,0,P|211:336|208:312,1,48.0700000000001,2|0,3:2|3:2,2:0:0:0:
147,224,103911,5,12,2:0:0:0:
311,302,104065,1,0,3:2:0:0:
180,84,104219,5,8,2:0:0:0:
385,261,104372,1,0,3:2:0:0:
320,23,104526,5,8,2:0:0:0:
311,302,104680,1,0,3:2:0:0:
453,72,104834,5,10,2:0:0:0:
381,345,104988,1,0,3:2:0:0:
320,23,105142,5,10,2:0:0:0:
309,299,105296,1,0,3:2:0:0:
243,71,105449,5,8,2:0:0:0:
191,336,105603,1,0,3:2:0:0:
97,25,105757,5,8,2:0:0:0:
114,306,105911,1,0,3:2:0:0:
19,59,106065,5,10,2:0:0:0:
28,344,106219,1,2,3:2:0:0:
19,325,106296,1,0,3:2:0:0:
19,305,106372,5,14,2:0:0:0:
97,25,106526,1,2,3:2:0:0:
212,346,106680,5,8,2:0:0:0:
176,67,106834,1,2,3:2:0:0:
288,319,106988,5,8,2:0:0:0:
339,35,107142,1,2,3:2:0:0:
415,349,107296,5,8,2:0:0:0:
272,107,107449,1,2,3:2:0:0:
497,258,107603,5,10,2:0:0:0:
176,67,107757,1,0,3:2:0:0:
462,130,107911,5,8,2:0:0:0:
131,248,108065,1,0,3:2:0:0:
340,36,108219,5,8,0:0:0:0:
357,50,108321,2,0,L|346:142,1,63.3333333333333,8|8,0:0|0:0,0:0:0:0:
292,179,108527,5,4,3:0:0:0:
275,193,108629,2,0,L|286:285,1,63.3333333333333,4|4,3:0|3:0,0:0:0:0:
340,322,108834,5,6,3:2:0:0:
138,335,110988,5,14,2:0:0:0:
155,288,111065,1,4,3:0:0:0:
195,260,111142,1,4,3:0:0:0:
245,258,111219,1,4,3:0:0:0:
286,284,111296,5,14,2:0:0:0:
112,90,111449,1,0,3:2:0:0:
425,99,111603,5,10,2:0:0:0:
221,341,111757,1,2,3:2:0:0:
167,21,111911,5,8,2:0:0:0:
439,177,112065,1,2,3:2:0:0:
139,289,112219,5,10,2:0:0:0:
267,19,112372,1,2,3:2:0:0:
419,268,112526,5,8,3:2:0:0:
419,268,112603,1,8,2:0:0:0:
419,268,112680,1,8,2:0:0:0:
419,268,112757,1,8,2:0:0:0:
419,268,112834,1,10,2:0:0:0:
380,303,112911,1,8,2:0:0:0:
332,320,112988,1,8,2:0:0:0:
280,312,113065,1,8,2:0:0:0:
238,283,113142,1,10,2:0:0:0:
211,237,113219,1,8,2:0:0:0:
186,191,113296,1,10,2:0:0:0:
143,163,113372,1,8,2:0:0:0:
92,156,113449,1,8,2:0:0:0:
43,172,113526,1,8,2:0:0:0:
5,207,113603,6,0,P|3:114|127:24,1,228.512993041992,6|0,3:2|3:2,2:0:0:0:
335,127,114065,2,0,P|267:117|235:81,1,114.626996520996,10|0,2:0|2:0,2:0:0:0:
414,27,114372,1,2,3:2:0:0:
311,236,114526,1,0,3:2:0:0:
436,36,114680,1,10,2:0:0:0:
495,286,114834,6,0,P|387:312|295:251,1,228.512993041992,2|0,3:2|3:2,2:0:0:0:
127,124,115296,2,0,P|186:165|198:220,1,114.626996520996,8|0,2:0|2:0,2:0:0:0:
28,74,115603,1,2,3:2:0:0:
131,270,115757,1,2,3:2:0:0:
2,76,115911,1,8,2:0:0:0:
84,348,116065,6,0,P|92:220|96:105,1,228.512993041992,6|0,3:2|3:2,2:0:0:0:
272,16,116526,2,0,L|246:143,1,114.626996520996,10|0,2:0|2:0,2:0:0:0:
398,77,116834,1,0,3:2:0:0:
155,39,116988,1,2,3:2:0:0:
383,97,117142,1,8,2:0:0:0:
192,212,117296,6,0,P|171:285|185:335,1,114.626996520996,2|0,2:0|3:2,2:0:0:0:
384,233,117603,2,0,P|405:160|391:110,1,114.626996520996,2|8,2:0|2:0,2:0:0:0:
172,63,117911,1,0,2:0:0:0:
325,170,118065,1,0,3:2:0:0:
90,255,118219,1,10,2:0:0:0:
90,255,118296,1,8,2:0:0:0:
90,255,118372,1,8,2:0:0:0:
294,360,118526,6,0,P|385:340|531:288,1,228.512993041992,6|2,3:2|3:2,2:0:0:0:
421,87,118988,1,10,2:0:0:0:
327,257,119142,1,2,2:0:0:0:
199,91,119296,1,2,3:2:0:0:
402,183,119449,1,2,2:0:0:0:
197,204,119603,1,10,2:0:0:0:
475,155,119757,6,0,P|496:48|382:9,1,228.512993041992,2|2,2:0|2:0,2:0:0:0:
327,257,120219,1,10,2:0:0:0:
227,70,120372,1,2,2:0:0:0:
421,87,120526,1,2,3:2:0:0:
197,204,120680,2,0,L|75:176,1,114.626996520996,2|8,3:2|2:0,2:0:0:0:
223,92,120988,6,0,L|253:334,1,228.512993041992,6|0,3:2|3:2,2:0:0:0:
217,338,121372,1,0,3:2:0:0:
180,362,121449,5,8,2:0:0:0:
312,106,121603,1,0,3:2:0:0:
372,334,121757,5,10,2:0:0:0:
111,145,121911,1,2,3:2:0:0:
28,354,122065,5,8,2:0:0:0:
352,234,122219,1,2,3:2:0:0:
168,26,122372,5,8,2:0:0:0:
116,282,122526,1,2,3:2:0:0:
380,78,122680,5,8,2:0:0:0:
33,170,122834,1,2,3:2:0:0:
325,365,122988,5,8,2:0:0:0:
260,62,123142,1,10,2:0:0:0:
260,62,123219,1,8,2:0:0:0:
260,62,123296,1,8,2:0:0:0:
449,223,123449,6,0,P|350:193|229:159,1,228.512993041992,6|0,3:2|3:2,2:0:0:0:
113,306,123911,2,0,L|226:290,1,114.626996520996,10|0,2:0|2:0,2:0:0:0:
181,69,124219,2,0,P|139:112|125:180,1,114.626996520996,2|0,3:2|3:2,2:0:0:0:
316,53,124526,1,10,2:0:0:0:
113,306,124680,6,0,L|48:80,1,228.512993041992,2|0,3:2|3:2,2:0:0:0:
324,136,125142,2,0,P|230:154|191:142,1,114.626996520996,8|0,2:0|2:0,2:0:0:0:
362,236,125449,1,2,3:2:0:0:
181,69,125603,1,2,3:2:0:0:
435,152,125757,1,8,2:0:0:0:
228,325,125911,6,0,P|137:343|21:224,1,228.512993041992,6|0,3:2|3:2,2:0:0:0:
181,69,126372,2,0,L|206:208,1,114.626996520996,10|0,2:0|2:0,2:0:0:0:
228,325,126680,1,2,3:2:0:0:
377,97,126834,1,2,3:2:0:0:
93,160,126988,1,10,2:0:0:0:
373,326,127142,6,0,P|378:269|368:213,1,114.626996520996,2|0,2:0|3:2,2:0:0:0:
269,6,127449,2,0,P|205:33|178:76,1,114.626996520996,2|8,3:2|2:0,2:0:0:0:
140,263,127757,1,0,2:0:0:0:
346,206,127911,1,0,3:2:0:0:
77,92,128065,1,10,2:0:0:0:
77,92,128142,1,8,2:0:0:0:
77,92,128219,1,8,2:0:0:0:
195,327,128372,6,0,L|164:97,1,228.512993041992,6|2,3:2|3:2,2:0:0:0:
372,77,128834,2,0,L|350:201,1,114.626996520996,10|0,2:0|2:0,2:0:0:0:
473,286,129142,1,2,3:2:0:0:
259,149,129296,1,2,2:0:0:0:
352,348,129449,1,10,2:0:0:0:
453,140,129603,2,0,P|466:85|460:29,1,114.626996520996,2|0,2:0|3:2,2:0:0:0:
259,149,129911,5,2,2:0:0:0:
461,255,130065,1,10,2:0:0:0:
225,269,130219,1,2,2:0:0:0:
435,136,130372,1,2,3:2:0:0:
195,83,130526,1,2,3:2:0:0:
381,296,130680,1,10,2:0:0:0:
138,298,130834,1,6,3:2:0:0:
339,101,130988,5,8,3:0:0:0:
385,95,131065,1,8,3:0:0:0:
425,116,131142,1,8,3:0:0:0:
444,158,131219,1,8,3:0:0:0:
434,202,131296,1,8,3:0:0:0:
395,227,131372,1,8,3:0:0:0:
350,232,131449,1,8,3:0:0:0:
306,217,131526,1,8,3:0:0:0:
272,176,131603,1,8,3:0:0:0:
233,152,131680,1,8,3:0:0:0:
188,147,131757,1,8,3:0:0:0:
144,162,131834,1,8,3:0:0:0:
112,195,131911,2,0,P|107:253|114:269,3,57.1899982604982,8|8|8|8,3:0|3:0|3:0|3:0,2:0:0:0:
152,68,132219,102,0,B|222:-20|306:-12|329:66|279:122|205:113|200:66|220:30|134:0|42:17|-6:118|-6:118|21:97|60:97,1,569.999982604981,14|6,3:2|2:0,0:0:0:0:
104,141,142988,5,2,2:0:0:0:
204,197,143142,1,10,3:0:0:0:
202,206,143219,1,8,3:0:0:0:
200,215,143296,1,14,2:0:0:0:
386,69,143603,5,10,3:0:0:0:
318,175,143757,1,10,3:0:0:0:
316,165,143834,1,8,3:0:0:0:
314,156,143911,1,4,3:0:0:0:
208,113,144065,1,10,3:0:0:0:
386,69,144219,1,6,3:0:0:0:
208,113,144372,1,8,3:0:0:0:
386,69,144526,5,6,3:0:0:0:
422,230,144680,1,10,3:0:0:0:
441,151,144834,1,4,3:0:0:0:
348,302,144988,1,6,3:0:0:0:
348,302,145065,1,4,3:0:0:0:
348,302,145142,5,6,3:0:0:0:
151,298,145296,1,8,3:0:0:0:
250,270,145449,1,6,3:0:0:0:
94,369,145603,1,8,3:0:0:0:
94,369,145680,1,8,3:0:0:0:
94,369,145757,1,6,3:0:0:0:
94,169,146065,5,6,3:0:0:0:
217,142,146219,1,10,3:0:0:0:
211,150,146296,1,8,3:0:0:0:
206,158,146372,1,4,3:0:0:0:
250,263,146526,1,10,3:0:0:0:
94,169,146680,1,6,3:0:0:0:
250,263,146834,1,8,3:0:0:0:
94,169,146988,5,6,3:0:0:0:
102,75,147142,1,6,3:0:0:0:
185,24,147296,1,8,3:0:0:0:
285,31,147449,1,10,3:0:0:0:
285,31,147526,1,8,3:0:0:0:
285,31,147603,5,4,3:0:0:0:
332,123,147757,1,8,3:0:0:0:
422,173,147911,2,0,P|460:184|500:185,1,81.1941265401841,6|0,3:2|3:0,2:0:0:0:
399,348,148219,6,0,P|341:293|297:226,1,161.863378080368,6|4,3:2|3:0,2:0:0:0:
211,310,148680,1,10,3:0:0:0:
211,310,148757,1,8,3:0:0:0:
211,310,148834,1,4,3:0:0:0:
66,159,148988,1,8,3:0:0:0:
95,276,149142,1,6,3:0:0:0:
268,110,149296,1,8,3:0:0:0:
152,77,149449,5,4,3:0:0:0:
211,310,149603,1,8,3:0:0:0:
296,225,149757,1,4,3:0:0:0:
95,276,149911,1,4,3:0:0:0:
91,264,149988,1,4,3:0:0:0:
88,252,150065,1,4,3:0:0:0:
118,360,150219,1,4,3:0:0:0:
66,159,150372,1,6,3:0:0:0:
118,360,150526,1,4,3:0:0:0:
216,160,150680,6,0,P|270:128|372:150,1,161.863378080368,6|4,3:2|3:0,2:0:0:0:
415,323,151142,1,6,3:0:0:0:
415,323,151219,1,4,3:0:0:0:
415,323,151296,1,4,3:0:0:0:
286,366,151449,1,4,3:0:0:0:
179,276,151603,2,0,P|145:318|124:367,1,81.1941265401841,6|4,3:0|3:0,2:0:0:0:
13,143,151911,5,12,2:0:0:0:
271,268,152065,1,0,3:2:0:0:
4,307,152219,5,10,2:0:0:0:
129,49,152372,1,0,3:2:0:0:
318,186,152526,5,10,2:0:0:0:
355,224,152603,1,8,2:0:0:0:
365,277,152680,1,8,2:0:0:0:
345,326,152757,1,8,2:0:0:0:
301,357,152834,1,10,2:0:0:0:
247,358,152911,1,8,2:0:0:0:
204,326,152988,1,10,2:0:0:0:
152,313,153065,1,8,2:0:0:0:
98,321,153142,5,14,2:0:0:0:
158,61,153296,1,0,3:2:0:0:
272,273,153449,1,0,3:2:0:0:
71,138,153603,5,10,2:0:0:0:
25,346,153757,1,0,3:2:0:0:
214,161,153911,1,0,3:2:0:0:
348,365,154065,5,10,2:0:0:0:
83,162,154219,1,0,3:2:0:0:
430,157,154372,1,2,3:2:0:0:
152,298,154526,5,12,2:0:0:0:
437,295,154680,1,0,3:2:0:0:
216,79,154834,1,2,3:2:0:0:
231,373,154988,5,8,2:0:0:0:
412,144,155142,1,0,3:2:0:0:
97,213,155296,1,10,2:0:0:0:
313,12,155449,1,0,3:2:0:0:
313,12,155526,1,0,3:2:0:0:
313,12,155603,5,14,2:0:0:0:
211,247,155757,1,0,3:2:0:0:
141,1,155911,1,0,3:2:0:0:
304,267,156065,5,10,2:0:0:0:
51,127,156219,1,0,3:2:0:0:
337,81,156372,1,0,3:2:0:0:
129,305,156526,5,14,2:0:0:0:
123,8,156680,1,0,3:2:0:0:
225,301,156834,1,2,3:2:0:0:
31,113,156988,5,12,2:0:0:0:
320,174,157142,1,0,3:2:0:0:
93,310,157296,1,2,3:2:0:0:
235,49,157449,5,8,2:0:0:0:
217,335,157603,1,0,3:2:0:0:
119,62,157757,1,10,2:0:0:0:
380,200,157911,1,0,3:2:0:0:
109,191,158065,6,0,L|-20:229,1,114.626996520996,14|0,2:0|2:0,2:0:0:0:
239,323,158372,1,8,2:0:0:0:
376,174,158526,2,0,P|336:126|264:101,1,114.626996520996,2|0,2:0|3:2,2:0:0:0:
173,257,158834,1,0,3:2:0:0:
129,71,158988,2,0,L|12:49,1,114.626996520996,10|0,2:0|2:0,2:0:0:0:
56,298,159296,6,0,L|173:276,1,105.074753189087,2|0,3:2|2:0,2:0:0:0:
290,104,159603,1,8,2:0:0:0:
282,370,159757,2,0,P|309:318|314:258,1,105.074753189087,2|0,2:0|3:2,2:0:0:0:
273,99,160065,1,0,3:2:0:0:
477,222,160219,2,0,L|352:192,1,105.074753189087,8|0,2:0|3:2,2:0:0:0:
100,43,160526,6,0,L|241:58,1,142.975,6|0,2:0|2:0,2:0:0:0:
273,99,160834,1,10,2:0:0:0:
321,115,160911,1,0,3:2:0:0:
369,107,160988,1,0,3:2:0:0:
409,79,161065,1,0,3:2:0:0:
429,35,161142,5,10,2:0:0:0:
469,63,161219,1,0,3:2:0:0:
481,111,161296,1,0,3:2:0:0:
473,159,161372,1,0,3:2:0:0:
437,195,161449,1,10,2:0:0:0:
409,235,161526,1,0,3:2:0:0:
401,283,161603,1,0,3:2:0:0:
429,323,161680,1,0,3:2:0:0:
465,359,161757,5,10,2:0:0:0:
418,376,161834,1,0,3:2:0:0:
362,380,161911,1,0,3:2:0:0:
311,363,161988,1,0,3:2:0:0:
263,337,162065,1,10,2:0:0:0:
212,324,162142,1,0,3:2:0:0:
161,333,162219,1,0,3:2:0:0:
118,363,162296,1,0,3:2:0:0:
67,341,162372,5,10,2:0:0:0:
242,31,162526,1,10,2:0:0:0:
326,263,162680,1,10,2:0:0:0:
11,114,162834,1,14,2:0:0:0:
501,114,164834,5,2,0:0:0:0:
501,114,164988,2,0,P|449:117|423:99,1,61.7499971733095,2|0,0:0|0:0,0:0:0:0:
316,78,165296,6,0,B|393:84|369:31|455:37,1,142.500005435944,2|0,0:0|0:0,0:0:0:0:
442,114,165757,2,0,L|430:191,1,61.7499971733095,2|0,0:0|0:0,0:0:0:0:
350,213,166065,2,0,L|359:151,1,61.7499971733095,2|0,0:0|0:0,0:0:0:0:
436,274,166372,1,2,0:0:0:0:
340,342,166526,2,0,L|358:219,1,123.499994346619,2|0,0:0|0:0,0:0:0:0:
44,95,167142,5,0,3:2:0:0:
44,95,167219,1,0,3:2:0:0:
44,95,167296,1,14,2:0:0:0:
176,178,167449,2,0,P|255:182|291:154,1,114.38,2|0,2:0|2:0,2:0:0:0:
220,111,167757,6,0,L|260:367,1,247.555738693238,6|0,3:2|3:2,2:0:0:0:
446,298,168219,2,0,P|408:266|334:248,1,124.179244346619,10|0,2:0|2:0,2:0:0:0:
153,330,168526,1,2,3:2:0:0:
336,226,168680,1,2,3:2:0:0:
128,177,168834,1,10,2:0:0:0:
327,96,168988,6,0,P|385:77|440:48,1,124.179244346619,2|0,2:0|3:2,2:0:0:0:
128,177,169296,2,0,P|69:158|14:129,1,124.179244346619,2|8,2:0|2:0,2:0:0:0:
337,247,169603,1,0,2:0:0:0:
180,59,169757,1,0,3:2:0:0:
129,292,169911,1,10,2:0:0:0:
129,292,169988,1,8,2:0:0:0:
129,292,170065,1,10,2:0:0:0:
361,152,170219,6,0,P|423:200|354:345,1,247.555738693238,6|2,3:2|3:2,2:0:0:0:
186,175,170680,1,10,2:0:0:0:
337,247,170834,1,2,2:0:0:0:
84,358,170988,1,2,3:2:0:0:
309,224,171142,1,2,2:0:0:0:
63,137,171296,1,10,2:0:0:0:
240,341,171449,6,0,P|229:217|223:94,1,247.555738693238,2|2,3:2|3:2,2:0:0:0:
395,183,171911,1,10,2:0:0:0:
123,251,172065,1,2,2:0:0:0:
325,120,172219,1,2,3:2:0:0:
240,341,172372,1,2,3:2:0:0:
226,68,172526,1,10,2:0:0:0:
375,271,172680,6,0,P|488:197|444:104,1,247.555738693238,6|0,3:2|3:2,2:0:0:0:
432,83,173065,1,0,3:2:0:0:
432,83,173142,5,8,2:0:0:0:
97,144,173296,1,0,3:2:0:0:
375,271,173449,5,10,2:0:0:0:
210,8,173603,1,2,3:2:0:0:
128,322,173757,5,8,2:0:0:0:
325,28,173911,1,2,3:2:0:0:
255,299,174065,5,8,2:0:0:0:
17,68,174219,1,2,3:2:0:0:
317,164,174372,5,8,2:0:0:0:
355,189,174449,1,0,3:2:0:0:
370,231,174526,1,2,3:2:0:0:
356,275,174603,1,0,3:2:0:0:
319,302,174680,1,10,2:0:0:0:
274,294,174757,1,8,2:0:0:0:
237,268,174834,1,10,2:0:0:0:
214,227,174911,1,8,2:0:0:0:
216,174,174988,1,8,2:0:0:0:
203,130,175065,1,8,2:0:0:0:
173,96,175142,6,0,P|106:80|10:213,1,247.555738693238,6|0,3:2|3:2,2:0:0:0:
110,347,175603,2,0,P|144:270|129:216,1,124.179244346619,10|0,2:0|2:0,2:0:0:0:
41,68,175911,1,2,3:2:0:0:
299,120,176065,1,0,3:2:0:0:
118,224,176219,1,10,2:0:0:0:
273,366,176372,6,0,L|300:119,1,247.555738693238,2|0,3:2|3:2,2:0:0:0:
483,225,176834,2,0,P|413:277|372:277,1,124.179244346619,10|0,2:0|2:0,2:0:0:0:
189,204,177142,1,2,3:2:0:0:
437,143,177296,1,2,3:2:0:0:
273,366,177449,1,8,2:0:0:0:
193,104,177603,6,0,P|114:142|143:290,1,247.555738693238,6|0,3:2|3:2,2:0:0:0:
361,343,178065,2,0,B|385:303|385:303|374:220,1,124.179244346619,10|0,2:0|2:0,2:0:0:0:
189,204,178372,1,2,3:2:0:0:
437,143,178526,1,2,3:2:0:0:
262,343,178680,1,10,2:0:0:0:
196,61,178834,6,0,P|116:41|55:22,1,124.179244346619,2|0,2:0|3:2,2:0:0:0:
255,258,179142,2,0,P|335:238|396:219,1,124.179244346619,2|8,2:0|2:0,2:0:0:0:
210,82,179449,1,0,2:0:0:0:
153,323,179603,1,0,3:2:0:0:
354,120,179757,1,10,2:0:0:0:
354,120,179834,1,8,2:0:0:0:
354,120,179911,1,10,2:0:0:0:
410,321,180065,6,0,P|513:268|498:153,1,247.555738693238,6|2,3:2|3:2,2:0:0:0:
275,235,180526,1,10,2:0:0:0:
436,102,180680,1,2,2:0:0:0:
201,173,180834,1,2,3:2:0:0:
410,321,180988,1,2,2:0:0:0:
326,46,181142,1,10,2:0:0:0:
185,269,181296,6,0,P|121:297|-8:187,1,247.555738693238,2|2,3:2|3:2,2:0:0:0:
158,79,181757,1,10,2:0:0:0:
290,234,181911,1,0,2:0:0:0:
214,6,182065,1,2,3:2:0:0:
103,201,182219,1,0,3:2:0:0:
347,129,182372,1,10,2:0:0:0:
112,5,182526,1,6,3:2:0:0:
350,47,182680,5,8,3:0:0:0:
393,60,182757,1,8,3:0:0:0:
423,98,182834,1,8,3:0:0:0:
430,146,182911,1,8,3:0:0:0:
406,189,182988,1,8,3:0:0:0:
362,209,183065,1,8,3:0:0:0:
314,205,183142,1,8,3:0:0:0:
278,172,183219,1,8,3:0:0:0:
266,125,183296,1,8,3:0:0:0:
252,77,183372,1,8,3:0:0:0:
218,45,183449,1,8,3:0:0:0:
168,40,183526,1,8,3:0:0:0:
126,61,183603,2,0,P|117:84|110:121,1,62.4909971733096,8|8,3:0|3:0,2:0:0:0:
48,197,183757,2,0,P|58:219|79:250,1,62.4909971733096,8|8,3:0|3:0,2:0:0:0:
177,300,183911,5,12,3:2:0:0:
178,300,184526,6,0,L|165:228,1,62.4909971733096,2|2,2:0|2:0,2:0:0:0:
294,200,184680,2,0,L|307:128,1,62.4909971733096,2|2,2:0|2:0,2:0:0:0:
178,100,184834,2,0,L|165:28,1,62.4909971733096,10|10,2:0|2:0,2:0:0:0:
297,3,184988,6,0,P|377:35|483:73,1,157.272504783631,6|0,3:2|2:0,2:0:0:0:
479,68,185296,1,0,3:2:0:0:
304,221,185449,2,0,L|417:190,1,105.074753189087,10|0,2:0|3:2,2:0:0:0:
258,75,185757,1,2,3:2:0:0:
200,288,185911,1,2,3:2:0:0:
279,98,186065,1,8,2:0:0:0:
326,330,186219,1,2,2:0:0:0:
326,330,186296,1,2,2:0:0:0:
326,330,186372,5,2,3:2:0:0:
187,147,186526,1,2,2:0:0:0:
412,94,186680,1,10,2:0:0:0:
197,273,186834,2,0,P|141:260|85:249,1,105.074753189087,2|2,2:0|3:2,2:0:0:0:
408,347,187142,2,0,P|457:334|520:323,1,105.074753189087,2|8,3:2|2:0,2:0:0:0:
412,94,187449,6,0,P|348:60|254:113,1,157.272504783631,6|0,3:2|2:0,2:0:0:0:
248,108,187757,1,2,3:2:0:0:
345,287,187911,2,0,P|337:230|324:177,1,105.074753189087,10|0,2:0|2:0,2:0:0:0:
195,324,188219,1,2,3:2:0:0:
114,123,188372,1,2,3:2:0:0:
209,305,188526,1,8,2:0:0:0:
354,100,188680,1,2,2:0:0:0:
354,100,188757,1,2,2:0:0:0:
354,100,188834,5,2,3:2:0:0:
220,187,188988,1,2,2:0:0:0:
453,275,189142,1,10,2:0:0:0:
326,184,189296,2,0,P|337:234|350:301,1,105.074753189087,2|0,2:0|3:2,2:0:0:0:
466,65,189603,1,2,3:2:0:0:
455,110,189680,1,8,2:0:0:0:
446,157,189757,1,10,2:0:0:0:
319,42,189911,6,0,L|127:69,1,157.272504783631,6|0,3:2|2:0,2:0:0:0:
127,68,190219,1,2,3:2:0:0:
181,305,190372,1,10,2:0:0:0:
28,116,190526,1,2,2:0:0:0:
246,220,190680,1,2,3:2:0:0:
7,218,190834,1,2,2:0:0:0:
224,116,190988,1,10,2:0:0:0:
72,301,191142,1,2,2:0:0:0:
127,68,191296,5,2,3:2:0:0:
292,287,191449,1,2,2:0:0:0:
200,16,191603,1,10,2:0:0:0:
275,300,191757,1,2,3:2:0:0:
297,31,191911,1,2,3:2:0:0:
248,302,192065,1,2,3:2:0:0:
368,92,192219,1,10,2:0:0:0:
222,298,192372,6,0,P|131:278|108:169,1,209.470256378174,6|2,3:2|3:2,2:0:0:0:
116,142,192757,1,0,3:2:0:0:
138,114,192834,5,10,2:0:0:0:
394,211,192988,1,2,3:2:0:0:
147,338,193142,5,10,2:0:0:0:
341,96,193296,1,0,3:2:0:0:
512,345,193449,5,14,2:0:0:0:
228,218,193603,1,2,2:0:0:0:
493,64,193757,5,2,3:2:0:0:
274,339,193911,1,8,2:0:0:0:
235,309,193988,1,8,3:2:0:0:
216,265,194065,1,8,3:2:0:0:
228,218,194142,1,8,2:0:0:0:
264,185,194219,1,8,2:0:0:0:
300,150,194296,1,8,2:0:0:0:
312,105,194372,1,10,2:0:0:0:
293,58,194449,1,10,2:0:0:0:
255,31,194526,2,0,P|230:33|194:45,1,52.8770015945436,10|10,2:0|2:0,2:0:0:0:
109,86,194680,2,0,P|94:105|76:138,1,52.8770015945436,10|10,2:0|2:0,2:0:0:0:
45,232,194834,6,0,P|33:135|12:60,1,157.272504783631,14|0,2:0|2:0,2:0:0:0:
6,54,195142,1,2,3:2:0:0:
163,212,195296,2,0,L|273:182,1,105.074753189087,10|0,2:0|2:0,2:0:0:0:
367,71,195603,1,2,3:2:0:0:
436,281,195757,1,2,2:0:0:0:
351,170,195911,1,8,2:0:0:0:
283,329,196065,2,0,P|258:339|233:345,1,52.8770015945436,2|2,2:0|2:0,2:0:0:0:
78,298,196219,5,2,3:2:0:0:
263,184,196372,1,2,2:0:0:0:
88,98,196526,1,10,2:0:0:0:
171,246,196680,2,0,L|150:376,1,105.074753189087,2|0,2:0|3:2,2:0:0:0:
351,170,196988,2,0,L|330:40,1,105.074753189087,2|8,3:2|2:0,2:0:0:0:
331,257,197296,6,0,P|390:251|454:136,1,157.272504783631,6|0,3:2|2:0,2:0:0:0:
454,151,197603,1,2,3:2:0:0:
259,32,197757,2,0,P|196:95|189:151,1,105.074753189087,10|0,2:0|2:0,2:0:0:0:
318,243,198065,1,2,3:2:0:0:
180,345,198219,2,0,L|204:220,1,105.074753189087,2|8,2:0|2:0,2:0:0:0:
328,117,198526,6,0,P|355:101|386:98,1,52.8770015945436,2|2,2:0|2:0,2:0:0:0:
431,261,198680,1,2,3:2:0:0:
274,38,198834,1,2,2:0:0:0:
451,181,198988,1,8,2:0:0:0:
199,242,199142,2,0,L|84:205,1,105.074753189087,2|0,2:0|3:2,2:0:0:0:
328,117,199449,1,2,2:0:0:0:
315,156,199526,1,8,2:0:0:0:
302,196,199603,1,8,2:0:0:0:
259,43,199757,6,0,P|338:21|434:107,1,209.470256378174,6|2,3:2|3:2,2:0:0:0:
279,277,200219,1,10,2:0:0:0:
459,225,200372,1,2,2:0:0:0:
239,111,200526,1,2,3:2:0:0:
460,303,200680,1,2,2:0:0:0:
187,330,200834,1,10,2:0:0:0:
465,138,200988,1,2,2:0:0:0:
360,352,201142,5,2,3:2:0:0:
375,89,201296,1,2,2:0:0:0:
458,285,201449,1,10,2:0:0:0:
449,38,201603,1,2,2:0:0:0:
313,243,201757,1,2,3:2:0:0:
355,64,201911,1,2,3:2:0:0:
476,209,202065,1,14,2:0:0:0:
275,144,202219,1,0,3:2:0:0:
452,94,202372,5,14,2:0:0:0:
435,145,202449,1,8,3:0:0:0:
391,176,202526,1,8,3:0:0:0:
337,175,202603,1,8,3:0:0:0:
283,171,202680,1,8,3:0:0:0:
234,195,202757,1,8,3:0:0:0:
205,240,202834,1,12,2:0:0:0:
204,294,202911,1,8,3:0:0:0:
231,341,202988,1,8,3:0:0:0:
279,366,203065,1,8,3:0:0:0:
333,364,203142,1,8,3:0:0:0:
377,333,203219,1,8,3:0:0:0:
400,284,203296,1,10,2:0:0:0:
394,230,203372,1,8,2:0:0:0:
366,190,203449,22,0,B|341:129|268:127|219:201|236:254|274:264|316:275|321:299|321:332|318:350|321:348|321:348|324:343|340:302|367:297|402:310|409:304|457:289|479:259|467:202|442:177|397:169|376:184,1,570.356271743776,6|0,3:2|2:0,2:0:0:0:
398,106,204834,5,6,2:0:0:0:
256,192,204911,12,0,209757,2:0:0:0:
