osu file format v14

[General]
AudioFilename: audio.mp3
AudioLeadIn: 0
PreviewTime: 250683
Countdown: 0
SampleSet: Normal
StackLeniency: 0.7
Mode: 1
LetterboxInBreaks: 0
WidescreenStoryboard: 1

[Editor]
DistanceSpacing: 1
BeatDivisor: 4
GridSize: 32
TimelineZoom: 1.8

[Metadata]
Title:Kiseki
TitleUnicode:軌跡
Artist:Roselia
ArtistUnicode:Roselia
Creator:KeyWee
Version:Arigatou...
Source:バンドリ! ガールズバンドパーティ!
Tags:Anfang Our Path BanG Dream! Girls Band Party bandori バンドリ japanese rock j-rock jrock video game anime garupa ガルパ ロゼリア full size minato yukina 湊友希那 aiba aina 相羽あいな hikawa sayo 氷川紗夜 kudou haruka 工藤晴香 imai lisa 今井リサ endou yurika 遠藤ゆりか udagawa ako 宇田川あこ sakuragawa megu 櫻川めぐ shirokane rinko 白金燐子 akesaka satomi 明坂聡美
BeatmapID:3614172
BeatmapSetID:1765650

[Difficulty]
HPDrainRate:5
CircleSize:2
OverallDifficulty:5
ApproachRate:0
SliderMultiplier:1.4
SliderTickRate:1

[Events]
//Background and Video events
0,0,"Yukina Lisa.jpg",0,73
//Break Periods
//Storyboard Layer 0 (Background)
//Storyboard Layer 1 (Fail)
//Storyboard Layer 2 (Pass)
//Storyboard Layer 3 (Foreground)
//Storyboard Layer 4 (Overlay)
//Storyboard Sound Samples

[TimingPoints]
492,705.882352941176,4,1,0,30,1,0
492,-111.111111111111,4,1,0,30,0,0
23080,-100,4,1,0,35,0,0
45668,-100,4,1,0,40,0,0
68256,-100,4,1,0,45,0,0
68609,-96.969696969697,4,1,0,45,0,0
68962,-94.1176470588235,4,1,0,45,0,0
69315,-91.4285714285714,4,1,0,45,0,0
69668,-88.8888888888889,4,1,0,50,0,0
70021,-86.4864864864865,4,1,0,50,0,0
70374,-84.2105263157895,4,1,0,50,0,0
70727,-82.0512820512821,4,1,0,50,0,0
71080,-80,4,1,0,55,0,0
71433,-78.0487804878049,4,1,0,55,0,0
71786,-76.1904761904762,4,1,0,55,0,0
72139,-74.4186046511628,4,1,0,55,0,0
72491,-72.7272727272727,4,1,0,65,0,0
72844,-71.1111111111111,4,1,0,65,0,0
73197,-69.5652173913043,4,1,0,65,0,0
73550,-68.4931506849315,4,1,0,65,0,0
73727,-67.5675675675676,4,1,0,65,0,0
73903,705.882352941176,4,1,0,70,1,0
73903,-66.6666666666667,4,1,0,70,0,0
116255,705.882352941176,4,1,0,70,1,8
116255,-66.6666666666667,4,1,0,70,0,8
116256,705.882352941176,4,1,0,70,1,0
116256,-66.6666666666667,4,1,0,70,0,0
116344,-100,4,1,0,70,0,0
121903,705.882352941176,4,1,0,55,1,0
121903,-76.9230769230769,4,1,0,55,0,0
167080,-76.9230769230769,4,1,0,40,0,0
167433,-76.0869565217391,4,1,0,40,0,0
167786,-75.2688172043011,4,1,0,40,0,0
168139,-74.468085106383,4,1,0,40,0,0
168491,-73.6842105263158,4,1,0,50,0,0
168844,-72.9166666666667,4,1,0,50,0,0
169197,-72.1649484536082,4,1,0,50,0,0
169550,-71.4285714285714,4,1,0,50,0,0
169903,-70.7070707070707,4,1,0,60,0,0
170256,-70,4,1,0,60,0,0
170609,-69.3069306930693,4,1,0,60,0,0
170962,-68.6274509803922,4,1,0,60,0,0
171315,-67.9611650485437,4,1,0,70,0,0
171491,-67.3076923076923,4,1,0,70,0,0
171580,-66.6666666666667,4,1,0,70,0,0
171668,-66.0377358490566,4,1,0,70,0,0
171844,-65.4205607476635,4,1,0,70,0,0
172021,-64.8148148148148,4,1,0,75,0,0
172197,-64.2201834862385,4,1,0,75,0,0
172374,-63.6363636363636,4,1,0,75,0,0
172550,-63.0630630630631,4,1,0,75,0,0
172726,705.882352941176,4,1,0,85,1,8
172726,-62.5,4,1,0,85,0,8
172727,705.882352941176,4,1,0,85,1,1
172727,-62.5,4,1,0,85,0,1
194609,-62.5,4,1,0,85,0,0
195315,-62.5,4,1,0,85,0,1
215079,705.882352941176,4,1,0,85,1,0
215079,-62.5,4,1,0,85,0,8
220021,-62.5,4,1,0,85,0,0
220726,705.882352941176,4,1,0,85,1,8
220726,-62.5,4,1,0,85,0,0
220727,705.882352941176,4,1,0,85,1,1
220727,-62.5,4,1,0,85,0,1
243315,-62.5,4,1,0,60,0,1
243491,-62.5,4,1,0,60,0,1
243668,-62.5,4,1,0,60,0,1
244018,-83.3333333333333,4,1,0,60,0,1
244371,-80.2462657851471,4,1,0,60,0,1
244724,-77.3797476894016,4,1,0,60,0,1
245077,-74.710959127178,4,1,0,60,0,1
245430,-72.2201234101499,4,1,0,60,0,1
245783,-69.8900161472138,4,1,0,60,0,1
246136,-67.7055663774275,4,1,0,60,0,1
246488,-65.6591676684412,4,1,0,60,0,1
246841,-63.7275328499597,4,1,0,60,0,1
247194,-61.9063039723661,4,1,0,60,0,1
247547,-60.1862783680966,4,1,0,60,0,1
247812,-58.9565664353637,4,1,0,60,0,1
247900,-58.5592484811354,4,1,0,60,0,1
248077,-57.7760987281199,4,1,0,60,0,1
248253,-57.0178709019959,4,1,0,60,0,1
248430,-56.275144735551,4,1,0,60,0,1
248606,-55.5555555555556,4,1,0,60,0,1
248962,-100,4,1,0,40,0,0
251785,705.882352941176,4,1,0,40,1,8
251786,705.882352941176,4,1,0,40,1,0
251786,-100,4,1,0,40,0,0
268727,-100,4,1,0,50,0,0
269080,-94.8275862068966,4,1,0,50,0,0
269433,-92.436974789916,4,1,0,50,0,0
269786,-90.1639344262295,4,1,0,50,0,0
270138,-88,4,1,0,60,0,0
270491,-85.9375,4,1,0,60,0,0
270844,-83.969465648855,4,1,0,60,0,0
271197,-82.089552238806,4,1,0,60,0,0
271550,-80.2919708029197,4,1,0,70,0,0
271903,-78.5714285714286,4,1,0,70,0,0
272080,-76.9230769230769,4,1,0,70,0,0
272168,-75.3424657534246,4,1,0,70,0,0
272256,-73.8255033557047,4,1,0,70,0,0
272433,-72.3684210526316,4,1,0,70,0,0
272609,-70.9677419354839,4,1,0,70,0,0
272786,-69.620253164557,4,1,0,70,0,0
272962,-68.3229813664596,4,1,0,80,0,0
273080,-67.0731707317073,4,1,0,80,0,0
273197,-65.8682634730539,4,1,0,80,0,0
273315,-64.7058823529412,4,1,0,80,0,0
273550,-63.5838150289017,4,1,0,80,0,0
273668,-62.5,4,1,0,85,0,0
274021,-100,4,1,0,85,0,0
274374,-62.5,4,1,0,85,0,1
296962,-62.5,4,1,0,40,0,0
297138,-100,4,1,0,40,0,0
299785,705.882352941176,4,1,0,75,1,8
299785,-62.5,4,1,0,75,0,8
299786,705.882352941176,4,1,0,75,1,0
299786,-62.5,4,1,0,75,0,1
300138,-61.4754098360656,4,1,0,75,0,1
300491,-60.4838709677419,4,1,0,75,0,1
300844,-59.5238095238095,4,1,0,75,0,1
301197,-58.59375,4,1,0,80,0,1
301550,-57.6923076923077,4,1,0,80,0,1
301903,-56.8181818181818,4,1,0,80,0,1
302256,-55.9701492537313,4,1,0,80,0,1
302609,-55.1470588235294,4,1,0,85,0,1
302962,-54.3478260869565,4,1,0,85,0,1
303315,-53.5714285714286,4,1,0,85,0,1
303668,-52.8169014084507,4,1,0,85,0,1
304021,-52.0833333333333,4,1,0,90,0,1
304374,-51.3698630136986,4,1,0,90,0,1
304727,-50.6756756756757,4,1,0,90,0,1
305080,-50,4,1,0,95,0,0

[HitObjects]
256,192,492,5,12,0:0:0:0:
256,192,844,1,0,0:0:0:0:
256,192,1197,1,0,0:0:0:0:
256,192,1550,1,8,0:0:0:0:
256,192,2256,1,0,0:0:0:0:
256,192,2609,1,0,0:0:0:0:
256,192,2962,1,8,0:0:0:0:
256,192,3668,1,0,0:0:0:0:
256,192,4021,1,0,0:0:0:0:
256,192,4374,1,8,0:0:0:0:
256,192,5080,1,0,0:0:0:0:
256,192,5433,1,0,0:0:0:0:
256,192,5786,1,8,0:0:0:0:
256,192,6139,1,12,0:0:0:0:
256,192,6491,1,0,0:0:0:0:
256,192,6844,1,0,0:0:0:0:
256,192,7197,1,8,0:0:0:0:
256,192,7903,1,0,0:0:0:0:
256,192,8256,1,0,0:0:0:0:
256,192,8609,1,8,0:0:0:0:
256,192,9315,1,0,0:0:0:0:
256,192,9668,1,0,0:0:0:0:
256,192,10021,1,8,0:0:0:0:
256,192,10727,1,0,0:0:0:0:
256,192,11080,1,0,0:0:0:0:
256,192,11433,1,8,0:0:0:0:
256,192,11786,1,12,0:0:0:0:
256,192,12139,1,0,0:0:0:0:
256,192,12492,1,0,0:0:0:0:
256,192,12845,1,8,0:0:0:0:
256,192,13550,1,0,0:0:0:0:
256,192,13903,1,0,0:0:0:0:
256,192,14256,1,8,0:0:0:0:
256,192,14609,1,12,0:0:0:0:
256,192,14962,1,0,0:0:0:0:
256,192,15315,1,0,0:0:0:0:
256,192,15668,1,8,0:0:0:0:
256,192,16374,1,0,0:0:0:0:
256,192,16727,1,0,0:0:0:0:
256,192,17080,1,8,0:0:0:0:
256,192,17433,1,12,0:0:0:0:
256,192,17786,1,0,0:0:0:0:
256,192,18139,1,0,0:0:0:0:
256,192,18492,1,8,0:0:0:0:
256,192,19197,1,0,0:0:0:0:
256,192,19550,1,0,0:0:0:0:
256,192,19903,1,8,0:0:0:0:
256,192,20609,1,0,0:0:0:0:
256,192,20962,1,0,0:0:0:0:
256,192,21315,1,8,0:0:0:0:
256,192,23080,1,12,0:0:0:0:
256,192,23433,1,0,0:0:0:0:
256,192,23786,1,8,0:0:0:0:
256,192,24139,1,0,0:0:0:0:
256,192,24315,1,8,0:0:0:0:
256,192,24844,1,0,0:0:0:0:
256,192,25197,1,8,0:0:0:0:
256,192,25550,1,0,0:0:0:0:
256,192,25727,1,8,0:0:0:0:
256,192,26256,1,0,0:0:0:0:
256,192,26609,1,8,0:0:0:0:
256,192,26962,1,8,0:0:0:0:
256,192,27139,1,0,0:0:0:0:
256,192,27315,1,8,0:0:0:0:
256,192,27844,1,8,0:0:0:0:
256,192,28374,1,0,0:0:0:0:
256,192,29080,1,0,0:0:0:0:
256,192,29433,1,8,0:0:0:0:
256,192,29786,1,0,0:0:0:0:
256,192,29962,1,8,0:0:0:0:
256,192,30491,1,0,0:0:0:0:
256,192,30844,1,8,0:0:0:0:
256,192,31197,1,0,0:0:0:0:
256,192,31374,1,8,0:0:0:0:
256,192,31903,1,0,0:0:0:0:
256,192,32256,1,8,0:0:0:0:
256,192,32609,1,8,0:0:0:0:
256,192,32786,1,0,0:0:0:0:
256,192,32962,1,8,0:0:0:0:
256,192,33491,1,8,0:0:0:0:
256,192,34021,1,8,0:0:0:0:
256,192,34374,1,4,0:0:0:0:
256,192,35433,1,0,0:0:0:0:
256,192,35609,1,0,0:0:0:0:
256,192,35786,1,8,0:0:0:0:
256,192,36844,1,8,0:0:0:0:
256,192,37197,1,0,0:0:0:0:
256,192,38256,1,8,0:0:0:0:
256,192,38962,1,8,0:0:0:0:
256,192,39315,1,8,0:0:0:0:
256,192,39668,1,0,0:0:0:0:
256,192,40021,1,8,0:0:0:0:
256,192,40374,1,0,0:0:0:0:
256,192,41080,1,8,0:0:0:0:
256,192,42139,1,0,0:0:0:0:
256,192,42491,1,8,0:0:0:0:
256,192,44256,1,8,0:0:0:0:
256,192,44609,1,8,0:0:0:0:
256,192,44962,1,0,0:0:0:0:
256,192,45315,1,0,0:0:0:0:
256,192,45668,1,12,0:0:0:0:
256,192,46021,1,0,0:0:0:0:
256,192,46197,1,0,0:0:0:0:
256,192,46374,1,8,0:0:0:0:
256,192,46727,1,0,0:0:0:0:
256,192,46903,1,8,0:0:0:0:
256,192,47433,1,0,0:0:0:0:
256,192,47609,1,0,0:0:0:0:
256,192,47786,1,8,0:0:0:0:
256,192,48139,1,0,0:0:0:0:
256,192,48315,1,8,0:0:0:0:
256,192,48844,1,0,0:0:0:0:
256,192,49021,1,0,0:0:0:0:
256,192,49197,1,8,0:0:0:0:
256,192,49550,1,0,0:0:0:0:
256,192,49727,1,0,0:0:0:0:
256,192,49903,1,8,0:0:0:0:
256,192,50433,1,8,0:0:0:0:
256,192,50962,1,8,0:0:0:0:
256,192,51315,1,0,0:0:0:0:
256,192,51668,1,8,0:0:0:0:
256,192,51844,1,8,0:0:0:0:
256,192,52021,1,0,0:0:0:0:
256,192,52374,1,0,0:0:0:0:
256,192,52550,1,8,0:0:0:0:
256,192,53080,1,0,0:0:0:0:
256,192,53256,1,0,0:0:0:0:
256,192,53433,1,8,0:0:0:0:
256,192,53786,1,0,0:0:0:0:
256,192,53962,1,8,0:0:0:0:
256,192,54491,1,0,0:0:0:0:
256,192,54844,1,8,0:0:0:0:
256,192,55197,1,8,0:0:0:0:
256,192,55374,1,0,0:0:0:0:
256,192,55550,1,8,0:0:0:0:
256,192,56080,1,8,0:0:0:0:
256,192,56609,1,0,0:0:0:0:
256,192,56962,1,12,0:0:0:0:
256,192,57491,1,0,0:0:0:0:
256,192,58021,1,8,0:0:0:0:
256,192,58374,1,0,0:0:0:0:
256,192,58727,1,0,0:0:0:0:
256,192,59080,1,8,0:0:0:0:
256,192,59433,1,0,0:0:0:0:
256,192,59609,1,0,0:0:0:0:
256,192,59786,1,12,0:0:0:0:
256,192,60315,1,0,0:0:0:0:
256,192,60844,1,8,0:0:0:0:
256,192,61550,1,0,0:0:0:0:
256,192,61903,1,8,0:0:0:0:
256,192,62256,1,0,0:0:0:0:
256,192,62433,1,0,0:0:0:0:
256,192,62609,1,8,0:0:0:0:
256,192,62962,1,0,0:0:0:0:
256,192,63315,1,0,0:0:0:0:
256,192,63668,1,8,0:0:0:0:
256,192,63844,1,0,0:0:0:0:
256,192,64727,1,8,0:0:0:0:
256,192,65433,1,0,0:0:0:0:
256,192,66139,1,0,0:0:0:0:
256,192,66491,1,8,0:0:0:0:
256,192,67197,1,8,0:0:0:0:
256,192,67550,1,8,0:0:0:0:
256,192,67903,1,0,0:0:0:0:
256,192,68080,1,8,0:0:0:0:
256,192,68256,1,0,0:0:0:0:
256,192,68609,1,0,0:0:0:0:
256,192,68962,1,8,0:0:0:0:
256,192,69315,1,0,0:0:0:0:
256,192,69668,1,8,0:0:0:0:
256,192,70021,1,8,0:0:0:0:
256,192,70374,1,0,0:0:0:0:
256,192,70727,1,0,0:0:0:0:
256,192,71080,1,8,0:0:0:0:
256,192,71433,1,0,0:0:0:0:
256,192,71786,1,0,0:0:0:0:
256,192,72139,1,0,0:0:0:0:
256,192,72491,1,0,0:0:0:0:
256,192,72844,1,8,0:0:0:0:
256,192,73197,1,0,0:0:0:0:
256,192,73550,1,8,0:0:0:0:
256,192,73727,1,8,0:0:0:0:
256,192,73903,1,4,0:0:0:0:
256,192,74609,1,8,0:0:0:0:
256,192,74962,1,8,0:0:0:0:
256,192,75139,1,8,0:0:0:0:
256,192,75315,1,0,0:0:0:0:
256,192,75668,1,0,0:0:0:0:
256,192,75844,1,8,0:0:0:0:
256,192,76021,1,8,0:0:0:0:
256,192,76374,1,8,0:0:0:0:
256,192,76550,1,0,0:0:0:0:
256,192,76727,1,8,0:0:0:0:
256,192,77433,1,8,0:0:0:0:
256,192,77786,1,0,0:0:0:0:
256,192,78139,1,8,0:0:0:0:
256,192,78491,1,0,0:0:0:0:
256,192,78844,1,8,0:0:0:0:
256,192,79197,1,8,0:0:0:0:
256,192,79374,1,8,0:0:0:0:
256,192,79550,1,4,0:0:0:0:
256,192,80256,1,8,0:0:0:0:
256,192,80609,1,0,0:0:0:0:
256,192,80786,1,0,0:0:0:0:
256,192,80962,1,8,0:0:0:0:
256,192,81315,1,8,0:0:0:0:
256,192,81491,1,8,0:0:0:0:
256,195,81668,1,0,0:0:0:0:
256,192,82021,1,8,0:0:0:0:
256,192,82197,1,0,0:0:0:0:
256,192,82374,1,8,0:0:0:0:
256,192,82727,1,0,0:0:0:0:
256,192,83080,1,8,0:0:0:0:
256,192,83433,1,8,0:0:0:0:
256,192,83786,1,0,0:0:0:0:
256,192,84139,1,0,0:0:0:0:
256,192,84491,1,8,0:0:0:0:
256,192,85197,1,4,0:0:0:0:
256,192,85727,1,8,0:0:0:0:
256,192,85903,1,0,0:0:0:0:
256,192,86256,1,8,0:0:0:0:
256,192,86609,1,8,0:0:0:0:
256,192,86962,1,0,0:0:0:0:
256,192,87315,1,8,0:0:0:0:
256,192,87668,1,0,0:0:0:0:
256,192,88021,1,8,0:0:0:0:
256,192,88550,1,8,0:0:0:0:
256,192,88727,1,0,0:0:0:0:
256,192,89080,1,8,0:0:0:0:
256,192,89433,1,8,0:0:0:0:
256,192,89786,1,0,0:0:0:0:
256,192,90139,1,8,0:0:0:0:
256,192,90491,1,8,0:0:0:0:
256,192,90668,1,8,0:0:0:0:
256,192,90844,1,4,0:0:0:0:
256,192,91197,1,0,0:0:0:0:
256,192,91433,1,8,0:0:0:0:
256,192,91903,1,8,0:0:0:0:
256,192,92139,1,0,0:0:0:0:
256,192,92609,1,0,0:0:0:0:
256,192,92844,1,8,0:0:0:0:
256,192,93315,1,0,0:0:0:0:
256,192,93491,1,8,0:0:0:0:
256,192,93668,1,0,0:0:0:0:
256,192,94021,1,0,0:0:0:0:
256,192,94374,1,8,0:0:0:0:
256,192,94727,1,0,0:0:0:0:
256,192,95080,1,8,0:0:0:0:
256,192,95433,1,0,0:0:0:0:
256,192,95786,1,8,0:0:0:0:
256,192,96139,1,8,0:0:0:0:
256,192,96315,1,8,0:0:0:0:
256,192,96491,1,4,0:0:0:0:
256,192,97197,1,8,0:0:0:0:
256,192,97550,1,8,0:0:0:0:
256,192,97727,1,8,0:0:0:0:
256,192,97903,1,0,0:0:0:0:
256,192,98256,1,0,0:0:0:0:
256,192,98432,1,8,0:0:0:0:
256,192,98609,1,8,0:0:0:0:
256,192,98962,1,8,0:0:0:0:
256,192,99138,1,0,0:0:0:0:
256,192,99315,1,8,0:0:0:0:
256,192,100021,1,8,0:0:0:0:
256,192,100374,1,0,0:0:0:0:
256,192,100727,1,8,0:0:0:0:
256,192,101079,1,0,0:0:0:0:
256,192,101432,1,8,0:0:0:0:
256,192,101785,1,8,0:0:0:0:
256,192,101962,1,8,0:0:0:0:
256,192,102138,1,4,0:0:0:0:
256,192,102844,1,8,0:0:0:0:
256,192,103197,1,0,0:0:0:0:
256,192,103374,1,0,0:0:0:0:
256,192,103550,1,8,0:0:0:0:
256,192,103903,1,8,0:0:0:0:
256,192,104080,1,8,0:0:0:0:
256,195,104256,1,0,0:0:0:0:
256,192,104609,1,8,0:0:0:0:
256,192,104785,1,0,0:0:0:0:
256,192,104962,1,8,0:0:0:0:
256,192,105315,1,0,0:0:0:0:
256,192,105668,1,8,0:0:0:0:
256,192,106021,1,8,0:0:0:0:
256,192,106374,1,0,0:0:0:0:
256,192,106727,1,0,0:0:0:0:
256,192,107079,1,8,0:0:0:0:
256,192,107785,1,4,0:0:0:0:
256,192,108315,1,8,0:0:0:0:
256,192,108491,1,0,0:0:0:0:
256,192,108844,1,8,0:0:0:0:
256,192,109197,1,8,0:0:0:0:
256,192,109550,1,0,0:0:0:0:
256,192,109903,1,0,0:0:0:0:
256,192,110256,1,8,0:0:0:0:
256,192,110609,1,0,0:0:0:0:
256,192,111138,1,8,0:0:0:0:
256,192,111315,1,0,0:0:0:0:
256,192,111668,1,8,0:0:0:0:
256,192,112021,1,8,0:0:0:0:
256,192,112374,1,0,0:0:0:0:
256,192,112727,1,8,0:0:0:0:
256,192,113079,1,0,0:0:0:0:
256,192,113256,1,0,0:0:0:0:
256,192,113432,1,12,0:0:0:0:
256,192,113785,1,8,0:0:0:0:
256,192,113962,1,0,0:0:0:0:
256,192,114491,1,0,0:0:0:0:
256,192,114668,1,8,0:0:0:0:
256,192,114844,1,0,0:0:0:0:
256,192,115197,1,0,0:0:0:0:
256,192,115550,1,8,0:0:0:0:
256,192,115903,1,8,0:0:0:0:
256,192,116080,1,0,0:0:0:0:
256,192,116256,1,8,0:0:0:0:
256,192,116962,1,0,0:0:0:0:
256,192,117315,1,8,0:0:0:0:
256,192,118374,1,0,0:0:0:0:
256,192,118727,1,8,0:0:0:0:
256,192,119786,1,0,0:0:0:0:
256,192,120139,1,8,0:0:0:0:
256,192,121903,1,4,0:0:0:0:
256,192,122609,1,8,0:0:0:0:
256,192,122962,1,0,0:0:0:0:
256,192,123315,1,8,0:0:0:0:
256,192,123668,1,0,0:0:0:0:
256,192,123844,1,0,0:0:0:0:
256,192,124021,1,8,0:0:0:0:
256,192,124374,1,0,0:0:0:0:
256,192,124727,1,8,0:0:0:0:
256,192,125080,1,0,0:0:0:0:
256,192,125256,1,0,0:0:0:0:
256,192,125433,1,8,0:0:0:0:
256,192,125786,1,8,0:0:0:0:
256,192,125962,1,0,0:0:0:0:
256,192,126139,1,8,0:0:0:0:
256,192,126668,1,8,0:0:0:0:
256,192,127021,1,0,0:0:0:0:
256,192,127197,1,8,0:0:0:0:
256,192,127550,1,0,0:0:0:0:
256,192,127903,1,0,0:0:0:0:
256,192,128080,1,0,0:0:0:0:
256,192,128256,1,8,0:0:0:0:
256,192,128609,1,0,0:0:0:0:
256,192,128962,1,8,0:0:0:0:
256,192,129315,1,0,0:0:0:0:
256,192,129491,1,0,0:0:0:0:
256,192,129668,1,8,0:0:0:0:
256,192,130021,1,0,0:0:0:0:
256,192,130374,1,8,0:0:0:0:
256,192,130727,1,0,0:0:0:0:
256,192,130903,1,0,0:0:0:0:
256,192,131080,1,8,0:0:0:0:
256,192,131433,1,8,0:0:0:0:
256,192,131609,1,0,0:0:0:0:
256,192,131786,1,8,0:0:0:0:
256,192,132315,1,8,0:0:0:0:
256,192,132491,1,0,0:0:0:0:
256,192,132844,1,0,0:0:0:0:
256,192,133021,1,0,0:0:0:0:
256,192,133197,1,12,0:0:0:0:
256,192,133903,1,8,0:0:0:0:
256,192,134256,1,8,0:0:0:0:
256,192,134433,1,0,0:0:0:0:
256,192,134609,1,8,0:0:0:0:
256,192,134962,1,0,0:0:0:0:
256,192,135315,1,8,0:0:0:0:
256,192,135668,1,0,0:0:0:0:
256,192,135844,1,8,0:0:0:0:
256,192,136021,1,0,0:0:0:0:
256,192,136374,1,0,0:0:0:0:
256,192,136727,1,8,0:0:0:0:
256,192,137080,1,0,0:0:0:0:
256,192,137786,1,8,0:0:0:0:
256,192,138139,1,0,0:0:0:0:
256,192,138491,1,0,0:0:0:0:
256,192,138844,1,8,0:0:0:0:
256,192,139197,1,0,0:0:0:0:
256,192,139550,1,8,0:0:0:0:
256,192,139903,1,0,0:0:0:0:
256,192,140256,1,8,0:0:0:0:
256,192,140433,1,8,0:0:0:0:
256,192,140609,1,0,0:0:0:0:
256,192,140962,1,8,0:0:0:0:
256,192,141315,1,8,0:0:0:0:
256,192,141668,1,0,0:0:0:0:
256,192,142374,1,8,0:0:0:0:
256,192,142727,1,0,0:0:0:0:
256,192,143080,1,8,0:0:0:0:
256,192,143433,1,8,0:0:0:0:
256,192,143609,1,0,0:0:0:0:
256,192,143786,1,8,0:0:0:0:
256,192,143962,1,8,0:0:0:0:
256,192,144139,1,0,0:0:0:0:
256,192,144491,1,12,0:0:0:0:
256,192,145197,1,8,0:0:0:0:
256,192,145550,1,0,0:0:0:0:
256,192,145903,1,8,0:0:0:0:
256,192,146256,1,0,0:0:0:0:
256,192,146433,1,0,0:0:0:0:
256,192,146609,1,8,0:0:0:0:
256,192,146962,1,0,0:0:0:0:
256,192,147315,1,8,0:0:0:0:
256,192,147668,1,0,0:0:0:0:
256,192,147844,1,0,0:0:0:0:
256,192,148021,1,8,0:0:0:0:
256,192,148374,1,8,0:0:0:0:
256,192,148550,1,0,0:0:0:0:
256,192,148727,1,8,0:0:0:0:
256,192,149256,1,8,0:0:0:0:
256,192,149433,1,0,0:0:0:0:
256,192,149786,1,8,0:0:0:0:
256,192,150139,1,0,0:0:0:0:
256,192,150491,1,0,0:0:0:0:
256,192,150668,1,0,0:0:0:0:
256,192,150844,1,8,0:0:0:0:
256,192,151197,1,0,0:0:0:0:
256,192,151550,1,8,0:0:0:0:
256,192,151903,1,0,0:0:0:0:
256,192,152080,1,0,0:0:0:0:
256,192,152256,1,8,0:0:0:0:
256,192,152609,1,0,0:0:0:0:
256,192,152962,1,8,0:0:0:0:
256,192,153315,1,0,0:0:0:0:
256,192,153491,1,0,0:0:0:0:
256,192,153668,1,8,0:0:0:0:
256,192,154021,1,0,0:0:0:0:
256,192,154197,1,8,0:0:0:0:
256,192,154374,1,0,0:0:0:0:
256,192,154727,1,0,0:0:0:0:
256,192,155080,1,8,0:0:0:0:
256,192,155433,1,0,0:0:0:0:
256,192,155609,1,0,0:0:0:0:
256,192,155786,1,12,0:0:0:0:
256,192,156315,1,8,0:0:0:0:
256,192,156491,1,0,0:0:0:0:
256,192,156844,1,8,0:0:0:0:
256,192,157197,1,0,0:0:0:0:
256,192,157550,1,0,0:0:0:0:
256,192,157903,1,8,0:0:0:0:
256,192,158256,1,0,0:0:0:0:
256,192,158433,1,0,0:0:0:0:
256,192,158609,1,8,0:0:0:0:
256,192,159139,1,8,0:0:0:0:
256,192,159315,1,0,0:0:0:0:
256,192,159668,1,8,0:0:0:0:
256,192,160021,1,8,0:0:0:0:
256,192,160374,1,0,0:0:0:0:
256,192,160727,1,8,0:0:0:0:
256,192,161080,1,0,0:0:0:0:
256,192,161433,1,12,0:0:0:0:
256,192,162139,1,0,0:0:0:0:
256,192,162491,1,8,0:0:0:0:
256,192,162844,1,0,0:0:0:0:
256,192,163021,1,0,0:0:0:0:
256,192,163197,1,0,0:0:0:0:
256,192,163550,1,8,0:0:0:0:
256,192,163903,1,0,0:0:0:0:
256,192,164256,1,8,0:0:0:0:
256,192,164433,1,8,0:0:0:0:
256,192,164609,1,8,0:0:0:0:
256,192,164962,1,4,0:0:0:0:
256,192,165668,1,0,0:0:0:0:
256,192,166021,1,8,0:0:0:0:
256,192,166374,1,0,0:0:0:0:
256,192,166550,1,0,0:0:0:0:
256,192,166727,1,8,0:0:0:0:
256,192,166903,1,8,0:0:0:0:
256,192,167080,1,4,0:0:0:0:
256,192,167433,1,0,0:0:0:0:
256,192,167786,1,8,0:0:0:0:
256,192,168139,1,0,0:0:0:0:
256,192,168491,1,8,0:0:0:0:
256,192,168844,1,8,0:0:0:0:
256,192,169197,1,0,0:0:0:0:
256,192,169550,1,0,0:0:0:0:
256,192,169903,1,8,0:0:0:0:
256,192,170256,1,0,0:0:0:0:
256,192,170609,1,8,0:0:0:0:
256,192,170962,1,0,0:0:0:0:
256,192,171315,1,8,0:0:0:0:
256,192,171491,1,0,0:0:0:0:
256,192,171580,1,0,0:0:0:0:
256,192,171668,1,8,0:0:0:0:
256,192,171844,1,8,0:0:0:0:
256,192,172021,1,0,0:0:0:0:
256,192,172197,1,0,0:0:0:0:
256,192,172374,1,0,0:0:0:0:
256,192,172550,1,0,0:0:0:0:
256,192,172727,1,12,0:0:0:0:
256,192,173433,1,8,0:0:0:0:
256,192,173786,1,0,0:0:0:0:
256,192,173962,1,8,0:0:0:0:
256,192,174050,1,8,0:0:0:0:
256,192,174139,1,0,0:0:0:0:
256,192,174315,1,0,0:0:0:0:
256,192,174491,1,8,0:0:0:0:
256,192,174668,1,0,0:0:0:0:
256,192,174844,1,8,0:0:0:0:
256,192,175197,1,8,0:0:0:0:
256,192,175374,1,0,0:0:0:0:
256,192,175462,1,0,0:0:0:0:
256,192,175550,1,12,0:0:0:0:
256,192,176256,1,8,0:0:0:0:
256,192,176609,1,8,0:0:0:0:
256,192,176786,1,0,0:0:0:0:
256,192,176874,1,0,0:0:0:0:
256,192,176962,1,0,0:0:0:0:
256,192,177139,1,8,0:0:0:0:
256,192,177315,1,0,0:0:0:0:
256,192,177668,1,8,0:0:0:0:
256,192,178021,1,8,0:0:0:0:
256,192,178197,1,0,0:0:0:0:
256,192,178374,1,12,0:0:0:0:
256,192,179080,1,8,0:0:0:0:
256,192,179433,1,0,0:0:0:0:
256,192,179609,1,8,0:0:0:0:
256,192,179697,1,8,0:0:0:0:
256,192,179786,1,0,0:0:0:0:
256,192,179962,1,0,0:0:0:0:
256,192,180139,1,8,0:0:0:0:
256,192,180315,1,0,0:0:0:0:
256,192,180491,1,8,0:0:0:0:
256,192,180844,1,8,0:0:0:0:
256,192,181021,1,8,0:0:0:0:
256,192,181109,1,8,0:0:0:0:
256,192,181197,1,4,0:0:0:0:
256,192,181903,1,8,0:0:0:0:
256,192,182256,1,8,0:0:0:0:
256,192,182433,1,0,0:0:0:0:
256,192,182521,1,0,0:0:0:0:
256,192,182609,1,0,0:0:0:0:
256,192,182786,1,8,0:0:0:0:
256,192,182962,1,0,0:0:0:0:
256,192,183315,1,8,0:0:0:0:
256,192,183668,1,8,0:0:0:0:
256,192,183844,1,8,0:0:0:0:
256,192,184021,1,4,0:0:0:0:
256,192,184550,1,0,0:0:0:0:
256,192,184727,1,8,0:0:0:0:
256,192,185080,1,8,0:0:0:0:
256,192,185256,1,0,0:0:0:0:
256,192,185344,1,0,0:0:0:0:
256,192,185433,1,0,0:0:0:0:
256,192,185609,1,8,0:0:0:0:
256,192,185786,1,0,0:0:0:0:
256,192,186139,1,8,0:0:0:0:
256,192,186491,1,0,0:0:0:0:
256,192,186668,1,0,0:0:0:0:
256,192,186844,1,12,0:0:0:0:
256,192,187373,1,0,0:0:0:0:
256,192,187550,1,8,0:0:0:0:
256,192,187903,1,8,0:0:0:0:
256,192,188079,1,0,0:0:0:0:
256,192,188167,1,0,0:0:0:0:
256,192,188256,1,0,0:0:0:0:
256,192,188432,1,8,0:0:0:0:
256,192,188609,1,0,0:0:0:0:
256,192,188962,1,8,0:0:0:0:
256,192,189314,1,0,0:0:0:0:
256,192,189491,1,0,0:0:0:0:
256,192,189667,1,12,0:0:0:0:
256,192,190021,1,0,0:0:0:0:
256,192,190197,1,0,0:0:0:0:
256,192,190374,1,8,0:0:0:0:
256,192,190727,1,0,0:0:0:0:
256,192,190903,1,8,0:0:0:0:
256,192,190991,1,8,0:0:0:0:
256,192,191080,1,0,0:0:0:0:
256,192,191433,1,0,0:0:0:0:
256,192,191609,1,8,0:0:0:0:
256,192,191786,1,0,0:0:0:0:
256,192,192139,1,8,0:0:0:0:
256,192,192315,1,8,0:0:0:0:
256,192,192491,1,4,0:0:0:0:
256,192,192844,1,0,0:0:0:0:
256,192,193021,1,0,0:0:0:0:
256,192,193197,1,8,0:0:0:0:
256,192,193550,1,8,0:0:0:0:
256,192,193727,1,0,0:0:0:0:
256,192,193815,1,0,0:0:0:0:
256,192,193903,1,0,0:0:0:0:
256,192,194080,1,8,0:0:0:0:
256,192,194256,1,8,0:0:0:0:
256,192,194433,1,8,0:0:0:0:
256,192,194609,1,0,0:0:0:0:
256,192,194786,1,0,0:0:0:0:
256,192,194962,1,0,0:0:0:0:
256,192,195139,1,0,0:0:0:0:
256,192,195227,1,0,0:0:0:0:
256,192,195315,1,12,0:0:0:0:
256,192,196021,1,8,0:0:0:0:
256,192,196374,1,0,0:0:0:0:
256,192,196550,1,8,0:0:0:0:
256,192,196638,1,8,0:0:0:0:
256,192,196727,1,0,0:0:0:0:
256,192,196903,1,0,0:0:0:0:
256,192,197079,1,8,0:0:0:0:
256,192,197256,1,0,0:0:0:0:
256,192,197432,1,8,0:0:0:0:
256,192,197785,1,8,0:0:0:0:
256,192,197962,1,0,0:0:0:0:
256,192,198050,1,0,0:0:0:0:
256,192,198138,1,12,0:0:0:0:
256,192,198844,1,8,0:0:0:0:
256,192,199197,1,8,0:0:0:0:
256,192,199374,1,0,0:0:0:0:
256,192,199462,1,0,0:0:0:0:
256,192,199550,1,0,0:0:0:0:
256,192,199727,1,8,0:0:0:0:
256,192,199903,1,0,0:0:0:0:
256,192,200256,1,8,0:0:0:0:
256,192,200609,1,8,0:0:0:0:
256,192,200785,1,0,0:0:0:0:
256,192,200962,1,12,0:0:0:0:
256,192,201668,1,8,0:0:0:0:
256,192,202021,1,0,0:0:0:0:
256,192,202197,1,8,0:0:0:0:
256,192,202285,1,8,0:0:0:0:
256,192,202374,1,0,0:0:0:0:
256,192,202550,1,0,0:0:0:0:
256,192,202727,1,8,0:0:0:0:
256,192,202903,1,0,0:0:0:0:
256,192,203079,1,8,0:0:0:0:
256,192,203432,1,8,0:0:0:0:
256,192,203609,1,8,0:0:0:0:
256,192,203697,1,8,0:0:0:0:
256,192,203785,1,4,0:0:0:0:
256,192,204491,1,8,0:0:0:0:
256,192,204844,1,8,0:0:0:0:
256,192,205021,1,0,0:0:0:0:
256,192,205109,1,0,0:0:0:0:
256,192,205197,1,0,0:0:0:0:
256,192,205374,1,8,0:0:0:0:
256,192,205550,1,0,0:0:0:0:
256,192,205903,1,8,0:0:0:0:
256,192,206080,1,8,0:0:0:0:
256,192,206256,1,0,0:0:0:0:
256,192,206433,1,0,0:0:0:0:
256,192,206609,1,12,0:0:0:0:
256,192,207138,1,0,0:0:0:0:
256,192,207315,1,8,0:0:0:0:
256,192,207668,1,8,0:0:0:0:
256,192,207844,1,0,0:0:0:0:
256,192,207932,1,0,0:0:0:0:
256,192,208021,1,0,0:0:0:0:
256,192,208197,1,8,0:0:0:0:
256,192,208374,1,0,0:0:0:0:
256,192,208727,1,8,0:0:0:0:
256,192,209079,1,0,0:0:0:0:
256,192,209256,1,0,0:0:0:0:
256,192,209432,1,12,0:0:0:0:
256,192,209961,1,0,0:0:0:0:
256,192,210138,1,8,0:0:0:0:
256,192,210491,1,8,0:0:0:0:
256,192,210667,1,0,0:0:0:0:
256,192,210755,1,0,0:0:0:0:
256,192,210844,1,0,0:0:0:0:
256,192,211020,1,8,0:0:0:0:
256,192,211197,1,0,0:0:0:0:
256,192,211550,1,8,0:0:0:0:
256,192,211902,1,0,0:0:0:0:
256,192,212079,1,0,0:0:0:0:
256,192,212255,1,12,0:0:0:0:
256,192,212609,1,0,0:0:0:0:
256,192,212785,1,8,0:0:0:0:
256,192,212962,1,0,0:0:0:0:
256,192,213315,1,8,0:0:0:0:
256,192,213491,1,8,0:0:0:0:
256,192,213579,1,8,0:0:0:0:
256,192,213668,1,0,0:0:0:0:
256,192,214021,1,8,0:0:0:0:
256,192,214197,1,0,0:0:0:0:
256,192,214286,1,0,0:0:0:0:
256,192,214374,1,8,0:0:0:0:
256,192,214550,1,8,0:0:0:0:
256,192,214727,1,0,0:0:0:0:
256,192,214903,1,0,0:0:0:0:
256,192,215079,1,12,0:0:0:0:
256,192,215785,1,8,0:0:0:0:
256,192,216138,1,0,0:0:0:0:
256,192,216491,1,8,0:0:0:0:
256,192,216844,1,8,0:0:0:0:
256,192,217197,1,0,0:0:0:0:
256,192,217550,1,8,0:0:0:0:
256,192,217727,1,8,0:0:0:0:
256,192,217903,1,4,0:0:0:0:
256,192,218256,1,0,0:0:0:0:
256,192,218431,1,0,0:0:0:0:
256,192,218608,1,8,0:0:0:0:
256,192,218961,1,0,0:0:0:0:
256,192,219314,1,8,0:0:0:0:
256,192,219549,1,0,0:0:0:0:
256,192,219667,1,8,0:0:0:0:
256,192,219784,1,8,0:0:0:0:
256,192,219902,1,8,0:0:0:0:
256,192,220020,1,8,0:0:0:0:
256,192,220137,1,8,0:0:0:0:
256,192,220373,1,0,0:0:0:0:
256,192,220490,1,0,0:0:0:0:
256,192,220608,1,0,0:0:0:0:
256,192,220727,1,12,0:0:0:0:
256,192,221256,1,0,0:0:0:0:
256,192,221433,1,8,0:0:0:0:
256,192,221786,1,8,0:0:0:0:
256,192,221962,1,8,0:0:0:0:
256,192,222050,1,8,0:0:0:0:
256,192,222139,1,0,0:0:0:0:
256,192,222315,1,0,0:0:0:0:
256,192,222491,1,8,0:0:0:0:
256,192,222668,1,0,0:0:0:0:
256,192,222844,1,8,0:0:0:0:
256,192,223197,1,8,0:0:0:0:
256,192,223374,1,8,0:0:0:0:
256,192,223462,1,8,0:0:0:0:
256,192,223550,1,0,0:0:0:0:
256,192,223903,1,0,0:0:0:0:
256,192,224080,1,8,0:0:0:0:
256,192,224256,1,8,0:0:0:0:
256,192,224433,1,0,0:0:0:0:
256,192,224609,1,8,0:0:0:0:
256,192,224786,1,0,0:0:0:0:
256,192,224874,1,0,0:0:0:0:
256,192,224962,1,0,0:0:0:0:
256,192,225139,1,8,0:0:0:0:
256,192,225315,1,8,0:0:0:0:
256,192,225491,1,0,0:0:0:0:
256,192,225668,1,8,0:0:0:0:
256,192,225844,1,0,0:0:0:0:
256,192,226021,1,8,0:0:0:0:
256,192,226374,1,4,0:0:0:0:
256,192,226727,1,8,0:0:0:0:
256,192,226903,1,0,0:0:0:0:
256,192,226991,1,0,0:0:0:0:
256,192,227080,1,8,0:0:0:0:
256,192,227433,1,8,0:0:0:0:
256,192,227609,1,0,0:0:0:0:
256,192,227786,1,8,0:0:0:0:
256,192,227962,1,8,0:0:0:0:
256,192,228139,1,0,0:0:0:0:
256,192,228315,1,0,0:0:0:0:
256,192,228491,1,8,0:0:0:0:
256,192,228844,1,0,0:0:0:0:
256,192,229021,1,0,0:0:0:0:
256,192,229109,1,0,0:0:0:0:
256,192,229197,1,8,0:0:0:0:
256,192,229550,1,8,0:0:0:0:
256,192,229727,1,0,0:0:0:0:
256,192,229903,1,8,0:0:0:0:
256,192,230256,1,8,0:0:0:0:
256,192,230433,1,0,0:0:0:0:
256,192,230521,1,0,0:0:0:0:
256,192,230609,1,0,0:0:0:0:
256,192,230786,1,8,0:0:0:0:
256,192,230962,1,0,0:0:0:0:
256,192,231315,1,8,0:0:0:0:
256,192,231491,1,8,0:0:0:0:
256,192,231668,1,0,0:0:0:0:
256,192,231844,1,0,0:0:0:0:
256,192,232021,1,12,0:0:0:0:
256,192,232374,1,8,0:0:0:0:
256,192,232550,1,0,0:0:0:0:
256,192,232727,1,8,0:0:0:0:
256,192,232903,1,8,0:0:0:0:
256,192,233080,1,0,0:0:0:0:
256,192,233433,1,0,0:0:0:0:
256,192,233609,1,0,0:0:0:0:
256,192,233786,1,8,0:0:0:0:
256,192,233962,1,0,0:0:0:0:
256,192,234139,1,8,0:0:0:0:
256,192,234315,1,8,0:0:0:0:
256,192,234491,1,0,0:0:0:0:
256,192,234668,1,8,0:0:0:0:
256,192,234756,1,8,0:0:0:0:
256,192,234844,1,4,0:0:0:0:
256,192,235197,1,8,0:0:0:0:
256,192,235374,1,0,0:0:0:0:
256,192,235550,1,8,0:0:0:0:
256,192,235727,1,8,0:0:0:0:
256,192,235903,1,0,0:0:0:0:
256,192,236080,1,0,0:0:0:0:
256,192,236168,1,0,0:0:0:0:
256,192,236256,1,8,0:0:0:0:
256,192,236433,1,0,0:0:0:0:
256,192,236609,1,8,0:0:0:0:
256,192,236962,1,0,0:0:0:0:
256,192,237315,1,8,0:0:0:0:
256,192,237668,1,4,0:0:0:0:
256,192,238374,1,8,0:0:0:0:
256,192,238727,1,0,0:0:0:0:
256,192,238903,1,0,0:0:0:0:
256,192,239080,1,8,0:0:0:0:
256,192,239256,1,0,0:0:0:0:
256,192,239433,1,8,0:0:0:0:
256,192,239609,1,8,0:0:0:0:
256,192,239786,1,0,0:0:0:0:
256,192,240139,1,8,0:0:0:0:
256,192,240315,1,8,0:0:0:0:
256,192,240403,1,8,0:0:0:0:
256,192,240491,1,4,0:0:0:0:
256,192,240844,1,0,0:0:0:0:
256,192,241021,1,0,0:0:0:0:
256,192,241197,1,8,0:0:0:0:
256,192,241550,1,8,0:0:0:0:
256,192,241727,1,0,0:0:0:0:
256,192,241815,1,0,0:0:0:0:
256,192,241903,1,8,0:0:0:0:
256,192,242080,1,8,0:0:0:0:
256,192,242256,1,0,0:0:0:0:
256,192,242433,1,0,0:0:0:0:
256,192,242521,1,0,0:0:0:0:
256,192,242609,1,8,0:0:0:0:
256,192,242786,1,8,0:0:0:0:
256,192,242962,1,0,0:0:0:0:
256,192,243139,1,0,0:0:0:0:
256,192,243315,1,12,0:0:0:0:
256,192,244021,1,0,0:0:0:0:
256,192,244374,1,0,0:0:0:0:
256,192,244727,1,8,0:0:0:0:
256,192,245080,1,8,0:0:0:0:
256,192,245433,1,0,0:0:0:0:
256,192,245786,1,0,0:0:0:0:
256,192,246139,1,8,0:0:0:0:
256,192,246491,1,0,0:0:0:0:
256,192,246844,1,8,0:0:0:0:
256,192,247197,1,0,0:0:0:0:
256,192,247550,1,8,0:0:0:0:
256,192,247815,1,0,0:0:0:0:
256,192,247903,1,8,0:0:0:0:
256,192,248080,1,8,0:0:0:0:
256,192,248256,1,0,0:0:0:0:
256,192,248433,1,0,0:0:0:0:
256,192,248609,1,8,0:0:0:0:
256,192,248786,1,0,0:0:0:0:
256,192,251786,1,0,0:0:0:0:
256,192,252844,1,8,0:0:0:0:
256,192,253021,1,0,0:0:0:0:
256,192,253550,1,0,0:0:0:0:
256,192,253727,1,8,0:0:0:0:
256,192,254256,1,8,0:0:0:0:
256,192,254433,1,0,0:0:0:0:
256,192,256374,1,0,0:0:0:0:
256,192,256727,1,8,0:0:0:0:
256,192,257080,1,8,0:0:0:0:
256,192,257256,1,0,0:0:0:0:
256,192,258491,1,0,0:0:0:0:
256,192,258668,1,0,0:0:0:0:
256,192,258844,1,8,0:0:0:0:
256,192,259197,1,0,0:0:0:0:
256,192,259374,1,8,0:0:0:0:
256,192,259903,1,8,0:0:0:0:
256,192,260080,1,0,0:0:0:0:
256,192,262374,1,0,0:0:0:0:
256,192,263080,1,8,0:0:0:0:
256,192,263609,1,0,0:0:0:0:
256,192,264139,1,8,0:0:0:0:
256,192,264844,1,0,0:0:0:0:
256,192,265550,1,0,0:0:0:0:
256,192,265903,1,8,0:0:0:0:
256,192,266432,1,0,0:0:0:0:
256,192,266962,1,8,0:0:0:0:
256,192,267668,1,0,0:0:0:0:
256,192,267844,1,0,0:0:0:0:
256,192,267933,1,0,0:0:0:0:
256,192,268021,1,8,0:0:0:0:
256,192,268374,1,8,0:0:0:0:
256,192,268550,1,0,0:0:0:0:
256,192,268727,1,12,0:0:0:0:
256,192,269080,1,0,0:0:0:0:
256,192,269433,1,8,0:0:0:0:
256,192,269786,1,8,0:0:0:0:
256,192,270139,1,0,0:0:0:0:
256,192,270491,1,0,0:0:0:0:
256,192,270844,1,8,0:0:0:0:
256,192,271197,1,0,0:0:0:0:
256,192,271550,1,12,0:0:0:0:
256,192,271903,1,0,0:0:0:0:
256,192,272080,1,0,0:0:0:0:
256,192,272168,1,0,0:0:0:0:
256,192,272256,1,8,0:0:0:0:
256,192,272433,1,8,0:0:0:0:
256,192,272609,1,8,0:0:0:0:
256,192,272786,1,0,0:0:0:0:
256,192,272962,1,8,0:0:0:0:
256,192,273080,1,0,0:0:0:0:
256,192,273197,1,0,0:0:0:0:
256,192,273315,1,8,0:0:0:0:
256,192,273550,1,0,0:0:0:0:
256,192,273668,1,8,0:0:0:0:
256,192,274374,1,4,0:0:0:0:
256,192,275080,1,8,0:0:0:0:
256,192,275433,1,0,0:0:0:0:
256,192,275609,1,8,0:0:0:0:
256,192,275697,1,8,0:0:0:0:
256,192,275786,1,0,0:0:0:0:
256,192,275962,1,0,0:0:0:0:
256,192,276138,1,8,0:0:0:0:
256,192,276315,1,0,0:0:0:0:
256,192,276491,1,8,0:0:0:0:
256,192,276844,1,8,0:0:0:0:
256,192,277021,1,0,0:0:0:0:
256,192,277109,1,0,0:0:0:0:
256,192,277197,1,12,0:0:0:0:
256,192,277903,1,8,0:0:0:0:
256,192,278256,1,8,0:0:0:0:
256,192,278433,1,0,0:0:0:0:
256,192,278521,1,0,0:0:0:0:
256,192,278609,1,0,0:0:0:0:
256,192,278786,1,8,0:0:0:0:
256,192,278962,1,0,0:0:0:0:
256,192,279315,1,8,0:0:0:0:
256,192,279668,1,8,0:0:0:0:
256,192,279844,1,0,0:0:0:0:
256,192,279933,1,0,0:0:0:0:
256,192,280021,1,12,0:0:0:0:
256,192,280727,1,8,0:0:0:0:
256,192,281080,1,0,0:0:0:0:
256,192,281256,1,8,0:0:0:0:
256,192,281344,1,8,0:0:0:0:
256,192,281433,1,0,0:0:0:0:
256,192,281609,1,0,0:0:0:0:
256,192,281786,1,8,0:0:0:0:
256,192,281962,1,0,0:0:0:0:
256,192,282138,1,8,0:0:0:0:
256,192,282491,1,8,0:0:0:0:
256,192,282668,1,8,0:0:0:0:
256,192,282756,1,8,0:0:0:0:
256,192,282844,1,4,0:0:0:0:
256,192,283550,1,8,0:0:0:0:
256,192,283903,1,8,0:0:0:0:
256,192,284080,1,0,0:0:0:0:
256,192,284168,1,0,0:0:0:0:
256,192,284256,1,0,0:0:0:0:
256,192,284433,1,8,0:0:0:0:
256,192,284609,1,8,0:0:0:0:
256,192,284786,1,0,0:0:0:0:
256,192,284874,1,0,0:0:0:0:
256,192,284962,1,8,0:0:0:0:
256,192,285139,1,8,0:0:0:0:
256,192,285315,1,0,0:0:0:0:
256,192,285491,1,0,0:0:0:0:
256,192,285668,1,12,0:0:0:0:
256,192,286197,1,0,0:0:0:0:
256,192,286374,1,8,0:0:0:0:
256,192,286727,1,8,0:0:0:0:
256,192,286903,1,0,0:0:0:0:
256,192,286991,1,0,0:0:0:0:
256,192,287080,1,0,0:0:0:0:
256,192,287256,1,8,0:0:0:0:
256,192,287433,1,0,0:0:0:0:
256,192,287786,1,8,0:0:0:0:
256,192,288138,1,0,0:0:0:0:
256,192,288315,1,0,0:0:0:0:
256,192,288403,1,0,0:0:0:0:
256,192,288491,1,12,0:0:0:0:
256,192,289020,1,0,0:0:0:0:
256,192,289197,1,8,0:0:0:0:
256,192,289550,1,8,0:0:0:0:
256,192,289726,1,0,0:0:0:0:
256,192,289814,1,0,0:0:0:0:
256,192,289903,1,0,0:0:0:0:
256,192,290079,1,8,0:0:0:0:
256,192,290256,1,0,0:0:0:0:
256,192,290609,1,8,0:0:0:0:
256,192,290961,1,0,0:0:0:0:
256,192,291138,1,0,0:0:0:0:
256,192,291227,1,0,0:0:0:0:
256,192,291314,1,12,0:0:0:0:
256,192,291668,1,0,0:0:0:0:
256,192,291844,1,0,0:0:0:0:
256,192,292021,1,8,0:0:0:0:
256,192,292374,1,0,0:0:0:0:
256,192,292550,1,8,0:0:0:0:
256,192,292638,1,8,0:0:0:0:
256,192,292727,1,0,0:0:0:0:
256,192,292903,1,8,0:0:0:0:
256,192,293080,1,0,0:0:0:0:
256,192,293256,1,0,0:0:0:0:
256,192,293433,1,8,0:0:0:0:
256,192,293786,1,8,0:0:0:0:
256,192,293962,1,8,0:0:0:0:
256,192,294050,1,8,0:0:0:0:
256,192,294138,1,4,0:0:0:0:
256,192,294491,1,0,0:0:0:0:
256,192,294668,1,0,0:0:0:0:
256,192,294844,1,8,0:0:0:0:
256,192,295197,1,8,0:0:0:0:
256,192,295374,1,0,0:0:0:0:
256,192,295550,1,0,0:0:0:0:
256,192,295727,1,8,0:0:0:0:
256,192,295903,1,8,0:0:0:0:
256,192,296080,1,0,0:0:0:0:
256,192,296168,1,0,0:0:0:0:
256,192,296256,1,8,0:0:0:0:
256,192,296433,1,8,0:0:0:0:
256,192,296609,1,0,0:0:0:0:
256,192,296786,1,8,0:0:0:0:
256,192,296962,1,0,0:0:0:0:
256,192,298374,1,8,0:0:0:0:
256,192,299786,1,12,0:0:0:0:
256,192,300139,1,0,0:0:0:0:
256,192,300491,1,0,0:0:0:0:
256,192,300844,1,8,0:0:0:0:
256,192,301197,1,0,0:0:0:0:
256,192,301550,1,0,0:0:0:0:
256,192,301903,1,8,0:0:0:0:
256,192,302256,1,8,0:0:0:0:
256,192,302609,1,4,0:0:0:0:
256,192,302962,1,8,0:0:0:0:
256,192,303315,1,4,0:0:0:0:
256,192,303668,1,8,0:0:0:0:
256,192,304021,1,4,0:0:0:0:
256,192,304374,1,4,0:0:0:0:
256,192,304727,1,12,0:0:0:0:
256,192,305080,1,4,0:0:0:0:
