osu file format v14

[General]
AudioFilename: audio.mp3
AudioLeadIn: 0
PreviewTime: 72070
Countdown: 1
SampleSet: Soft
StackLeniency: 0.3
Mode: 0
LetterboxInBreaks: 0
WidescreenStoryboard: 1

[Editor]
Bookmarks: 109506
DistanceSpacing: 1.1
BeatDivisor: 4
GridSize: 4
TimelineZoom: 1.400003

[Metadata]
Title:Kiseki
TitleUnicode:軌跡
Artist:Roselia
ArtistUnicode:Roselia
Creator:Avoidedoki
Version:Hard
Source:バンドリ!ガールズバンドパーティ!
Tags:BanG Dream! Bandori! Girls Band Party! ガルパ Garupa Opera of the wasteland album Bandori project Girl Party Garupa! Rozeria ロゼリア Minato Yukina 湊友希那 Hikawa Sayo 氷川紗夜 Imai Lisa 今井リサ Udagawa Ako 宇田川あこ Shirokane Rinko 白金燐子 Aiba Aina 相羽あいな Kudō Haruka Kudo Kudou 工藤晴香 Endō Yurika Endo Endou 遠藤ゆりか Sakuragawa Megu 桜川めぐ Akesaka Satomi 明坂聡美 Xahlt Dunty Ccori Hayasaka-Akari
BeatmapID:2270899
BeatmapSetID:1040676

[Difficulty]
HPDrainRate:5.5
CircleSize:3.5
OverallDifficulty:6
ApproachRate:6.5
SliderMultiplier:1.8
SliderTickRate:2

[Events]
//Background and Video events
0,0,"bg3.jpg",0,0
//Break Periods
//Storyboard Layer 0 (Background)
//Storyboard Layer 1 (Fail)
//Storyboard Layer 2 (Pass)
//Storyboard Layer 3 (Foreground)
//Storyboard Layer 4 (Overlay)
//Storyboard Sound Samples

[TimingPoints]
95,705.882352941176,4,2,1,35,1,0
95,-100,4,2,1,55,0,0
22683,-100,4,2,1,55,0,0
23036,-83.3333333333333,4,2,1,55,0,0
35036,-90.9090909090909,4,2,1,55,0,0
45271,-74.0740740740741,4,2,1,65,0,0
56565,-68.9655172413793,4,2,1,65,0,0
62212,-80,4,2,1,65,0,0
67859,-71.4285714285714,4,2,1,65,0,0
73506,-62.5,4,2,1,75,0,1
118683,-62.5,4,2,1,75,0,0
121506,-66.6666666666667,4,3,1,75,0,1
126800,-100,4,2,1,75,0,0

[Colours]
Combo1 : 40,79,107
Combo2 : 62,45,79
Combo3 : 221,111,147
Combo4 : 78,254,252

[HitObjects]
430,63,95,6,0,P|430:84|434:109,1,45,10|0,0:0|0:0,0:0:0:0:
460,180,447,1,8,0:0:0:0:
392,264,800,2,0,P|373:274|349:282,1,45,8|0,0:0|0:0,0:0:0:0:
276,266,1153,2,0,B|231:266|231:266|189:291,1,90,8|8,0:0|0:0,0:0:0:0:
88,268,1859,2,0,P|88:247|83:222,1,45,8|0,0:0|0:0,0:0:0:0:
56,152,2212,1,8,0:0:0:0:
102,55,2565,2,0,B|144:38|144:38|193:38,1,90,8|8,0:0|0:0,0:0:0:0:
288,84,3271,38,0,P|288:104|283:129,1,45,8|0,0:0|0:0,0:0:0:0:
248,196,3624,1,8,0:0:0:0:
305,287,3977,2,0,B|347:303|347:303|397:303,1,90,8|8,0:0|0:0,0:0:0:0:
472,232,4683,2,0,P|472:211|467:186,1,45,8|0,0:0|0:0,0:0:0:0:
438,117,5035,1,8,0:0:0:0:
348,60,5389,2,0,P|327:53|304:43,1,45,8|0,0:0|0:0,0:0:0:0:
240,4,5742,5,10,0:0:0:0:
144,52,6094,2,0,P|128:66|108:81,1,45,8|0,0:0|0:0,0:0:0:0:
40,112,6446,1,8,0:0:0:0:
20,216,6800,2,0,B|36:256|36:256|71:291,1,90,8|8,0:0|0:0,0:0:0:0:
168,254,7506,2,0,P|188:259|211:269,1,45,8|0,0:0|0:0,0:0:0:0:
272,316,7858,1,8,0:0:0:0:
372,283,8212,2,0,B|398:247|398:247|411:200,1,90,8|8,0:0|0:0,0:0:0:0:
384,100,8918,38,0,P|365:89|347:73,1,45,8|0,0:0|0:0,0:0:0:0:
292,24,9270,1,8,0:0:0:0:
184,40,9624,2,0,B|166:79|166:79|166:129,1,90,8|8,0:0|0:0,0:0:0:0:
218,221,10330,2,0,P|233:235|252:250,1,45,8|0,0:0|0:0,0:0:0:0:
322,291,10682,1,8,0:0:0:0:
248,368,11036,2,0,P|228:372|204:372,1,45,8|0,0:0|0:0,0:0:0:0:
132,344,11389,5,10,0:0:0:0:
44,280,11742,2,0,P|56:263|64:238,1,45,8|0,0:0|0:0,0:0:0:0:
88,168,12094,1,8,0:0:0:0:
20,84,12447,2,0,B|46:49|46:49|89:23,1,90,8|8,0:0|0:0,0:0:0:0:
192,48,13153,2,0,P|211:41|233:32,1,45,8|0,0:0|0:0,0:0:0:0:
304,4,13506,1,8,0:0:0:0:
408,28,13859,2,0,P|421:42|436:61,1,45,8|0,0:0|0:0,0:0:0:0:
476,128,14212,37,10,0:0:0:0:
448,232,14565,2,0,P|429:241|410:257,1,45,8|0,0:0|0:0,0:0:0:0:
365,317,14918,1,8,0:0:0:0:
264,288,15271,2,0,B|215:288|215:288|173:304,1,90,8|8,0:0|0:0,0:0:0:0:
72,280,15977,2,0,P|76:259|79:235,1,45,8|0,0:0|0:0,0:0:0:0:
88,160,16329,1,8,0:0:0:0:
160,80,16683,2,0,P|174:64|195:50,1,45,8|0,0:0|0:0,0:0:0:0:
264,20,17036,5,10,0:0:0:0:
348,88,17389,2,0,P|344:113|335:134,1,45,8|0,0:0|0:0,0:0:0:0:
292,192,17741,1,8,0:0:0:0:
328,292,18094,2,0,B|354:326|354:326|398:351,1,90,8|8,0:0|0:0,0:0:0:0:
492,299,18800,38,0,P|501:274|504:253,1,45,8|0,0:0|0:0,0:0:0:0:
504,180,19153,1,8,0:0:0:0:
426,109,19506,2,0,B|378:126|378:126|334:125,1,90,8|8,0:0|0:0,0:0:0:0:
235,104,20212,2,0,P|217:115|198:129,1,45,8|0,0:0|0:0,0:0:0:0:
144,184,20565,1,8,0:0:0:0:
256,192,20918,12,4,21977,0:0:0:0:
256,192,22683,37,8,0:0:0:0:
360,248,23036,2,0,P|378:229|389:204,1,53.9999983520508,8|8,0:0|0:0,0:0:0:0:
416,132,23389,2,0,P|416:106|426:80,1,53.9999983520508,8|0,0:0|0:0,0:0:0:0:
380,20,23742,1,10,0:0:0:0:
312,56,23918,2,0,P|256:56|204:44,1,107.999996704102,8|0,0:0|0:0,0:0:0:0:
144,92,24447,38,0,P|136:116|136:144,1,53.9999983520508,8|8,0:0|0:0,0:0:0:0:
184,204,24800,2,0,P|201:221|212:247,1,53.9999983520508,8|0,0:0|0:0,0:0:0:0:
256,312,25153,1,8,0:0:0:0:
328,340,25330,2,0,P|352:340|379:328,2,53.9999983520508,8|10|0,0:0|0:0|0:0,0:0:0:0:
256,312,25859,5,8,0:0:0:0:
212,248,26036,2,0,P|211:221|221:196,1,53.9999983520508,8|8,0:0|0:0,0:0:0:0:
216,80,26565,38,0,P|197:62|172:50,1,53.9999983520508,10|8,0:0|0:0,0:0:0:0:
100,76,26918,2,0,P|100:131|80:179,1,107.999996704102,8|2,0:0|0:0,0:0:0:0:
56,252,27447,2,0,P|68:304|108:344,1,107.999996704102,8|2,0:0|0:0,0:0:0:0:
180,364,27977,1,8,0:0:0:0:
280,304,28330,37,10,0:0:0:0:
220,204,28683,22,0,P|212:180|212:152,1,53.9999983520508,8|8,0:0|0:0,0:0:0:0:
256,88,29036,2,0,P|274:69|285:44,1,53.9999983520508,8|0,0:0|0:0,0:0:0:0:
356,12,29389,1,10,0:0:0:0:
428,40,29565,2,0,P|452:88|452:144,1,107.999996704102,8|0,0:0|0:0,0:0:0:0:
420,212,30094,38,0,P|420:240|410:263,1,53.9999983520508,8|8,0:0|0:0,0:0:0:0:
356,320,30447,2,0,P|331:329|311:347,1,53.9999983520508,8|0,0:0|0:0,0:0:0:0:
236,368,30800,1,8,0:0:0:0:
160,352,30977,2,0,P|106:352|56:332,1,107.999996704102,8|0,0:0|0:0,0:0:0:0:
20,264,31506,2,0,P|9:238|10:212,1,53.9999983520508,8|8,0:0|0:0,0:0:0:0:
36,140,31859,2,0,P|48:116|48:88,1,53.9999983520508,8|0,0:0|0:0,0:0:0:0:
104,36,32212,5,10,0:0:0:0:
176,64,32389,1,8,0:0:0:0:
248,36,32565,2,0,P|284:72|303:125,1,107.999996704102,8|0,0:0|0:0,0:0:0:0:
320,200,33094,2,0,P|284:236|264:289,1,107.999996704102,8|0,0:0|0:0,0:0:0:0:
200,332,33624,1,8,0:0:0:0:
124,320,33800,2,0,P|100:320|73:332,1,53.9999983520508,8|10,0:0|0:0,0:0:0:0:
200,332,34330,6,0,B|255:341|255:341|305:331,1,107.999996704102,8|8,0:0|0:0,0:0:0:0:
408,296,35036,21,10,0:0:0:0:
468,248,35212,2,0,B|492:204|492:152|492:152|456:116|456:64|456:64|424:104,1,247.500007553101,8|2,0:0|0:0,0:0:0:0:
320,76,36447,1,8,0:0:0:0:
252,40,36624,2,0,B|201:40|201:40|154:18|107:40|107:40|121:87|103:137|103:137|103:184|143:224,1,346.500010574341,8|6,0:0|0:0,0:0:0:0:
256,328,38565,5,8,0:0:0:0:
353,285,38918,1,8,0:0:0:0:
403,192,39271,1,8,0:0:0:0:
371,91,39624,37,10,0:0:0:0:
284,28,39977,2,0,P|247:64|230:110,1,99.0000030212403,8|0,0:0|0:0,0:0:0:0:
212,216,40683,2,0,P|198:266|167:303,2,99.0000030212403,10|8|0,0:0|0:0|0:0,0:0:0:0:
230,107,41742,1,8,0:0:0:0:
304,28,42094,2,0,P|352:28|400:47,1,99.0000030212403,10|0,0:0|0:0,0:0:0:0:
480,116,42800,37,8,0:0:0:0:
404,192,43153,1,8,0:0:0:0:
444,292,43506,1,8,0:0:0:0:
364,364,43859,37,10,0:0:0:0:
288,288,44212,1,8,0:0:0:0:
204,356,44565,1,8,0:0:0:0:
128,280,44918,1,8,0:0:0:0:
172,156,45271,5,6,0:0:0:0:
256,56,45624,22,0,P|278:78|292:104,1,60.7500002317429,8|8,0:0|0:0,0:0:0:0:
292,180,45977,2,0,P|292:212|300:240,1,60.7500002317429,8|0,0:0|0:0,0:0:0:0:
350,298,46330,1,8,0:0:0:0:
420,268,46506,2,0,P|460:228|488:168,1,121.500000463486,8|0,0:0|0:0,0:0:0:0:
468,96,47036,38,0,P|445:73|417:62,1,60.7500002317429,8|8,0:0|0:0,0:0:0:0:
344,76,47389,2,0,P|312:76|284:64,1,60.7500002317429,8|0,0:0|0:0,0:0:0:0:
220,24,47742,1,8,0:0:0:0:
156,64,47918,2,0,P|166:92|166:124,2,60.7500002317429,8|10|0,0:0|0:0|0:0,0:0:0:0:
88,28,48447,5,8,0:0:0:0:
40,88,48624,2,0,P|30:116|30:148,1,60.7500002317429,8|8,0:0|0:0,0:0:0:0:
88,264,49153,2,0,P|108:285|122:314,1,60.7500002317429,8|8,0:0|0:0,0:0:0:0:
200,316,49506,38,0,P|253:296|297:251,1,121.500000463486,8|0,0:0|0:0,0:0:0:0:
272,176,50036,2,0,P|218:156|174:111,1,121.500000463486,8|0,0:0|0:0,0:0:0:0:
136,44,50565,1,8,0:0:0:0:
256,4,50918,21,6,0:0:0:0:
376,56,51271,38,0,P|408:56|436:40,1,60.7500002317429,8|8,0:0|0:0,0:0:0:0:
504,72,51624,2,0,P|512:100|512:132,1,60.7500002317429,8|0,0:0|0:0,0:0:0:0:
492,204,51977,1,8,0:0:0:0:
460,272,52153,2,0,P|404:292|360:336,1,121.500000463486,8|0,0:0|0:0,0:0:0:0:
288,364,52683,38,0,P|258:351|227:351,1,60.7500002317429,8|8,0:0|0:0,0:0:0:0:
156,368,53036,2,0,P|124:368|96:356,1,60.7500002317429,10|0,0:0|0:0,0:0:0:0:
44,304,53389,1,8,0:0:0:0:
76,236,53565,2,0,P|100:184|100:120,1,121.500000463486,8|0,0:0|0:0,0:0:0:0:
132,52,54094,5,8,0:0:0:0:
256,12,54447,1,8,0:0:0:0:
336,116,54800,2,0,P|344:144|344:176,1,60.7500002317429,8|8,0:0|0:0,0:0:0:0:
332,252,55153,2,0,P|352:312|392:352,1,121.500000463486,8|0,0:0|0:0,0:0:0:0:
468,336,55683,2,0,P|468:275|496:222,1,121.500000463486,8|0,0:0|0:0,0:0:0:0:
480,148,56212,1,8,0:0:0:0:
384,44,56565,38,0,P|324:72|260:72,1,130.500003982544,10|0,0:0|0:0,0:0:0:0:
184,88,57094,2,0,P|137:134|115:194,1,130.500003982544,8|0,0:0|0:0,0:0:0:0:
104,272,57624,1,8,0:0:0:0:
224,344,57977,37,8,0:0:0:0:
356,300,58330,1,8,0:0:0:0:
444,192,58683,1,8,0:0:0:0:
376,68,59036,22,0,P|344:68|316:52,1,65.250001991272,8|8,0:0|0:0,0:0:0:0:
236,52,59389,2,0,P|210:107|210:174,1,130.500003982544,10|0,0:0|0:0,0:0:0:0:
228,252,59918,2,0,P|206:309|158:357,1,130.500003982544,8|0,0:0|0:0,0:0:0:0:
84,332,60447,2,0,P|37:286|13:226,1,130.500003982544,8|0,0:0|0:0,0:0:0:0:
72,100,61153,37,8,0:0:0:0:
188,20,61506,1,8,0:0:0:0:
320,64,61859,2,0,P|352:64|384:52,1,65.250001991272,8|8,0:0|0:0,0:0:0:0:
456,72,62212,2,0,P|492:108|508:168,2,112.5,8|8|8,0:0|0:0|0:0,0:0:0:0:
340,36,63271,2,0,P|312:36|284:48,1,56.25,8|8,0:0|0:0,0:0:0:0:
220,84,63624,2,0,P|175:109|113:109,1,112.5,8|0,0:0|0:0,0:0:0:0:
24,192,64330,21,8,0:0:0:0:
84,296,64683,1,8,0:0:0:0:
184,228,65036,1,8,0:0:0:0:
244,332,65389,1,8,0:0:0:0:
344,264,65742,1,8,0:0:0:0:
292,156,66094,2,0,P|267:111|267:49,1,112.5,8|6,0:0|0:0,0:0:0:0:
380,8,66800,37,8,0:0:0:0:
484,68,67153,1,8,0:0:0:0:
440,180,67506,2,0,P|440:208|448:236,1,56.25,8|8,0:0|0:0,0:0:0:0:
424,308,67859,2,0,P|365:333|304:332,1,125.999996154785,8|0,0:0|0:0,0:0:0:0:
196,252,68565,2,0,P|241:206|263:150,1,125.999996154785,8|0,0:0|0:0,0:0:0:0:
184,40,69271,38,0,P|120:40|64:64,1,125.999996154785,10|0,0:0|0:0,0:0:0:0:
20,192,69977,2,0,P|44:252|44:312,1,125.999996154785,10|0,0:0|0:0,0:0:0:0:
172,356,70683,38,0,P|232:332|276:288,1,125.999996154785,8|8,0:0|0:0,0:0:0:0:
368,192,71389,1,8,0:0:0:0:
304,72,71742,1,8,0:0:0:0:
176,112,72094,1,6,0:0:0:0:
124,236,72447,21,10,0:0:0:0:
232,316,72800,1,10,0:0:0:0:
360,268,73153,1,10,0:0:0:0:
416,212,73330,1,10,0:0:0:0:
376,144,73506,38,0,P|303:144|239:171,1,144,10|2,3:3|0:0,0:0:0:0:
108,256,74212,1,8,3:3:0:0:
16,132,74565,1,8,0:0:0:0:
64,68,74742,2,0,P|131:39|200:39,1,144,10|0,3:3|0:0,0:0:0:0:
276,68,75271,5,10,0:0:0:0:
348,36,75447,1,10,0:0:0:0:
420,72,75624,2,0,P|436:104|436:140,1,72,8|0,3:3|0:0,0:0:0:0:
388,200,75977,2,0,P|356:184|320:184,1,72,8|8,0:0|0:0,0:0:0:0:
256,228,76330,6,0,P|204:279|140:305,1,144,10|8,3:3|3:3,3:3:0:0:
4,224,77036,1,8,3:3:0:0:
96,96,77389,1,8,3:3:0:0:
248,124,77742,1,10,3:3:0:0:
184,264,78094,22,0,P|195:298|221:323,1,72,8|0,0:0|0:0,0:0:0:0:
288,364,78447,1,8,0:0:0:0:
436,316,78800,2,0,P|435:280|452:248,1,72,8|8,0:0|0:0,0:0:0:0:
444,172,79153,2,0,P|392:120|364:56,1,144,10|2,3:3|0:0,0:0:0:0:
212,20,79859,37,10,3:3:0:0:
76,96,80212,21,8,0:0:0:0:
32,160,80389,1,8,0:0:0:0:
60,232,80565,2,0,P|60:264|76:299,1,72,10|0,3:3|0:0,0:0:0:0:
140,344,80918,1,8,0:0:0:0:
212,316,81094,1,8,0:0:0:0:
284,344,81271,1,8,0:0:0:0:
432,300,81624,38,0,P|432:268|448:233,1,72,8|8,0:0|0:0,0:0:0:0:
436,156,81977,2,8,P|368:127|317:76,1,144,10|2,3:3|0:0,0:0:0:0:
164,56,82683,1,8,3:3:0:0:
88,192,83036,1,10,3:3:0:0:
196,308,83389,21,8,3:3:0:0:
256,360,83565,1,10,3:3:0:0:
332,332,83742,1,8,3:3:0:0:
460,244,84094,38,0,P|408:192|380:128,1,144,8|0,0:0|0:0,0:0:0:0:
256,36,84800,2,0,P|204:88|176:152,1,144,10|2,3:3|0:0,0:0:0:0:
220,216,85330,2,0,P|272:268|300:332,1,144,8|2,0:0|0:0,0:0:0:0:
232,368,85859,2,0,P|158:368|93:342,1,144,8|10,0:0|3:3,0:0:0:0:
16,208,86565,1,12,0:0:0:0:
120,88,86918,21,10,3:3:0:0:
268,132,87271,5,8,0:0:0:0:
320,72,87447,1,8,0:0:0:0:
396,88,87624,2,0,P|448:140|476:204,1,144,10|2,3:3|0:0,0:0:0:0:
452,280,88153,2,0,P|378:280|313:306,1,144,8|2,0:0|0:0,0:0:0:0:
248,348,88683,2,0,P|196:296|168:232,1,144,8|10,0:0|3:3,0:0:0:0:
256,104,89389,1,12,0:0:0:0:
132,12,89742,21,10,3:3:0:0:
16,116,90094,37,8,0:0:0:0:
60,180,90271,1,8,0:0:0:0:
36,256,90447,2,0,P|36:292|52:324,1,72,10|0,3:3|0:0,0:0:0:0:
120,364,90800,1,8,0:0:0:0:
188,324,90977,1,8,0:0:0:0:
264,344,91153,1,10,3:3:0:0:
404,280,91506,37,8,0:0:0:0:
364,212,91683,2,0,P|312:160|284:96,1,144,10|2,3:3|0:0,0:0:0:0:
224,48,92212,2,0,P|188:48|156:64,1,72,8|8,0:0|0:0,0:0:0:0:
108,124,92565,1,8,3:3:0:0:
36,256,92918,5,8,0:0:0:0:
80,320,93094,2,0,P|113:333|148:334,2,72,8|10|0,0:0|3:3|0:0,0:0:0:0:
36,256,93624,21,8,3:3:0:0:
156,156,93977,1,8,3:3:0:0:
292,228,94330,2,0,P|344:280|416:280,1,144,8|12,3:3|3:3,3:3:0:0:
412,128,95036,5,10,0:0:0:0:
280,44,95389,1,10,0:0:0:0:
136,104,95742,1,10,0:0:0:0:
96,172,95919,1,10,0:0:0:0:
136,240,96094,6,0,P|209:240|273:213,1,144,10|2,3:3|0:0,0:0:0:0:
404,128,96801,1,8,3:3:0:0:
496,252,97154,1,8,0:0:0:0:
448,316,97331,2,0,P|381:345|312:345,1,144,10|0,3:3|0:0,0:0:0:0:
236,316,97860,37,10,0:0:0:0:
164,348,98036,1,10,0:0:0:0:
92,312,98213,2,0,P|76:280|76:244,1,72,8|0,3:3|0:0,0:0:0:0:
140,200,98565,2,0,P|172:216|208:216,1,72,8|8,0:0|0:0,0:0:0:0:
256,152,98918,22,0,P|308:101|372:75,1,144,10|8,3:3|3:3,3:3:0:0:
504,156,99625,1,8,3:3:0:0:
416,288,99978,1,8,3:3:0:0:
264,260,100331,1,10,3:3:0:0:
328,120,100683,38,0,P|317:86|291:61,1,72,8|0,0:0|0:0,0:0:0:0:
224,20,101036,1,8,0:0:0:0:
76,68,101389,2,0,P|59:99|60:135,1,72,8|8,0:0|0:0,0:0:0:0:
68,212,101742,2,0,P|120:264|148:328,1,144,8|2,3:3|0:0,0:0:0:0:
300,364,102448,21,10,3:3:0:0:
436,288,102800,5,8,0:0:0:0:
480,224,102978,1,8,0:0:0:0:
452,152,103153,2,0,P|453:117|436:85,1,72,8|0,0:0|0:0,0:0:0:0:
372,40,103507,1,8,0:0:0:0:
300,68,103683,1,8,0:0:0:0:
228,40,103859,1,8,3:3:0:0:
76,84,104212,6,0,P|60:116|60:152,1,72,8|8,0:0|0:0,0:0:0:0:
76,228,104566,2,8,P|144:257|195:308,1,144,2|2,3:3|0:0,0:0:0:0:
348,328,105272,1,8,3:3:0:0:
424,192,105625,1,10,3:3:0:0:
316,76,105977,5,8,3:3:0:0:
256,24,106154,1,10,3:3:0:0:
180,52,106331,1,8,3:3:0:0:
52,140,106683,22,0,P|104:192|132:256,1,144,8|0,0:0|0:0,0:0:0:0:
256,348,107389,2,0,P|308:296|336:232,1,144,10|2,3:3|0:0,0:0:0:0:
292,168,107919,2,0,P|240:116|212:52,1,144,8|2,0:0|0:0,0:0:0:0:
280,16,108448,2,0,P|354:16|419:42,1,144,8|10,0:0|3:3,0:0:0:0:
496,176,109154,1,8,0:0:0:0:
392,296,109506,37,8,3:3:0:0:
244,252,109860,1,8,3:3:0:0:
96,307,110213,22,0,P|54:249|36:180,1,144,8|2,3:3|0:0,0:0:0:0:
60,104,110742,2,0,P|134:104|199:78,1,144,8|2,0:0|0:0,0:0:0:0:
264,36,111272,2,0,P|316:88|344:152,1,144,8|2,0:0|3:3,0:0:0:0:
256,280,111978,1,8,0:0:0:0:
380,372,112330,5,12,3:3:0:0:
496,268,112683,21,8,0:0:0:0:
452,204,112860,1,8,0:0:0:0:
476,128,113036,2,0,P|476:92|460:60,1,72,10|0,3:3|0:0,0:0:0:0:
392,20,113389,1,8,0:0:0:0:
324,60,113566,1,8,0:0:0:0:
248,40,113742,1,8,3:3:0:0:
108,104,114095,5,8,0:0:0:0:
148,172,114272,2,0,P|200:224|228:288,1,144,8|0,3:3|0:0,0:0:0:0:
288,336,114800,2,0,P|324:336|356:320,1,72,8|0,0:0|0:0,0:0:0:0:
416,272,115154,21,10,3:3:0:0:
484,132,115506,6,0,P|468:100|468:64,1,72,8|8,0:0|0:0,0:0:0:0:
400,24,115859,2,0,P|332:52|282:101,1,144,8|0,3:3|0:0,0:0:0:0:
228,252,116565,21,8,3:3:0:0:
72,240,116918,1,10,3:3:0:0:
12,96,117271,2,0,B|37:70|37:70|48:36,2,72,8|2|8,3:3|3:3|3:3,3:3:0:0:
72,240,117977,1,8,3:3:0:0:
256,12,118683,37,4,0:0:0:0:
256,364,120094,1,8,0:0:0:0:
412,192,120800,1,8,0:0:0:0:
256,36,121506,22,0,P|189:36|128:68,1,135.000005149842,8|8,0:0|0:0,0:0:0:0:
56,192,122212,2,0,P|76:252|128:304,1,135.000005149842,8|8,0:0|0:0,0:0:0:0:
256,364,122918,1,8,0:0:0:0:
372,276,123271,1,8,0:0:0:0:
256,364,123624,1,8,0:0:0:0:
140,276,123977,1,8,0:0:0:0:
212,148,124330,38,0,P|259:100|279:34,1,135.000005149842,8|8,0:0|0:0,0:0:0:0:
424,12,125036,2,0,P|468:56|491:126,1,135.000005149842,8|8,0:0|0:0,0:0:0:0:
440,264,125742,1,8,0:0:0:0:
312,192,126095,1,8,0:0:0:0:
228,312,126447,1,8,0:0:0:0:
100,240,126800,1,4,0:0:0:0:
