osu file format v14

[General]
AudioFilename: audio.mp3
AudioLeadIn: 0
PreviewTime: 72070
Countdown: 1
SampleSet: Drum
StackLeniency: 0.7
Mode: 0
LetterboxInBreaks: 0
WidescreenStoryboard: 0

[Editor]
Bookmarks: 250352
DistanceSpacing: 1.1
BeatDivisor: 2
GridSize: 4
TimelineZoom: 1.400003

[Metadata]
Title:Kiseki
TitleUnicode:軌跡
Artist:Roselia
ArtistUnicode:Roselia
Creator:Avoidedoki
Version:Beginner
Source:バンドリ!ガールズバンドパーティ!
Tags:BanG Dream! Bandori! Girls Band Party! ガルパ Garupa Opera of the wasteland album Bandori project Girl Party Garupa! Rozeria ロゼリア Minato Yukina 湊友希那 Hikawa Sayo 氷川紗夜 Imai Lisa 今井リサ Udagawa Ako 宇田川あこ Shirokane Rinko 白金燐子 Aiba Aina 相羽あいな Kudō Haruka Kudo Kudou 工藤晴香 Endō Yurika Endo Endou 遠藤ゆりか Sakuragawa Megu 桜川めぐ Akesaka Satomi 明坂聡美 Xahlt Dunty Ccori Hayasaka-Akari
BeatmapID:2174938
BeatmapSetID:1040676

[Difficulty]
HPDrainRate:1.7
CircleSize:2.3
OverallDifficulty:2
ApproachRate:1.5
SliderMultiplier:0.95
SliderTickRate:2

[Events]
//Background and Video events
0,0,"bg1.jpg",0,0
//Break Periods
//Storyboard Layer 0 (Background)
//Storyboard Layer 1 (Fail)
//Storyboard Layer 2 (Pass)
//Storyboard Layer 3 (Foreground)
//Storyboard Layer 4 (Overlay)
//Storyboard Sound Samples

[TimingPoints]
95,705.882352941176,4,2,1,100,1,0
95,-100,4,2,1,65,0,0
23036,-99.009900990099,4,2,1,70,0,0
45271,-98.0392156862745,4,2,1,75,0,0
56565,-97.0873786407767,4,2,1,80,0,0
73506,-96.1538461538461,4,2,1,85,0,1
93271,-97.0873786407767,4,2,1,80,0,1
96094,-96.1538461538461,4,2,1,85,0,1
115859,-98.0392156862745,4,3,1,75,0,0
118683,-100,4,2,1,65,0,0
121506,-99.009900990099,4,3,1,70,0,0

[Colours]
Combo1 : 40,79,107
Combo2 : 62,45,79
Combo3 : 221,111,147
Combo4 : 78,254,252

[HitObjects]
476,60,95,6,0,B|476:108|476:108|452:149|452:149|452:198,1,142.5,10|8,0:0|0:0,0:0:0:0:
416,292,1859,2,0,B|372:308|372:308|323:308,1,95,8|8,0:0|0:0,0:0:0:0:
228,268,3271,2,0,B|245:223|245:223|245:174,1,95,8|8,0:0|0:0,0:0:0:0:
180,96,4683,38,0,B|131:96|131:96|90:72|90:72|42:72,2,142.5,8|10|8,0:0|0:0|0:0,0:0:0:0:
276,56,7506,2,0,B|322:39|322:39|369:39,1,95,8|8,0:0|0:0,0:0:0:0:
436,116,8918,2,0,B|436:164|436:164|456:209,1,95,8|8,0:0|0:0,0:0:0:0:
436,308,10330,6,0,B|395:333|395:333|346:333|346:333|302:312|302:312|257:333|257:333|208:333|208:333|168:308,1,285,8|8,0:0|0:0,0:0:0:0:
96,244,13153,2,0,B|70:201|70:201|70:154|70:154|45:113,2,142.5,8|10|8,0:0|0:0|0:0,0:0:0:0:
173,311,15977,38,0,B|221:311|221:311|262:287|262:287|311:287,2,142.5,8|10|8,0:0|0:0|0:0,0:0:0:0:
84,260,18800,2,0,B|84:211|84:211|104:166,1,95,8|8,0:0|0:0,0:0:0:0:
184,104,20212,1,8,0:0:0:0:
280,68,20918,1,12,0:0:0:0:
336,304,23036,38,0,P|371:268|391:223,1,95.949998096695,10|2,0:0|0:0,0:0:0:0:
416,128,24447,2,0,P|380:93|360:47,1,95.949998096695,10|2,0:0|0:0,0:0:0:0:
260,20,25859,2,0,B|203:1|158:44|113:20,2,143.924997145042,10|10|2,0:0|0:0|0:0,0:0:0:0:
360,52,28683,38,0,P|346:98|319:138,1,95.949998096695,10|2,0:0|0:0,0:0:0:0:
244,208,30094,2,0,P|248:255|268:299,1,95.949998096695,10|2,0:0|0:0,0:0:0:0:
360,348,31506,2,0,B|417:368|462:323|506:348,2,143.924997145042,10|10|2,0:0|0:0|0:0,0:0:0:0:
192,336,35036,6,0,P|147:314|114:281,1,95.949998096695,10|2,0:0|0:0,0:0:0:0:
48,204,36447,2,0,P|64:157|64:109,1,95.949998096695,10|2,0:0|0:0,0:0:0:0:
136,36,37859,1,10,0:0:0:0:
236,64,38565,38,0,B|236:145|285:198|285:198|236:250|236:331,1,287.849994290085,10|2,0:0|0:0,0:0:0:0:
388,360,41742,2,0,P|429:327|449:287,1,95.949998096695,10|2,0:0|0:0,0:0:0:0:
472,188,43153,21,8,0:0:0:0:
392,124,43859,2,0,B|348:103|348:103|299:103|299:103|254:87,1,143.924997145042,10|8,0:0|0:0,0:0:0:0:
152,72,45624,22,0,P|117:107|97:153,1,96.9000005914307,10|2,0:0|0:0,0:0:0:0:
120,252,47036,2,0,P|155:288|175:334,1,96.9000005914307,10|2,0:0|0:0,0:0:0:0:
272,364,48447,2,0,B|329:384|373:340|418:364,2,145.350000887146,10|10|2,0:0|0:0|0:0,0:0:0:0:
172,336,51271,6,0,P|189:262|172:193,1,145.350000887146,10|2,0:0|0:0,0:0:0:0:
132,100,53036,1,8,0:0:0:0:
200,20,53742,1,8,0:0:0:0:
296,60,54447,2,0,P|345:60|393:44,2,96.9000005914307,10|8|2,0:0|0:0|0:0,0:0:0:0:
192,40,56565,38,0,P|143:40|97:57,1,97.8499991788101,10|2,0:0|0:0,0:0:0:0:
24,132,57977,2,0,P|39:180|40:228,1,97.8499991788101,10|2,0:0|0:0,0:0:0:0:
116,300,59389,2,0,P|162:315|213:315,2,97.8499991788101,10|8|2,0:0|0:0|0:0,0:0:0:0:
40,227,61506,1,8,0:0:0:0:
80,128,62212,6,0,P|117:97|168:83,1,97.8499991788101,8|8,0:0|0:0,0:0:0:0:
268,104,63624,2,0,P|314:92|355:59,1,97.8499991788101,8|8,0:0|0:0,0:0:0:0:
444,8,65036,1,8,0:0:0:0:
508,92,65742,2,0,P|508:141|487:190,1,97.8499991788101,10|12,0:0|0:0,0:0:0:0:
412,256,67153,37,10,0:0:0:0:
312,288,67859,2,0,P|263:297|219:329,1,97.8499991788101,10|2,0:0|0:0,0:0:0:0:
124,360,69271,2,0,P|72:360|26:338,1,97.8499991788101,10|2,0:0|0:0,0:0:0:0:
0,240,70683,2,0,P|0:191|22:142,2,97.8499991788101,10|8|12,0:0|0:0|0:0,0:0:0:0:
52,332,72800,5,10,0:0:0:0:
156,352,73506,2,0,P|203:339|254:342,1,98.7999993969727,10|8,3:3|0:0,0:0:0:0:
360,344,74918,1,10,3:3:0:0:
448,284,75624,1,10,0:0:0:0:
412,184,76330,2,0,P|412:136|434:87,2,98.7999993969727,10|10|8,3:3|3:3|3:3,0:0:0:0:
388,288,78447,37,10,0:0:0:0:
300,348,79153,2,0,P|252:348|203:326,1,98.7999993969727,10|8,3:3|0:0,0:0:0:0:
128,256,80565,1,10,3:3:0:0:
180,164,81271,1,10,0:0:0:0:
120,76,81977,2,0,P|76:55|22:55,2,98.7999993969727,10|10|8,3:3|3:3|3:3,0:0:0:0:
180,164,84094,5,10,0:0:0:0:
277,212,84800,2,0,B|323:195|323:195|373:195|373:195|419:174,1,148.199999095459,10|8,3:3|0:0,0:0:0:0:
500,108,86565,2,0,L|509:55,1,49.3999996984863,10|8,3:3|3:3,0:0:0:0:
412,12,87624,2,0,B|369:37|369:37|320:37|320:37|273:17|273:17|227:37|227:37|177:37|177:37|135:12,1,296.399998190918,10|8,3:3|3:3,0:0:0:0:
44,64,90447,38,0,P|44:114|65:159,1,98.7999993969727,10|8,3:3|0:0,0:0:0:0:
144,228,91859,1,10,3:3:0:0:
236,176,92565,1,10,0:0:0:0:
332,220,93271,2,0,P|376:242|412:277,2,97.8499991788101,10|10|12,3:3|3:3|3:3,0:0:0:0:
232,176,95389,5,10,0:0:0:0:
148,240,96094,2,0,P|99:231|54:207,1,98.7999993969727,10|8,3:3|0:0,0:0:0:0:
4,116,97507,1,10,3:3:0:0:
72,32,98212,1,10,0:0:0:0:
176,60,98918,2,0,P|225:60|273:83,2,98.7999993969727,10|10|8,3:3|3:3|3:3,0:0:0:0:
84,116,101036,37,10,0:0:0:0:
28,208,101742,2,0,P|28:257|50:306,1,98.7999993969727,10|8,3:3|3:3,0:0:0:0:
140,356,103153,1,10,3:3:0:0:
232,296,103860,1,10,0:0:0:0:
332,332,104565,2,0,P|377:354|431:354,2,98.7999993969727,10|10|8,3:3|3:3|3:3,0:0:0:0:
264,248,106683,5,10,0:0:0:0:
300,148,107389,2,0,B|245:93|165:93,1,148.199999095459,10|8,3:3|0:0,0:0:0:0:
68,132,109153,1,10,0:0:0:0:
32,232,109859,2,0,B|55:319|142:296|142:296|166:383|259:358,1,296.399998190918,10|2,0:0|0:0,0:0:0:0:
340,288,112683,38,0,B|389:288|389:288|435:309,1,98.7999993969727,10|8,0:0|0:0,0:0:0:0:
508,232,114094,2,0,B|508:182|508:182|474:147|474:147|474:95,1,148.199999095459,10|8,0:0|3:3,0:0:0:0:
392,32,115859,37,10,0:0:0:0:
296,72,116565,2,0,B|248:72|248:72|202:50,2,96.9000005914307,10|10|12,0:0|0:0|0:0,0:0:0:0:
392,32,118683,5,10,0:0:0:0:
440,192,120094,1,8,0:0:0:0:
392,284,120800,1,2,0:0:0:0:
296,324,121506,1,4,0:0:0:0:
256,192,122212,12,2,126800,0:0:0:0:
