osu file format v14

[General]
AudioFilename: audio.mp3
AudioLeadIn: 0
PreviewTime: 67588
Countdown: 0
SampleSet: Soft
StackLeniency: 0.7
Mode: 0
LetterboxInBreaks: 0
WidescreenStoryboard: 1

[Editor]
Bookmarks: 29956,50746,67588,101272
DistanceSpacing: 1.2
BeatDivisor: 4
GridSize: 4
TimelineZoom: 1.4

[Metadata]
Title:Kimi no kioku
TitleUnicode:キミの記憶
Artist:Roselia
ArtistUnicode:Roselia
Creator:domSaur
Version:Normal
Source:バンドリ! ガールズバンドパーティ!
Tags:bang dream! girls band party bandori ロゼリア shoji meguro 目黒将司 persona 3 ペルソナ3memories of you cover video game japanese
BeatmapID:2217358
BeatmapSetID:1053345

[Difficulty]
HPDrainRate:4
CircleSize:3
OverallDifficulty:4
ApproachRate:5
SliderMultiplier:1.4
SliderTickRate:1

[Events]
//Background and Video events
0,0,"yuukina.jpg",0,0
//Break Periods
2,950,3235
2,5161,7446
//Storyboard Layer 0 (Background)
//Storyboard Layer 1 (Fail)
//Storyboard Layer 2 (Pass)
//Storyboard Layer 3 (Foreground)
//Storyboard Layer 4 (Overlay)
//Storyboard Sound Samples

[TimingPoints]
225,526.315789473684,4,2,1,40,1,0
225,-100,4,2,1,50,0,0
17067,-100,4,2,1,53,0,0
67593,-100,4,2,1,60,0,1
84303,-100,4,2,1,60,0,0
84435,-100,4,2,1,60,0,1
101277,-100,4,2,1,53,0,0
118119,-100,4,2,1,40,0,0
120224,555.555555555556,4,2,1,30,1,0
120779,538.116591928251,4,2,1,30,1,8
121317,576.923076923077,4,2,1,30,1,8
121605,659.340659340659,4,2,1,30,1,8
121934,789.473684210526,4,2,1,30,1,8

[Colours]
Combo1 : 194,163,211
Combo2 : 183,183,183
Combo3 : 116,153,222
Combo4 : 186,194,216

[HitObjects]
44,99,225,6,0,L|100:93,1,35,2|2,0:0|0:0,0:0:0:0:
137,155,619,2,0,L|193:149,1,35,2|2,0:0|0:0,0:0:0:0:
177,81,4435,6,0,L|233:75,1,35,2|2,0:0|0:0,0:0:0:0:
270,137,4830,2,0,L|326:131,1,35,2|2,0:0|0:0,0:0:0:0:
307,64,8646,6,0,L|363:58,1,35,2|2,1:2|0:0,0:0:0:0:
400,120,9040,2,0,L|456:114,1,35,2|2,0:0|0:0,0:0:0:0:
491,187,9435,1,0,1:0:0:0:
491,187,9698,2,0,B|509:245|504:282|504:282|469:329,1,140,8|0,0:0|0:0,0:0:0:0:
310,300,10751,2,0,P|265:304|211:364,2,105,0|0|0,1:0|1:0|1:0,0:0:0:0:
391,319,11803,1,8,0:0:0:0:
428,64,12856,6,0,L|360:72,1,35,2|2,1:2|0:0,0:0:0:0:
339,132,13251,2,0,L|271:124,1,35,2|2,0:0|0:0,0:0:0:0:
230,99,13646,1,0,1:0:0:0:
230,99,13909,2,0,B|177:80|177:80|73:109,1,140,8|0,0:0|0:0,0:0:0:0:
41,250,14961,2,0,P|35:303|61:361,2,105,0|0|0,1:0|1:0|1:0,0:0:0:0:
107,197,16014,1,8,0:0:0:0:
198,337,16540,2,0,L|206:294,1,35,2|2,0:0|0:0,0:0:0:0:
297,216,17067,6,0,B|330:248|330:248|331:289|311:357,2,140,6|2|2,1:2|1:2|1:2,0:0:0:0:
129,236,18646,1,2,1:2:0:0:
61,196,18909,1,2,0:0:0:0:
61,196,19172,2,0,B|57:168|57:168|63:120,1,70,2|2,1:2|0:0,0:0:0:0:
109,57,19698,2,0,B|192:43|174:99|271:73,1,140,2|0,1:2|1:0,0:0:0:0:
319,40,20488,2,0,P|351:36|402:39,2,70,2|0|0,0:0|1:0|0:0,0:0:0:0:
322,123,21277,6,0,L|339:290,2,140,2|2|0,1:2|1:2|1:0,0:0:0:0:
244,93,22593,1,2,0:0:0:0:
160,97,22856,2,0,P|119:100|79:108,1,70,2|0,1:2|0:0,0:0:0:0:
48,177,23382,2,0,L|65:329,1,140,0|0,1:0|1:0,0:0:0:0:
228,347,24435,1,2,1:2:0:0:
279,280,24698,1,2,0:0:0:0:
279,280,24961,2,0,L|287:201,1,70,2|0,1:2|0:0,0:0:0:0:
349,155,25488,6,0,B|397:151|397:151|435:171|435:171|501:167,2,140,2|2|0,1:2|1:2|1:0,0:0:0:0:
197,81,27067,1,2,1:2:0:0:
136,139,27330,1,2,0:0:0:0:
57,109,27593,2,0,B|51:86|51:86|58:23,2,70,2|2|2,1:2|0:0|1:2,0:0:0:0:
40,191,28382,2,0,L|53:288,1,70,2|0,0:0|1:0,0:0:0:0:
104,324,28909,6,0,L|257:311,1,140,2|2,0:0|0:0,0:0:0:0:
326,299,29698,1,0,1:0:0:0:
381,236,29961,2,0,B|390:213|390:213|381:149,1,70,2|0,0:0|1:0,0:0:0:0:
369,85,30488,2,0,P|331:68|290:65,1,70,2|0,0:0|1:0,0:0:0:0:
221,85,31014,2,0,P|222:142|232:232,1,140,2|0,0:0|0:0,0:0:0:0:
302,268,31803,6,0,B|313:294|313:294|303:362,2,70,2|2|2,1:2|0:0|1:2,0:0:0:0:
377,119,32856,1,0,1:0:0:0:
229,38,33382,2,0,L|185:42,1,35,2|2,1:2|0:0,0:0:0:0:
71,70,33909,6,0,B|58:110|58:110|67:224,2,140,6|10|0,1:2|0:0|1:0,0:0:0:0:
192,186,35488,2,0,L|185:244,1,35,10|2,0:0|0:0,0:0:0:0:
164,344,36014,2,0,B|111:358|111:358|21:342,2,140,2|10|0,1:2|0:0|1:0,0:0:0:0:
326,300,37593,1,8,0:0:0:0:
310,132,38119,6,0,P|247:128|205:201,1,140,0|10,1:0|0:0,0:0:0:0:
241,268,38909,1,2,0:0:0:0:
241,268,39172,2,0,B|218:311|190:347|190:347|117:356,1,140,0|10,1:0|0:0,0:0:0:0:
72,320,39961,1,2,0:0:0:0:
72,320,40224,6,0,B|53:323|36:333|36:333|9:359,2,70,0|0|8,1:0|0:0|0:0,0:0:0:0:
105,242,41014,1,2,0:0:0:0:
100,158,41277,2,0,L|97:103,1,35,2|2,1:2|0:0,0:0:0:0:
194,40,41803,2,0,L|259:40,1,35,10|2,0:0|0:0,0:0:0:0:
354,56,42330,6,0,B|370:87|370:87|357:213,2,140,6|10|0,1:2|0:0|1:0,0:0:0:0:
265,199,43909,2,0,L|269:248,1,35,10|2,0:0|0:0,0:0:0:0:
331,342,44435,2,0,P|256:332|182:356,2,140,2|10|0,1:2|0:0|1:0,0:0:0:0:
405,301,45751,2,0,B|412:287|412:287|409:215,1,70,2|8,0:0|0:0,0:0:0:0:
330,206,46277,2,0,B|323:192|323:192|326:120,1,70,2|0,0:0|1:0,0:0:0:0:
370,66,46803,2,0,P|339:54|297:59,1,70,2|8,0:0|0:0,0:0:0:0:
231,101,47330,2,0,B|196:105|196:105|139:87,1,70,2|0,0:0|1:0,0:0:0:0:
90,52,47856,2,0,B|55:48|55:48|-2:66,1,70,2|8,0:0|0:0,0:0:0:0:
28,142,48382,6,0,L|40:286,1,140,2|0,0:0|0:0,0:0:0:0:
111,325,49172,1,12,0:0:0:0:
276,355,49698,2,0,B|288:330|288:330|280:270,1,70,10|8,1:2|0:0,0:0:0:0:
230,222,50224,2,0,B|218:197|218:197|226:137,1,70,10|8,0:3|0:3,0:0:0:0:
253,76,50751,6,0,B|369:59|343:147|479:127,1,210,6|0,1:2|1:0,0:0:0:0:
486,54,51803,1,8,0:0:0:0:
159,132,52856,2,0,L|149:27,2,105,0|0|0,1:0|1:0|1:0,0:0:0:0:
175,214,53909,2,0,B|248:208|234:263|332:246,1,140,10|2,0:0|0:0,0:0:0:0:
470,209,54961,6,0,P|490:261|466:319,2,105,6|0|0,1:2|1:0|1:0,0:0:0:0:
403,260,56014,1,8,0:0:0:0:
164,57,57067,2,0,B|126:47|126:47|57:66,2,105,0|0|0,1:0|1:0|1:0,0:0:0:0:
240,92,58119,2,0,P|245:126|236:174,1,70,8|10,0:0|0:0,0:0:0:0:
161,191,58646,2,0,P|156:225|165:273,1,70,10|10,0:3|0:3,0:0:0:0:
218,320,59172,6,0,L|343:314,2,105,6|0|0,1:2|1:0|1:0,0:0:0:0:
140,352,60224,1,8,0:0:0:0:
389,206,61277,2,0,P|434:232|449:299,2,105,0|0|0,1:0|1:0|1:0,0:0:0:0:
306,222,62330,2,0,B|295:198|295:198|301:140,1,70,10|0,0:0|0:0,0:0:0:0:
375,118,62856,2,0,B|386:94|386:94|380:36,1,70,2|8,0:0|0:3,0:0:0:0:
300,28,63382,6,0,L|180:37,2,105,6|0|0,1:2|1:0|1:0,0:0:0:0:
352,93,64435,2,0,L|456:85,2,105,8|8|8,0:0|0:0|0:3,0:0:0:0:
294,154,65488,2,0,B|286:181|286:181|299:242,1,70,8|8,0:0|0:0,0:0:0:0:
368,261,66014,2,0,B|376:288|376:288|363:349,1,70,8|8,0:0|0:0,0:0:0:0:
289,359,66540,2,0,L|209:342,1,70,8|8,0:0|0:3,0:0:0:0:
138,323,67067,1,8,0:0:0:0:
58,174,67593,6,0,B|112:168|112:168|141:188|141:188|211:179,1,140,6|10,1:2|0:0,0:0:0:0:
268,148,68382,1,2,0:0:0:0:
268,148,68646,2,0,L|350:139,1,70,0|2,1:0|0:0,0:0:0:0:
414,174,69172,2,0,B|430:206|430:206|411:322,1,140,10|2,0:0|1:2,0:0:0:0:
342,349,69961,1,2,0:0:0:0:
342,349,70224,2,0,B|331:324|331:324|327:260,1,70,10|2,0:0|0:0,0:0:0:0:
315,198,70751,1,2,1:2:0:0:
229,342,71277,1,10,0:0:0:0:
147,362,71540,1,2,0:0:0:0:
78,316,71803,6,0,B|66:283|66:283|62:227|63:154,1,140,2|10,1:2|0:0,0:0:0:0:
115,112,72593,1,2,0:0:0:0:
115,112,72857,2,0,P|155:110|197:101,1,70,0|2,1:0|0:0,0:0:0:0:
267,93,73382,2,0,B|311:80|311:80|357:90|424:112,1,140,10|2,0:0|1:2,0:0:0:0:
461,165,74172,2,0,L|448:316,1,140,2|2,0:0|0:0,0:0:0:0:
378,350,74961,2,0,B|363:357|363:357|296:354,2,70,2|2|10,1:2|0:0|0:0,0:0:0:0:
372,265,75751,1,10,0:0:0:0:
306,212,76014,5,6,1:2:0:0:
224,231,76277,1,2,0:0:0:0:
194,309,76540,2,0,B|157:313|157:313|129:265|127:193,1,140,10|0,0:0|1:0,0:0:0:0:
213,71,77593,2,0,P|255:67|282:63,1,70,10|2,0:0|0:0,0:0:0:0:
361,90,78119,2,0,P|382:118|379:247,1,140,0|8,1:0|0:0,0:0:0:0:
340,286,78909,2,0,B|307:290|307:290|255:279,1,70,2|2,0:0|1:2,0:0:0:0:
207,336,79435,2,0,B|174:332|174:332|122:343,1,70,2|10,0:0|0:0,0:0:0:0:
57,316,79961,1,10,0:0:0:0:
34,235,80224,6,0,L|24:90,1,140,2|8,1:2|0:0,0:0:0:0:
107,109,81014,2,0,L|116:248,1,140,2|0,0:0|0:0,0:0:0:0:
192,298,81803,1,10,0:0:0:0:
192,298,82067,2,0,B|216:306|216:306|289:297,1,70,12|0,0:0|1:0,0:0:0:0:
333,259,82593,2,0,L|424:250,1,70,10|8,0:0|0:0,0:0:0:0:
453,185,83119,2,0,P|470:125|406:66,1,140,2|10,0:0|0:0,0:0:0:0:
342,45,83909,1,10,0:0:0:0:
188,112,84435,6,0,P|111:127|86:208,1,140,6|10,1:2|0:0,0:0:0:0:
119,260,85224,1,2,0:0:0:0:
119,260,85488,2,0,L|201:251,1,70,0|2,1:0|0:0,0:0:0:0:
272,247,86014,2,0,P|338:244|396:313,1,140,10|2,0:0|1:2,0:0:0:0:
462,333,86803,2,0,B|487:293|487:293|478:188,1,140,2|2,0:0|0:0,0:0:0:0:
437,127,87593,2,0,P|431:80|431:38,2,70,2|2|10,1:2|0:0|0:0,0:0:0:0:
375,185,88382,1,2,0:0:0:0:
302,141,88646,6,0,P|244:140|182:198,1,140,2|10,1:2|0:0,0:0:0:0:
242,252,89435,2,0,P|300:251|362:309,1,140,2|2,0:0|0:0,0:0:0:0:
304,366,90224,2,0,B|260:362|260:362|220:336|220:336|154:330,1,140,10|2,0:0|1:2,0:0:0:0:
97,293,91014,2,0,P|89:320|98:372,2,70,2|10|2,0:0|0:0|0:0,0:0:0:0:
150,228,91803,2,0,B|165:206|165:206|162:132,1,70,2|8,1:2|0:0,0:0:0:0:
176,79,92330,2,0,L|261:74,1,70,10|10,0:0|0:0,0:0:0:0:
321,39,92856,5,6,1:2:0:0:
404,41,93119,1,2,0:0:0:0:
468,94,93382,2,0,P|482:127|462:247,1,140,10|0,0:0|1:0,0:0:0:0:
388,220,94172,2,0,P|383:185|389:135,2,70,2|10|0,0:0|0:0|0:0,0:0:0:0:
425,294,94961,2,0,B|378:325|378:325|272:347,1,140,2|8,1:2|0:0,0:0:0:0:
216,335,95751,1,2,0:0:0:0:
216,335,96014,2,0,L|142:330,1,70,2|2,1:2|0:0,0:0:0:0:
97,261,96540,2,0,B|87:234|87:234|95:165,1,70,10|10,0:0|0:0,0:0:0:0:
140,124,97067,6,0,B|183:122|183:122|221:158|221:158|281:158,1,140,2|8,1:2|0:0,0:0:0:0:
346,135,97856,2,0,B|363:186|363:186|348:274,1,140,2|0,0:0|0:0,0:0:0:0:
304,343,98646,1,2,1:2:0:0:
304,343,98909,2,0,P|243:361|159:358,1,140,8|8,0:0|0:0,0:0:0:0:
118,291,99698,1,8,0:0:0:0:
96,217,99961,1,2,0:0:0:0:
96,217,100224,2,0,B|81:165|99:119|99:119|155:152,1,140,2|10,1:2|0:0,0:0:0:0:
258,252,101277,6,0,L|308:247,1,35,6|2,1:2|0:0,0:0:0:0:
313,330,101672,2,0,L|263:335,1,35,2|10,0:0|0:0,0:0:0:0:
196,353,102067,1,0,0:0:0:0:
119,318,102330,2,0,B|111:302|111:302|117:234,1,70,0|0,1:0|0:0,0:0:0:0:
164,181,102856,2,0,L|160:101,1,70,8|0,0:0|0:0,0:0:0:0:
212,45,103382,2,0,B|286:35|263:86|353:76,1,140,0|8,1:0|2:0,0:0:0:0:
483,170,104435,2,0,B|409:160|432:211|350:201,1,140,0|8,1:0|0:0,0:0:0:0:
204,284,105488,6,0,L|154:279,1,35,6|2,1:2|0:0,0:0:0:0:
111,219,105882,2,0,L|76:215,1,35,2|10,0:0|0:0,0:0:0:0:
49,135,106277,1,0,0:0:0:0:
96,65,106540,2,0,B|112:57|112:57|180:63,1,70,0|0,1:0|0:0,0:0:0:0:
224,119,107067,2,0,L|297:115,1,70,8|0,0:0|0:0,0:0:0:0:
371,82,107593,2,0,P|394:148|378:222,1,140,0|8,1:0|0:0,0:0:0:0:
273,344,108646,2,0,P|257:269|271:197,1,140,0|8,1:0|0:0,0:0:0:0:
321,143,109435,1,0,1:0:0:0:
402,165,109698,6,0,L|407:215,1,35,6|2,1:2|0:0,0:0:0:0:
462,261,110093,2,0,L|457:311,1,35,2|10,0:0|0:0,0:0:0:0:
387,341,110488,1,0,0:0:0:0:
304,353,110751,2,0,B|288:361|288:361|220:355,1,70,0|0,1:0|0:0,0:0:0:0:
166,308,111277,2,0,L|162:228,1,70,8|0,0:0|0:0,0:0:0:0:
227,185,111803,2,0,P|155:195|110:123,1,140,0|8,1:0|0:0,0:0:0:0:
218,17,112856,2,0,B|259:11|259:11|312:26|374:72,1,140,0|8,1:0|0:0,0:0:0:0:
416,101,113646,1,8,0:0:0:0:
359,162,113909,6,0,L|364:212,1,35,6|2,1:2|0:0,0:0:0:0:
421,257,114303,2,0,L|416:307,1,35,2|10,0:0|0:0,0:0:0:0:
354,347,114698,1,0,0:0:0:0:
272,327,114961,2,0,B|257:297|257:297|270:174,1,140,0|0,1:0|1:0,0:0:0:0:
300,113,115751,1,12,0:0:0:0:
250,45,116014,6,0,P|219:34|163:29,1,70,8|0,0:0|1:0,0:0:0:0:
122,87,116540,2,0,P|91:97|35:102,1,70,0|0,1:0|1:0,0:0:0:0:
30,182,117067,2,0,L|33:272,1,70,0|8,1:0|0:0,0:0:0:0:
116,258,117593,2,0,L|111:340,1,70,8|8,0:0|0:0,0:0:0:0:
188,361,118119,6,0,L|230:358,1,35,2|2,0:0|0:0,0:0:0:0:
298,320,118514,2,0,L|335:317,1,35,2|2,0:0|0:0,0:0:0:0:
444,191,119172,2,0,P|370:185|293:210,1,140,2|2,0:0|0:0,0:0:0:0:
185,318,120224,2,0,P|123:348|50:355,1,140,2|2,0:0|0:0,0:0:0:0:
27,181,121317,2,0,P|72:181|102:186,1,70,2|2,0:0|0:0,0:0:0:0:
179,197,121934,1,2,0:0:0:0:
