osu file format v14

[General]
AudioFilename: audio.mp3
AudioLeadIn: 0
PreviewTime: 67588
Countdown: 0
SampleSet: Soft
StackLeniency: 0.7
Mode: 0
LetterboxInBreaks: 0
WidescreenStoryboard: 0

[Editor]
Bookmarks: 50746,67588,101272
DistanceSpacing: 1.2
BeatDivisor: 4
GridSize: 4
TimelineZoom: 3.800001

[Metadata]
Title:Kimi no kioku
TitleUnicode:キミの記憶
Artist:Roselia
ArtistUnicode:Roselia
Creator:domSaur
Version:Insane
Source:バンドリ! ガールズバンドパーティ!
Tags:bang dream! girls band party bandori ロゼリア shoji meguro 目黒将司 persona 3 ペルソナ3memories of you cover video game japanese
BeatmapID:2201204
BeatmapSetID:1053345

[Difficulty]
HPDrainRate:6
CircleSize:3.8
OverallDifficulty:8
ApproachRate:8.4
SliderMultiplier:1.8
SliderTickRate:1

[Events]
//Background and Video events
0,0,"yuukina.jpg",0,0
//Break Periods
2,951,3745
2,5161,7956
//Storyboard Layer 0 (Background)
//Storyboard Layer 1 (Fail)
//Storyboard Layer 2 (Pass)
//Storyboard Layer 3 (Foreground)
//Storyboard Layer 4 (Overlay)
//Storyboard Sound Samples

[TimingPoints]
225,526.315789473684,4,2,1,40,1,0
225,-133.333333333333,4,2,1,40,0,0
17067,-100,4,2,1,47,0,0
67593,-76.9230769230769,4,2,1,60,0,1
84303,-76.9230769230769,4,2,1,60,0,0
84435,-76.9230769230769,4,2,1,60,0,1
101277,-100,4,2,1,53,0,0
118119,-133.333333333333,4,2,1,40,0,0
119172,-153.846153846154,4,2,1,36,0,0
120224,555.555555555556,4,2,1,30,1,0
120224,-153.846153846154,4,2,1,30,0,0
120779,538.116591928251,4,2,1,30,1,8
120779,-153.846153846154,4,2,1,30,0,0
121317,576.923076923077,4,2,1,30,1,8
121605,659.340659340659,4,2,1,30,1,8
121934,789.473684210526,4,2,1,30,1,8

[Colours]
Combo1 : 206,187,223
Combo2 : 183,183,183
Combo3 : 108,166,230
Combo4 : 73,96,171

[HitObjects]
75,126,225,5,2,0:0:0:0:
75,126,356,1,2,0:0:0:0:
192,139,619,1,2,0:0:0:0:
192,139,751,1,2,0:0:0:0:
75,126,4435,5,2,0:0:0:0:
75,126,4567,1,2,0:0:0:0:
192,139,4830,1,2,0:0:0:0:
192,139,4961,1,2,0:0:0:0:
75,126,8646,5,2,1:2:0:0:
75,126,8777,1,2,0:0:0:0:
192,139,9040,1,2,0:0:0:0:
192,139,9172,1,2,0:0:0:0:
319,77,9435,1,0,1:0:0:0:
319,77,9698,2,0,B|373:72|373:72|403:96|403:96|468:91,1,135.000005149842,8|0,0:0|0:0,0:0:0:0:
487,273,10751,5,0,1:0:0:0:
393,253,11146,1,0,1:0:0:0:
328,321,11540,1,0,1:0:0:0:
328,321,11803,2,0,P|253:331|165:347,1,135.000005149842,8|0,0:0|0:0,0:0:0:0:
100,233,12593,1,8,0:0:0:0:
104,251,12724,1,8,0:0:0:0:
80,324,12856,5,2,1:2:0:0:
80,324,12988,1,2,0:0:0:0:
147,170,13251,1,2,0:0:0:0:
147,170,13382,1,2,0:0:0:0:
274,287,13646,1,0,1:0:0:0:
274,287,13909,2,0,B|300:253|300:253|276:149,1,135.000005149842,8|0,0:0|0:0,0:0:0:0:
173,57,14961,5,0,1:0:0:0:
119,287,15356,1,0,1:0:0:0:
82,185,15751,1,0,1:0:0:0:
187,149,16014,1,8,0:0:0:0:
229,336,16540,1,2,0:0:0:0:
239,344,16672,2,0,B|265:356|265:356|319:362,1,67.5000025749208,2|0,0:0|0:0,0:0:0:0:
391,330,17067,6,0,L|408:228,1,90,6|0,1:2|0:0,0:0:0:0:
306,157,17593,2,0,B|290:113|290:113|297:70,1,90,2|0,1:2|0:0,0:0:0:0:
392,22,17988,1,2,0:0:0:0:
400,37,18119,2,0,B|415:80|415:80|408:123,1,90,2|0,1:2|0:0,0:0:0:0:
458,221,18646,1,2,1:2:0:0:
370,243,18909,1,2,0:0:0:0:
324,165,19172,5,2,1:2:0:0:
379,94,19435,1,2,0:0:0:0:
460,132,19698,1,2,1:2:0:0:
456,226,19961,2,0,P|403:237|334:258,1,90,2|0,0:0|1:0,0:0:0:0:
128,339,20488,2,0,B|158:352|158:352|234:340,1,90,2|0,0:0|1:0,0:0:0:0:
286,295,20882,2,0,P|282:250|275:197,1,90,2|0,0:0|0:0,0:0:0:0:
162,170,21277,6,0,P|218:182|268:137,1,90,2|0,1:2|0:0,0:0:0:0:
195,77,21672,1,0,0:0:0:0:
170,69,21803,2,0,B|151:106|151:106|162:185,1,90,2|0,1:2|0:0,0:0:0:0:
205,228,22198,1,2,0:0:0:0:
203,248,22330,1,0,1:0:0:0:
285,107,22593,1,2,0:0:0:0:
400,212,22856,2,0,L|519:208,1,90,2|0,1:2|0:0,0:0:0:0:
380,314,23251,1,2,0:0:0:0:
372,297,23382,6,0,L|366:192,1,90,0|2,1:0|0:0,0:0:0:0:
354,58,23909,1,0,1:0:0:0:
283,331,24435,1,2,1:2:0:0:
204,287,24698,1,2,0:0:0:0:
238,204,24961,1,2,1:2:0:0:
249,190,25093,2,0,B|258:161|258:161|255:131|247:83,1,90,2|0,0:0|0:0,0:0:0:0:
166,50,25488,6,0,P|121:47|43:35,1,90,2|0,1:2|0:0,0:0:0:0:
4,169,26014,2,0,P|48:163|93:160,1,90,2|0,1:2|0:0,0:0:0:0:
186,196,26409,1,2,0:0:0:0:
205,207,26540,2,0,B|218:243|218:243|199:332,1,90,0|0,1:0|0:0,0:0:0:0:
5,275,27067,1,2,1:2:0:0:
51,197,27330,1,2,0:0:0:0:
80,340,27593,5,2,1:2:0:0:
165,310,27856,1,2,0:0:0:0:
250,336,28119,1,2,1:2:0:0:
327,284,28382,2,0,B|336:257|336:257|324:178,1,90,2|0,0:0|1:0,0:0:0:0:
427,356,28909,2,0,P|435:310|448:265,1,90,2|0,0:0|1:0,0:0:0:0:
332,137,29435,6,0,P|338:182|344:253,1,90,2|0,0:0|1:0,0:0:0:0:
473,55,29961,2,0,P|467:99|462:144,1,90,2|0,0:0|1:0,0:0:0:0:
335,253,30488,2,0,P|330:208|324:163,1,90,2|0,0:0|1:0,0:0:0:0:
190,81,31014,2,0,B|141:108|141:108|132:172|160:241,1,180,2|0,0:0|0:0,0:0:0:0:
214,293,31672,1,2,0:0:0:0:
219,304,31803,5,2,1:2:0:0:
273,304,31935,1,2,0:0:0:0:
327,304,32067,1,2,0:0:0:0:
49,148,32330,1,2,1:2:0:0:
36,164,32461,2,0,B|28:195|28:195|47:288,1,90,2|2,0:0|0:0,0:0:0:0:
84,324,32856,1,0,1:0:0:0:
170,133,33382,1,2,1:2:0:0:
151,120,33514,2,0,L|43:130,1,90,2|0,0:0|0:0,0:0:0:0:
175,39,33909,6,0,B|210:31|210:31|287:51,1,90,6|0,1:2|0:0,0:0:0:0:
393,100,34435,2,0,P|329:109|293:142,1,90,10|0,0:0|0:0,0:0:0:0:
366,186,34830,1,2,0:0:0:0:
351,200,34961,2,0,P|331:264|331:357,1,135,0|0,1:0|0:0,0:0:0:0:
411,364,35488,1,10,0:0:0:0:
421,352,35619,2,0,P|435:300|429:253,1,90,2|0,0:0|0:0,0:0:0:0:
374,190,36014,6,0,B|337:168|337:168|291:179|262:227,1,135,2|0,1:2|0:0,0:0:0:0:
183,276,36540,2,0,L|174:176,1,90,10|0,0:0|0:0,0:0:0:0:
211,110,36935,1,2,0:0:0:0:
213,92,37067,1,0,1:0:0:0:
89,42,37330,1,0,0:0:0:0:
15,149,37593,1,8,0:0:0:0:
71,317,37856,1,2,0:0:0:0:
89,331,37988,6,0,L|162:335,1,45,2|0,0:0|1:0,0:0:0:0:
260,336,38251,1,2,0:0:0:0:
272,308,38382,1,2,0:0:0:0:
261,259,38514,1,2,0:0:0:0:
299,191,38646,1,10,0:0:0:0:
136,67,38909,1,2,0:0:0:0:
119,84,39040,6,0,L|125:141,1,45,2|0,0:0|1:0,0:0:0:0:
174,199,39303,1,2,0:0:0:0:
172,226,39435,1,2,0:0:0:0:
183,278,39567,1,2,0:0:0:0:
142,343,39698,1,10,0:0:0:0:
317,344,39961,1,2,0:0:0:0:
299,356,40093,6,0,L|294:307,1,45,2|0,0:0|1:0,0:0:0:0:
408,208,40356,2,0,L|403:252,1,45,2|0,0:0|0:0,0:0:0:0:
255,167,40619,2,0,L|250:122,1,45,2|8,0:0|0:0,0:0:0:0:
371,31,41014,1,2,0:0:0:0:
212,240,41277,1,2,1:2:0:0:
216,267,41409,1,2,0:0:0:0:
479,263,41672,1,8,0:0:0:0:
483,307,41803,1,10,0:0:0:0:
487,351,41935,2,0,B|453:337|453:337|391:358,1,90,2|0,0:0|0:0,0:0:0:0:
243,344,42330,6,0,P|198:329|126:319,1,90,6|0,1:2|0:0,0:0:0:0:
346,199,42856,2,0,P|301:207|259:221,1,90,10|0,0:0|0:0,0:0:0:0:
172,246,43251,1,2,0:0:0:0:
158,234,43382,2,0,B|145:209|145:209|153:133,1,90,0|0,1:0|0:0,0:0:0:0:
311,36,43909,1,10,0:0:0:0:
305,53,44040,2,0,B|298:82|298:82|316:155,1,90,2|0,0:0|0:0,0:0:0:0:
421,178,44435,6,0,P|355:176|301:219,1,135,2|0,1:2|0:0,0:0:0:0:
231,313,44961,2,0,P|221:234|215:197,1,90,10|0,0:0|0:0,0:0:0:0:
180,153,45356,1,2,0:0:0:0:
181,135,45488,1,0,1:0:0:0:
223,322,45751,6,0,P|172:329|114:332,1,90,2|8,0:0|0:0,0:0:0:0:
328,223,46277,2,0,P|379:216|437:213,1,90,2|0,0:0|1:0,0:0:0:0:
211,130,46803,2,0,L|218:227,1,90,2|8,0:0|0:0,0:0:0:0:
339,45,47330,2,0,L|345:134,1,90,2|0,0:0|1:0,0:0:0:0:
502,330,47856,2,0,L|495:240,1,90,2|8,0:0|0:0,0:0:0:0:
283,162,48382,6,0,B|384:160|354:98|448:100,1,180,2|0,0:0|0:0,0:0:0:0:
236,48,49172,1,12,0:0:0:0:
386,212,49567,1,8,0:0:0:0:
405,210,49698,1,10,1:2:0:0:
238,338,49961,1,8,0:0:0:0:
206,321,50093,1,8,0:0:0:0:
198,288,50224,1,10,0:3:0:0:
217,259,50356,1,8,0:3:0:0:
252,254,50488,1,8,0:3:0:0:
278,277,50619,1,8,0:3:0:0:
272,350,50751,6,0,B|243:278|274:222|274:222|316:161|266:66,1,270,6|0,1:2|1:0,0:0:0:0:
194,159,51803,1,8,0:0:0:0:
441,219,52856,6,0,P|454:156|436:70,2,135,0|0|0,1:0|1:0|1:0,0:0:0:0:
326,344,53909,2,0,P|321:294|310:244,1,90,10|0,0:0|0:0,0:0:0:0:
156,201,54435,2,0,P|192:233|244:215,1,90,2|0,0:0|0:0,0:0:0:0:
296,174,54830,1,8,0:3:0:0:
304,158,54961,6,0,B|319:114|319:114|314:76|266:14,2,135,6|0|0,1:2|1:0|1:0,0:0:0:0:
130,349,56014,2,0,P|121:266|108:147,1,180,8|0,0:0|0:0,0:0:0:0:
249,275,56803,1,8,0:0:0:0:
249,293,56935,1,8,0:0:0:0:
235,320,57067,6,0,B|315:322|281:262|384:276,2,135,0|0|0,1:0|1:0|1:0,0:0:0:0:
386,362,58119,1,8,0:0:0:0:
432,244,58382,1,10,0:0:0:0:
441,209,58514,1,8,0:3:0:0:
428,175,58646,1,10,0:3:0:0:
405,147,58777,1,8,0:3:0:0:
398,111,58909,1,10,0:3:0:0:
407,76,59040,1,8,0:3:0:0:
471,32,59172,6,0,B|433:22|433:22|380:26|309:61,2,135,6|0|0,1:2|1:0|1:0,0:0:0:0:
187,110,60224,1,8,0:0:0:0:
176,330,61277,6,0,P|186:258|152:188,2,135,0|0|0,1:0|1:0|1:0,0:0:0:0:
208,137,62330,2,0,B|173:123|141:126|141:126|91:155,1,90,10|0,0:0|0:0,0:0:0:0:
340,303,62856,2,0,P|348:258|349:191,1,90,2|8,0:0|0:3,0:0:0:0:
354,113,63382,6,0,B|312:109|312:109|271:143|272:214,2,135,6|0|0,1:2|1:0|1:0,0:0:0:0:
472,197,64435,1,8,0:0:0:0:
178,244,64830,1,8,0:0:0:0:
265,370,65093,1,8,0:3:0:0:
248,367,65224,1,8,0:3:0:0:
231,365,65356,1,8,0:3:0:0:
197,324,65488,5,8,0:0:0:0:
229,87,65751,1,8,0:0:0:0:
287,253,66014,1,8,0:0:0:0:
92,198,66277,1,8,0:0:0:0:
242,73,66540,1,8,0:0:0:0:
213,129,66672,1,8,0:3:0:0:
151,116,66803,1,8,0:3:0:0:
146,52,66935,1,8,0:3:0:0:
203,25,67067,5,8,0:0:0:0:
106,197,67593,5,6,1:2:0:0:
87,218,67724,2,0,B|74:266|74:266|97:354,1,116.999994644165,2|2,0:0|0:0,0:0:0:0:
172,345,68119,1,10,0:0:0:0:
348,260,68382,5,2,0:0:0:0:
334,280,68514,2,0,B|307:289|307:289|250:277,1,58.4999973220826,2|0,0:0|1:0,0:0:0:0:
202,246,68777,1,2,0:0:0:0:
177,251,68909,1,2,0:0:0:0:
236,23,69172,1,10,0:0:0:0:
256,40,69303,2,0,L|271:183,1,116.999994644165,2|2,0:0|0:0,0:0:0:0:
347,185,69698,5,2,1:2:0:0:
253,332,69961,1,2,0:0:0:0:
223,338,70093,1,2,0:0:0:0:
155,304,70224,1,10,0:0:0:0:
126,310,70356,1,2,0:0:0:0:
89,343,70488,1,2,0:0:0:0:
37,169,70751,1,2,1:2:0:0:
34,149,70882,1,2,0:0:0:0:
236,228,71146,1,2,0:0:0:0:
233,248,71277,1,10,0:0:0:0:
82,342,71540,1,2,0:0:0:0:
294,174,71803,5,2,1:2:0:0:
301,148,71935,1,2,0:0:0:0:
233,116,72067,1,2,0:0:0:0:
228,84,72198,1,2,0:0:0:0:
277,20,72330,1,10,0:0:0:0:
195,191,72593,1,2,0:0:0:0:
186,216,72724,2,0,B|180:241|180:241|194:303,1,58.4999973220826,2|0,0:0|1:0,0:0:0:0:
249,346,72988,1,2,0:0:0:0:
256,322,73119,1,2,0:0:0:0:
490,273,73382,1,10,0:0:0:0:
471,292,73514,2,0,B|439:307|439:307|314:287,1,116.999994644165,2|0,0:0|0:0,0:0:0:0:
277,248,73909,5,2,1:2:0:0:
406,98,74172,1,2,0:0:0:0:
408,127,74303,2,0,B|332:119,1,58.4999973220826,2|8,0:0|0:0,0:0:0:0:
257,59,74567,1,2,0:0:0:0:
285,56,74698,1,2,0:0:0:0:
217,191,74961,1,2,1:2:0:0:
228,222,75093,1,2,0:0:0:0:
262,213,75224,1,2,0:0:0:0:
249,180,75356,1,2,0:0:0:0:
209,112,75488,5,10,0:0:0:0:
234,41,75619,1,8,0:0:0:0:
308,25,75751,1,10,0:0:0:0:
365,74,75882,1,8,0:0:0:0:
358,150,76014,5,6,1:2:0:0:
152,50,76277,1,2,0:0:0:0:
431,117,76540,6,0,B|469:172|426:227|426:227|383:284|417:335,1,233.999989288331,10|0,0:0|1:0,0:0:0:0:
180,308,77593,1,10,0:0:0:0:
178,282,77724,1,2,0:0:0:0:
188,238,77856,1,2,0:0:0:0:
175,184,77988,1,2,0:0:0:0:
195,111,78119,6,0,B|139:102|81:131|81:131|55:80|62:50|62:50|95:56|116:76,1,233.999989288331,0|8,1:0|0:0,0:0:0:0:
323,38,78909,1,2,0:0:0:0:
404,84,79172,1,2,1:2:0:0:
385,175,79435,1,2,0:0:0:0:
292,188,79698,1,10,0:0:0:0:
261,73,79961,1,10,0:0:0:0:
284,91,80093,1,8,0:0:0:0:
260,107,80224,6,0,B|321:76|373:66|373:66|425:81|485:141,1,233.999989288331,2|8,1:2|0:0,0:0:0:0:
355,295,81014,2,0,B|312:197|367:148|367:148|402:167|430:203,1,233.999989288331,2|0,0:0|0:0,0:0:0:0:
275,339,81803,1,10,0:0:0:0:
275,339,82067,6,0,L|140:350,1,116.999994644165,12|0,0:0|1:0,0:0:0:0:
14,202,82593,1,10,0:0:0:0:
64,339,82856,1,8,0:0:0:0:
179,234,83119,1,2,0:0:0:0:
184,219,83251,1,8,0:0:0:0:
164,148,83382,1,0,1:0:0:0:
261,46,83646,1,10,0:0:0:0:
289,75,83777,1,8,0:0:0:0:
295,115,83909,1,10,0:0:0:0:
292,184,84040,1,8,0:3:0:0:
305,253,84172,1,8,0:3:0:0:
370,277,84303,1,8,0:3:0:0:
429,237,84435,5,6,1:2:0:0:
442,213,84567,2,0,B|446:187|446:187|429:91,1,116.999994644165,2|2,0:0|0:0,0:0:0:0:
358,33,84961,1,10,0:0:0:0:
210,145,85224,1,2,0:0:0:0:
193,167,85356,2,0,B|184:197|184:197|196:244,1,58.4999973220826,2|0,0:0|1:0,0:0:0:0:
263,240,85619,1,2,0:0:0:0:
297,238,85751,1,2,0:0:0:0:
206,60,86014,1,10,0:0:0:0:
185,48,86146,2,0,B|103:37|103:37|56:53,1,116.999994644165,2|2,0:0|0:0,0:0:0:0:
53,130,86540,5,2,1:2:0:0:
177,294,86803,1,2,0:0:0:0:
162,313,86935,2,0,L|76:321,1,58.4999973220826,2|8,0:0|0:0,0:0:0:0:
246,368,87198,1,2,0:0:0:0:
271,367,87330,1,2,0:0:0:0:
230,189,87593,1,2,1:2:0:0:
214,198,87724,1,2,0:0:0:0:
146,177,87856,1,2,0:0:0:0:
91,221,87988,1,2,0:0:0:0:
98,291,88119,2,0,B|138:312|138:312|229:297,1,116.999994644165,10|2,0:0|0:0,0:0:0:0:
281,95,88646,5,2,1:2:0:0:
268,116,88777,2,0,B|228:125|228:125|186:118|130:88,1,116.999994644165,2|2,0:0|0:0,0:0:0:0:
81,50,89172,1,10,0:0:0:0:
322,205,89435,1,2,0:0:0:0:
336,184,89567,2,0,B|376:175|376:175|418:182|474:212,1,116.999994644165,2|2,0:0|0:0,0:0:0:0:
498,279,89961,1,2,0:0:0:0:
245,344,90224,1,10,0:0:0:0:
224,326,90356,2,0,B|218:303|218:303|223:203,1,116.999994644165,2|2,0:0|0:0,0:0:0:0:
237,124,90751,5,2,1:2:0:0:
311,238,91014,1,2,0:0:0:0:
331,245,91146,1,2,0:0:0:0:
389,230,91277,1,10,0:0:0:0:
422,178,91409,1,2,0:0:0:0:
416,117,91540,1,2,0:0:0:0:
277,28,91803,2,0,B|258:48|258:48|251:102,1,58.4999973220826,2|2,1:2|0:0,0:0:0:0:
173,138,92067,2,0,B|192:158|192:158|199:212,1,58.4999973220826,8|2,0:0|0:0,0:0:0:0:
154,276,92330,1,10,0:0:0:0:
96,273,92461,1,8,0:3:0:0:
74,219,92593,1,10,0:3:0:0:
114,176,92724,1,8,0:3:0:0:
165,152,92856,5,6,1:2:0:0:
221,203,92988,1,2,0:0:0:0:
296,193,93119,1,2,0:0:0:0:
349,247,93251,1,2,0:0:0:0:
351,322,93382,2,0,B|318:319|282:333|282:333|247:299|206:281|206:281|169:300|113:297,1,233.999989288331,10|0,0:0|1:0,0:0:0:0:
369,231,94172,1,2,0:0:0:0:
140,277,94435,1,10,0:0:0:0:
142,258,94567,1,2,0:0:0:0:
237,64,94830,1,2,0:0:0:0:
239,87,94961,6,0,B|329:88|385:49|385:49|405:97|483:122,1,233.999989288331,2|8,1:2|0:0,0:0:0:0:
415,267,95751,1,2,0:0:0:0:
324,290,96014,1,2,1:2:0:0:
274,210,96277,1,2,0:0:0:0:
331,135,96540,1,10,0:0:0:0:
427,222,96803,1,10,0:0:0:0:
464,200,96935,1,8,0:0:0:0:
429,180,97067,6,0,B|328:175|328:175|300:157|300:157|185:152,1,233.999989288331,2|8,1:2|0:0,0:0:0:0:
152,29,97856,1,2,0:0:0:0:
90,111,98119,2,0,B|79:144|79:144|95:243,1,116.999994644165,0|0,1:0|0:0,0:0:0:0:
225,364,98646,1,2,1:2:0:0:
209,255,98909,6,0,B|181:253|131:297|131:297|93:215|102:133,1,233.999989288331,8|8,0:0|0:0,0:0:0:0:
369,194,99698,1,8,0:0:0:0:
239,86,99961,1,2,0:0:0:0:
240,74,100093,1,8,0:0:0:0:
241,62,100224,1,2,1:2:0:0:
283,267,100488,1,8,0:0:0:0:
282,255,100619,1,8,0:0:0:0:
281,243,100751,1,10,0:0:0:0:
212,198,100882,1,8,0:3:0:0:
139,236,101014,1,8,0:3:0:0:
142,318,101146,1,8,0:3:0:0:
211,366,101277,5,6,1:2:0:0:
211,366,101409,1,2,0:0:0:0:
382,251,101672,1,2,0:0:0:0:
382,251,101803,2,0,B|350:245|350:245|313:253|260:290,1,90,10|0,0:0|0:0,0:0:0:0:
441,175,102330,5,0,1:0:0:0:
421,96,102593,1,0,0:0:0:0:
347,63,102856,1,8,0:0:0:0:
272,94,103119,1,0,0:0:0:0:
412,110,103382,5,0,1:0:0:0:
326,42,103646,1,0,2:0:0:0:
219,58,103909,1,8,2:0:0:0:
170,154,104172,1,0,2:0:0:0:
402,123,104435,5,0,1:0:0:0:
290,47,104698,1,0,0:0:0:0:
158,76,104961,1,8,0:0:0:0:
115,203,105224,1,0,0:0:0:0:
234,316,105488,5,6,1:2:0:0:
234,316,105619,1,2,0:0:0:0:
178,131,105882,1,2,0:0:0:0:
178,131,106014,2,0,B|143:123|143:123|59:142,1,90,10|0,0:0|0:0,0:0:0:0:
241,218,106540,5,0,1:0:0:0:
301,164,106803,1,0,0:0:0:0:
275,87,107067,1,8,0:0:0:0:
195,73,107330,1,0,0:0:0:0:
308,171,107593,5,0,1:0:0:0:
402,223,107856,1,0,0:0:0:0:
490,161,108119,1,8,0:0:0:0:
467,55,108382,1,0,0:0:0:0:
487,175,108646,5,0,1:0:0:0:
451,305,108909,1,0,0:0:0:0:
451,305,109040,1,0,1:0:0:0:
451,305,109172,1,8,0:0:0:0:
316,293,109435,1,0,1:0:0:0:
306,107,109698,5,6,1:2:0:0:
306,107,109830,1,2,0:0:0:0:
452,196,110093,1,2,0:0:0:0:
452,196,110224,2,0,P|414:202|332:212,1,90,10|0,0:0|0:0,0:0:0:0:
216,195,110751,5,0,1:0:0:0:
184,120,111014,1,0,0:0:0:0:
223,49,111277,1,8,0:0:0:0:
303,39,111540,1,0,0:0:0:0:
393,188,111803,5,0,1:0:0:0:
289,218,112067,1,0,0:0:0:0:
184,190,112330,1,8,0:0:0:0:
124,99,112593,1,0,0:0:0:0:
29,208,112856,5,0,1:0:0:0:
149,147,113119,1,0,0:0:0:0:
262,220,113382,1,8,0:0:0:0:
273,361,113646,1,8,0:0:0:0:
243,370,113777,1,8,0:0:0:0:
183,326,113909,5,6,1:2:0:0:
185,320,114040,1,2,0:0:0:0:
49,145,114303,1,2,0:0:0:0:
46,150,114435,2,0,B|33:180|33:180|41:257,1,90,10|0,0:0|0:0,0:0:0:0:
193,142,114961,5,0,1:0:0:0:
180,61,115224,1,0,0:0:0:0:
102,39,115488,1,0,1:0:0:0:
53,230,115751,1,12,0:0:0:0:
297,197,116014,6,0,P|311:167|316:138,1,45,2|0,1:2|0:0,0:0:0:0:
228,248,116277,2,0,P|194:250|167:260,1,45,2|0,1:2|0:0,0:0:0:0:
305,285,116540,2,0,P|323:312|346:330,1,45,2|0,1:2|0:3,0:3:0:0:
225,171,116803,6,0,P|206:143|183:125,1,45,0|0,1:0|0:0,0:0:0:0:
236,325,117067,2,0,P|221:354|216:383,1,45,8|0,0:0|0:0,0:0:0:0:
367,230,117330,2,0,P|400:227|427:217,1,45,8|0,0:0|0:3,0:3:0:0:
237,146,117593,6,0,P|242:178|256:204,1,45,8|0,0:0|0:3,0:3:0:0:
376,51,117856,2,0,P|344:39|315:38,1,45,8|0,0:0|0:3,0:3:0:0:
139,90,118119,5,2,0:0:0:0:
139,90,118251,1,2,0:0:0:0:
256,199,118514,1,2,0:0:0:0:
256,199,118646,2,0,P|252:237|247:285,1,67.5000025749208,2|0,0:0|0:0,0:0:0:0:
151,371,119172,2,0,P|147:341|141:313,1,58.4999973220826,2|0,0:0|0:0,0:0:0:0:
60,246,119698,2,0,P|63:216|69:188,1,58.4999973220826,2|0,0:0|0:0,0:0:0:0:
166,39,120224,6,0,L|168:97,1,58.4999973220826,2|0,0:0|0:0,0:0:0:0:
266,138,120779,2,0,L|263:208,1,58.4999973220826,2|0,0:0|0:0,0:0:0:0:
343,276,121317,5,2,0:0:0:0:
431,248,121605,1,2,0:0:0:0:
484,336,121934,1,2,0:0:0:0:
