osu file format v14

[General]
AudioFilename: audio.mp3
AudioLeadIn: 0
PreviewTime: 67588
Countdown: 0
SampleSet: Soft
StackLeniency: 0.7
Mode: 0
LetterboxInBreaks: 0
WidescreenStoryboard: 1

[Editor]
Bookmarks: 29956,50746,67588,101272
DistanceSpacing: 1.2
BeatDivisor: 4
GridSize: 4
TimelineZoom: 2.300001

[Metadata]
Title:Kimi no kioku
TitleUnicode:キミの記憶
Artist:Roselia
ArtistUnicode:Roselia
Creator:domSaur
Version:Hard
Source:バンドリ! ガールズバンドパーティ!
Tags:bang dream! girls band party bandori ロゼリア shoji meguro 目黒将司 persona 3 ペルソナ3memories of you cover video game japanese
BeatmapID:2217631
BeatmapSetID:1053345

[Difficulty]
HPDrainRate:5
CircleSize:3.5
OverallDifficulty:6
ApproachRate:7.4
SliderMultiplier:1.6
SliderTickRate:1

[Events]
//Background and Video events
0,0,"yuukina.jpg",0,0
//Break Periods
2,951,3596
2,5161,7807
//Storyboard Layer 0 (Background)
//Storyboard Layer 1 (Fail)
//Storyboard Layer 2 (Pass)
//Storyboard Layer 3 (Foreground)
//Storyboard Layer 4 (Overlay)
//Storyboard Sound Samples

[TimingPoints]
225,526.315789473684,4,2,1,40,1,0
225,-133.333333333333,4,2,1,50,0,0
17067,-117.647058823529,4,2,1,53,0,0
33909,-100,4,2,1,53,0,0
50751,-133.333333333333,4,2,1,53,0,0
65488,-100,4,2,1,53,0,0
67593,-100,4,2,1,60,0,1
84303,-100,4,2,1,60,0,0
84435,-100,4,2,1,60,0,1
101277,-100,4,2,1,53,0,0
118119,-153.846153846153,4,2,1,36,0,0
120224,555.555555555556,4,2,1,36,1,0
120224,-153.846153846153,4,2,1,30,0,0
120779,538.116591928251,4,2,1,30,1,0
120779,-153.846153846154,4,2,1,30,0,0
121317,576.923076923077,4,2,1,30,1,0
121317,-153.846153846153,4,2,1,30,0,0
121605,659.340659340659,4,2,1,30,1,0
121934,789.473684210526,4,2,1,30,1,0

[Colours]
Combo1 : 194,163,211
Combo2 : 183,183,183
Combo3 : 116,153,222
Combo4 : 186,194,216

[HitObjects]
86,100,225,5,2,0:0:0:0:
86,100,356,1,2,0:0:0:0:
192,118,619,1,2,0:0:0:0:
192,118,751,1,2,0:0:0:0:
86,100,4435,5,2,0:0:0:0:
86,100,4567,1,2,0:0:0:0:
192,118,4830,1,2,0:0:0:0:
192,118,4961,1,2,0:0:0:0:
86,100,8646,5,2,1:2:0:0:
86,100,8777,1,2,0:0:0:0:
192,118,9040,1,2,0:0:0:0:
192,118,9172,1,2,0:0:0:0:
298,138,9435,1,0,1:0:0:0:
397,159,9698,2,0,B|423:191|423:191|411:282,1,120.000004577637,8|0,0:0|0:0,0:0:0:0:
226,347,10751,6,0,B|190:352|190:352|140:328,2,90.0000034332277,0|0|0,1:0|1:0|1:0,0:0:0:0:
323,317,11803,1,8,0:0:0:0:
109,191,12593,1,8,0:0:0:0:
109,191,12724,1,8,0:0:0:0:
109,191,12856,6,0,L|114:244,1,30.0000011444092,2|2,1:2|0:0,0:0:0:0:
210,247,13251,2,0,L|207:276,1,30.0000011444092,2|2,0:0|0:0,0:0:0:0:
287,339,13646,1,0,1:0:0:0:
378,294,13909,2,0,B|393:259|393:259|385:157,1,120.000004577637,8|0,0:0|0:0,0:0:0:0:
283,57,14961,6,0,B|273:82|273:82|279:170,2,90.0000034332277,0|0|0,1:0|1:0|1:0,0:0:0:0:
383,38,16014,1,8,0:0:0:0:
472,246,17067,6,0,B|434:247|401:231|401:231|347:238,1,102.000001945496,6|0,1:2|0:0,0:0:0:0:
347,275,17593,2,0,L|257:286,1,68.0000012969971,2|0,1:2|0:0,0:0:0:0:
237,260,17988,1,2,0:0:0:0:
237,260,18119,2,0,B|228:229|228:229|233:176,1,68.0000012969971,2|0,1:2|0:0,0:0:0:0:
230,84,18646,5,2,1:2:0:0:
156,23,18909,1,2,0:0:0:0:
73,70,19172,1,2,1:2:0:0:
92,163,19435,1,2,0:0:0:0:
185,179,19698,1,2,1:2:0:0:
185,179,19961,2,0,B|195:208|195:208|187:253,1,68.0000012969971,2|0,0:0|1:0,0:0:0:0:
158,335,20488,2,0,L|239:330,1,68.0000012969971,2|0,0:0|1:0,0:0:0:0:
266,307,20882,2,0,L|335:310,1,68.0000012969971,2|0,0:0|0:0,0:0:0:0:
374,284,21277,6,0,P|383:249|370:188,1,68.0000012969971,2|0,1:2|0:0,0:0:0:0:
352,175,21672,1,0,0:0:0:0:
352,175,21803,2,0,L|356:79,1,68.0000012969971,2|0,1:2|0:0,0:0:0:0:
332,61,22198,1,2,0:0:0:0:
332,61,22330,1,0,1:0:0:0:
232,37,22593,1,2,0:0:0:0:
134,65,22856,2,0,B|123:88|123:88|127:148,1,68.0000012969971,2|0,1:2|0:0,0:0:0:0:
158,170,23251,1,2,0:0:0:0:
158,170,23382,5,0,1:0:0:0:
117,263,23646,1,2,0:0:0:0:
167,351,23909,1,0,1:0:0:0:
353,356,24435,1,2,1:2:0:0:
415,275,24698,1,2,0:0:0:0:
365,185,24961,1,2,1:2:0:0:
365,185,25093,2,0,L|275:199,1,68.0000012969971,2|0,0:0|0:0,0:0:0:0:
248,210,25488,6,0,B|230:176|230:176|240:86,1,102.000001945496,2|0,1:2|0:0,0:0:0:0:
212,72,26014,2,0,L|130:78,1,68.0000012969971,2|0,1:2|0:0,0:0:0:0:
99,59,26409,1,2,0:0:0:0:
99,59,26540,1,0,1:0:0:0:
108,153,26803,1,0,0:0:0:0:
35,215,27067,5,2,1:2:0:0:
44,309,27330,1,2,0:0:0:0:
127,353,27593,1,2,1:2:0:0:
212,312,27856,1,2,0:0:0:0:
314,341,28119,1,2,1:2:0:0:
314,341,28382,2,0,L|405:335,1,68.0000012969971,2|0,0:0|1:0,0:0:0:0:
490,271,28909,6,0,B|499:241|499:241|488:192,1,68.0000012969971,2|0,0:0|1:0,0:0:0:0:
412,152,29435,2,0,B|403:122|403:122|414:73,1,68.0000012969971,2|0,0:0|1:0,0:0:0:0:
329,36,29961,2,0,L|247:43,1,68.0000012969971,2|0,0:0|1:0,0:0:0:0:
182,96,30488,2,0,L|100:103,1,68.0000012969971,2|0,0:0|1:0,0:0:0:0:
50,172,31014,2,0,P|28:238|58:296,1,136.000002593994,2|0,0:0|0:0,0:0:0:0:
107,320,31672,1,2,0:0:0:0:
107,320,31803,6,0,L|144:323,2,34.0000006484985,2|2|2,1:2|0:0|0:0,0:0:0:0:
171,237,32330,1,2,1:2:0:0:
171,237,32461,2,0,L|166:152,1,68.0000012969971,2|2,0:0|0:0,0:0:0:0:
141,117,32856,1,0,1:0:0:0:
347,52,33382,1,2,1:2:0:0:
347,52,33514,2,0,B|356:73|356:73|349:122,1,68.0000012969971,2|0,0:0|0:0,0:0:0:0:
311,152,33909,6,0,L|321:279,1,120,6|0,1:2|0:0,0:0:0:0:
364,306,34435,2,0,B|396:302|396:302|416:313|416:313|463:306,1,80,10|0,0:0|0:0,0:0:0:0:
479,269,34830,1,2,0:0:0:0:
479,269,34961,1,0,1:0:0:0:
469,165,35224,1,0,0:0:0:0:
457,61,35488,1,10,0:0:0:0:
457,61,35619,2,0,L|353:58,1,80,2|0,0:0|0:0,0:0:0:0:
329,79,36014,6,0,B|283:79|283:79|260:97|260:97|196:95,1,120,2|0,1:2|0:0,0:0:0:0:
164,120,36540,2,0,B|148:148|148:148|154:224,1,80,10|0,0:0|0:0,0:0:0:0:
162,251,36935,1,2,0:0:0:0:
162,251,37067,1,0,1:0:0:0:
197,348,37330,1,0,0:0:0:0:
299,340,37593,1,8,0:0:0:0:
405,330,37856,5,2,0:0:0:0:
405,330,37988,2,0,L|413:237,1,80,2|2,0:0|0:0,0:0:0:0:
449,208,38382,2,0,B|468:212|468:212|504:209,2,40,2|2|10,0:0|0:0|0:0,0:0:0:0:
404,119,38909,1,2,0:0:0:0:
404,119,39040,2,0,L|310:112,1,80,2|2,0:0|0:0,0:0:0:0:
278,80,39435,2,0,B|272:64|272:64|272:34,2,40,2|2|10,0:0|0:0|0:0,0:0:0:0:
283,219,39961,1,2,0:0:0:0:
283,219,40093,6,0,L|281:263,1,40,2|0,0:0|1:0,0:0:0:0:
247,308,40356,2,0,B|228:317|228:317|162:310,1,80,2|2,0:0|0:0,0:0:0:0:
135,261,40751,1,8,0:0:0:0:
102,161,41014,1,2,0:0:0:0:
185,98,41277,1,2,1:2:0:0:
185,98,41409,1,2,0:0:0:0:
279,141,41672,1,8,0:0:0:0:
279,141,41803,1,10,0:0:0:0:
279,141,41935,1,2,0:0:0:0:
200,236,42330,6,0,B|189:311|189:311|220:350,1,120,6|0,1:2|0:0,0:0:0:0:
268,351,42856,2,0,B|359:346,1,80,10|0,0:0|0:0,0:0:0:0:
397,330,43251,1,2,0:0:0:0:
397,330,43382,1,0,1:0:0:0:
447,238,43646,1,0,0:0:0:0:
433,137,43909,1,10,0:0:0:0:
433,137,44040,2,0,B|382:146|382:146|336:137,1,80,2|0,0:0|0:0,0:0:0:0:
320,101,44435,6,0,P|264:82|201:123,1,120,2|0,1:2|0:0,0:0:0:0:
181,149,44961,2,0,L|189:263,1,80,10|0,0:0|0:0,0:0:0:0:
209,275,45356,1,2,0:0:0:0:
209,275,45488,1,0,1:0:0:0:
115,320,45751,2,0,B|82:325|82:325|62:307|43:274,1,80,2|8,0:0|0:0,0:0:0:0:
34,186,46277,6,0,P|29:139|23:91,1,80,2|0,0:0|1:0,0:0:0:0:
114,54,46803,2,0,P|160:51|188:72,1,80,2|8,0:0|0:0,0:0:0:0:
288,88,47330,2,0,P|241:85|214:106,1,80,2|0,0:0|1:0,0:0:0:0:
123,150,47856,2,0,P|170:147|197:168,1,80,2|8,0:0|0:0,0:0:0:0:
295,193,48382,6,0,P|206:205|137:343,1,240,2|12,0:0|0:0,0:0:0:0:
307,356,49567,1,8,0:0:0:0:
307,356,49698,1,10,1:2:0:0:
400,310,49961,1,8,0:0:0:0:
417,301,50093,1,8,0:0:0:0:
438,291,50224,2,0,L|446:231,3,40,10|8|8|8,0:3|0:3|0:3|0:3,0:0:0:0:
439,212,50751,6,0,B|330:220|377:155|255:158,1,180.000006866455,6|0,1:2|1:0,0:0:0:0:
210,204,51803,1,8,0:0:0:0:
455,123,52856,2,0,P|463:76|444:28,2,90.0000034332277,0|0|0,1:0|1:0|1:0,0:0:0:0:
385,159,53909,2,0,L|319:155,1,60.0000022888184,10|0,0:0|0:0,0:0:0:0:
271,98,54435,2,0,L|205:102,1,60.0000022888184,2|0,0:0|0:0,0:0:0:0:
157,110,54830,1,8,0:3:0:0:
157,110,54961,6,0,B|148:79|148:79|153:-1,2,90.0000034332277,6|0|0,1:2|1:0|1:0,0:0:0:0:
185,182,56014,1,8,0:0:0:0:
352,349,57067,2,0,L|460:344,2,90.0000034332277,0|0|0,1:0|1:0|1:0,0:0:0:0:
279,320,58119,2,0,B|271:297|271:297|277:244,1,60.0000022888184,8|10,0:0|0:0,0:0:0:0:
272,242,58514,1,8,0:3:0:0:
269,218,58646,2,0,L|265:169,3,30.0000011444092,10|8|10|8,0:3|0:3|0:3|0:3,0:0:0:0:
288,140,59172,6,0,P|329:131|380:148,2,90.0000034332277,6|0|0,1:2|1:0|1:0,0:0:0:0:
212,103,60224,1,8,0:0:0:0:
81,318,61277,2,0,B|71:282|71:282|82:212,2,90.0000034332277,0|0|0,1:0|1:0|1:0,0:0:0:0:
154,276,62330,2,0,L|213:273,1,60.0000022888184,10|0,0:0|0:0,0:0:0:0:
296,290,62856,2,0,L|293:230,1,60.0000022888184,2|8,0:0|0:3,0:0:0:0:
237,167,63382,6,0,B|208:161|208:161|149:186,2,90.0000034332277,6|0|0,1:2|1:0|1:0,0:0:0:0:
253,84,64435,2,0,B|229:64|229:64|165:57,1,90.0000034332277,8|8,0:0|0:0,0:0:0:0:
86,59,65093,1,8,0:3:0:0:
82,82,65224,1,8,0:3:0:0:
78,105,65356,1,8,0:3:0:0:
74,125,65488,5,8,0:0:0:0:
81,236,65751,1,8,0:0:0:0:
189,265,66014,1,8,0:0:0:0:
247,169,66277,1,8,0:0:0:0:
190,72,66540,1,8,0:0:0:0:
190,72,66672,1,8,0:3:0:0:
190,72,66803,2,0,L|186:23,2,40,8|8|8,0:3|0:3|0:0,0:0:0:0:
106,303,67593,5,6,1:2:0:0:
106,303,67724,2,0,L|202:302,1,80,2|2,0:0|0:0,0:0:0:0:
232,314,68119,1,10,0:0:0:0:
346,328,68382,1,2,0:0:0:0:
346,328,68514,2,0,B|360:297|360:297|353:239,1,80,2|2,0:0|0:0,0:0:0:0:
347,203,68909,1,2,0:0:0:0:
281,103,69172,1,10,0:0:0:0:
281,103,69303,2,0,P|235:102|188:111,1,80,2|2,0:0|0:0,0:0:0:0:
155,122,69698,5,2,1:2:0:0:
47,72,69961,1,2,0:0:0:0:
47,72,70093,1,2,0:0:0:0:
47,72,70224,2,0,L|46:4,2,40,10|2|2,0:0|0:0|0:0,0:0:0:0:
54,184,70751,1,2,1:2:0:0:
54,184,70882,2,0,L|59:279,1,80,2|2,0:0|0:0,0:0:0:0:
78,307,71277,1,10,0:0:0:0:
185,332,71540,1,2,0:0:0:0:
304,336,71803,5,2,1:2:0:0:
304,336,71935,1,2,0:0:0:0:
304,336,72067,2,0,L|312:395,2,40,2|2|10,0:0|0:0|0:0,0:0:0:0:
401,284,72593,1,2,0:0:0:0:
401,284,72724,2,0,B|409:258|409:258|403:187,1,80,2|2,0:0|0:0,0:0:0:0:
400,157,73119,1,2,0:0:0:0:
353,59,73382,1,10,0:0:0:0:
353,59,73514,2,0,L|254:53,1,80,2|0,0:0|0:0,0:0:0:0:
226,40,73909,5,2,1:2:0:0:
170,123,74172,1,2,0:0:0:0:
170,123,74303,2,0,L|179:218,1,80,2|2,0:0|0:0,0:0:0:0:
187,249,74698,1,2,0:0:0:0:
277,306,74961,2,0,L|269:345,2,40,2|2|2,1:2|0:0|0:0,0:0:0:0:
312,254,75356,1,2,0:0:0:0:
312,254,75488,2,0,B|347:253|347:253|361:261|361:261|399:259,1,80,10|10,0:0|0:0,0:0:0:0:
429,233,75882,1,8,0:0:0:0:
432,218,76014,5,6,1:2:0:0:
449,106,76277,1,2,0:0:0:0:
342,66,76540,2,0,B|254:80|271:23|187:31,1,160,10|0,0:0|1:0,0:0:0:0:
57,145,77593,1,10,0:0:0:0:
60,160,77724,1,2,0:0:0:0:
63,172,77856,2,0,L|66:224,1,40,2|2,0:0|0:0,0:0:0:0:
54,258,78119,6,0,B|138:250|122:301|223:289,1,160,0|8,1:0|0:0,0:0:0:0:
297,323,78909,1,2,0:0:0:0:
383,306,79172,1,2,1:2:0:0:
438,237,79435,1,2,0:0:0:0:
418,151,79698,1,10,0:0:0:0:
352,92,79961,1,10,0:0:0:0:
352,92,80093,1,8,0:0:0:0:
352,92,80224,6,0,P|251:93|196:142,1,160,2|8,1:2|0:0,0:0:0:0:
130,171,81014,2,0,P|231:172|286:221,1,160,2|0,0:0|0:0,0:0:0:0:
340,264,81803,1,10,0:0:0:0:
340,264,82067,1,12,0:0:0:0:
300,354,82330,5,0,1:0:0:0:
194,346,82593,1,10,0:0:0:0:
194,346,82856,1,8,0:0:0:0:
115,277,83119,2,0,L|106:214,2,40,2|8|0,0:0|0:0|1:0,0:0:0:0:
106,126,83646,2,0,L|102:71,1,40,10|8,0:0|0:0,0:0:0:0:
157,27,83909,2,0,B|152:43|152:43|155:67,3,40,10|8|8|8,0:0|0:3|0:3|0:3,0:0:0:0:
195,101,84435,5,6,1:2:0:0:
195,101,84567,2,0,L|306:93,1,80,2|2,0:0|0:0,0:0:0:0:
321,103,84961,1,10,0:0:0:0:
416,146,85224,1,2,0:0:0:0:
416,146,85356,2,0,L|408:242,1,80,2|2,0:0|0:0,0:0:0:0:
403,273,85751,1,2,0:0:0:0:
326,338,86014,1,10,0:0:0:0:
326,338,86146,2,0,L|230:330,1,80,2|2,0:0|0:0,0:0:0:0:
199,342,86540,5,2,1:2:0:0:
191,246,86803,1,2,0:0:0:0:
191,246,86935,2,0,L|186:153,1,80,2|2,0:0|0:0,0:0:0:0:
186,118,87330,1,2,0:0:0:0:
253,34,87593,1,2,1:2:0:0:
274,37,87724,1,2,0:0:0:0:
295,40,87856,2,0,L|360:37,1,40,2|2,0:0|0:0,0:0:0:0:
377,67,88119,2,0,B|384:93|384:93|375:145,1,80,10|2,0:0|0:0,0:0:0:0:
327,238,88646,5,2,1:2:0:0:
327,238,88777,2,0,L|236:229,1,80,2|2,0:0|0:0,0:0:0:0:
201,242,89172,1,10,0:0:0:0:
235,349,89435,1,2,0:0:0:0:
235,349,89567,2,0,L|335:343,1,80,2|2,0:0|0:0,0:0:0:0:
362,339,89961,1,2,0:0:0:0:
446,261,90224,1,10,0:0:0:0:
446,261,90356,2,0,L|439:160,1,80,2|2,0:0|0:0,0:0:0:0:
451,134,90751,5,2,1:2:0:0:
368,53,91014,1,2,0:0:0:0:
363,59,91146,1,2,0:0:0:0:
358,65,91277,2,0,L|299:55,2,40,10|2|2,0:0|0:0|0:0,0:0:0:0:
305,163,91803,2,0,L|242:157,1,40,2|2,1:2|0:0,0:0:0:0:
209,169,92067,2,0,L|151:173,1,40,8|2,0:0|0:0,0:0:0:0:
127,133,92330,1,10,0:0:0:0:
125,125,92461,1,8,0:3:0:0:
123,117,92593,1,10,0:3:0:0:
228,65,92856,5,6,1:2:0:0:
228,65,92988,2,0,L|240:7,2,40,2|2|2,0:0|0:0|0:0,0:0:0:0:
218,117,93382,2,0,P|219:171|230:285,1,160,10|0,0:0|1:0,0:0:0:0:
329,323,94172,1,2,0:0:0:0:
465,267,94435,1,10,0:0:0:0:
457,261,94567,2,0,P|413:254|339:250,1,80,2|2,0:0|0:0,0:0:0:0:
308,218,94961,6,0,P|401:203|482:194,1,160,2|8,1:2|0:0,0:0:0:0:
417,94,95751,1,2,0:0:0:0:
330,52,96014,1,2,1:2:0:0:
257,115,96277,1,2,0:0:0:0:
169,154,96540,1,10,0:0:0:0:
106,81,96803,1,10,0:0:0:0:
106,81,96935,1,8,0:0:0:0:
106,81,97067,6,0,B|170:71|170:71|203:38|203:38|279:28,1,160,2|8,1:2|0:0,0:0:0:0:
327,89,97856,2,0,B|347:134|347:134|332:197|332:197|279:239,1,160,2|0,0:0|0:0,0:0:0:0:
203,202,98646,1,2,1:2:0:0:
203,202,98909,6,0,L|187:28,1,160,8|8,0:0|0:0,0:0:0:0:
94,61,99698,1,8,0:0:0:0:
67,153,99961,1,2,0:0:0:0:
67,153,100093,1,8,0:0:0:0:
67,153,100224,2,0,L|82:260,1,80,2|8,1:2|0:0,0:0:0:0:
142,303,100751,2,0,L|192:296,3,40,10|8|8|8,0:0|0:3|0:3|0:3,0:0:0:0:
243,326,101277,5,6,1:2:0:0:
243,326,101409,1,2,0:0:0:0:
359,353,101672,1,2,0:0:0:0:
359,353,101803,1,10,0:0:0:0:
469,338,102067,1,0,0:0:0:0:
487,226,102330,2,0,L|482:140,1,80,0|0,1:0|0:0,0:0:0:0:
398,72,102856,2,0,L|393:151,1,80,8|0,0:0|0:0,0:0:0:0:
337,248,103382,6,0,B|310:257|310:257|252:236,1,80,0|0,1:0|2:0,0:0:0:0:
208,140,103909,2,0,B|235:131|235:131|293:152,1,80,8|0,2:0|2:0,0:0:0:0:
390,114,104435,2,0,P|398:69|382:28,1,80,0|0,1:0|0:0,0:0:0:0:
292,38,104961,1,8,0:0:0:0:
196,41,105224,1,0,0:0:0:0:
129,131,105488,5,6,1:2:0:0:
129,131,105619,1,2,0:0:0:0:
194,221,105882,1,2,0:0:0:0:
194,221,106014,1,10,0:0:0:0:
119,304,106277,1,0,0:0:0:0:
29,236,106540,2,0,B|20:208|20:208|26:140,1,80,0|0,1:0|0:0,0:0:0:0:
110,84,107067,2,0,B|119:112|119:112|113:180,1,80,8|0,0:0|0:0,0:0:0:0:
204,95,107593,6,0,L|289:88,1,80,0|0,1:0|0:0,0:0:0:0:
369,160,108119,2,0,L|284:167,1,80,8|0,0:0|0:0,0:0:0:0:
237,266,108646,2,0,L|322:259,1,80,0|0,1:0|0:0,0:0:0:0:
361,278,109040,1,0,1:0:0:0:
361,278,109172,1,8,0:0:0:0:
472,214,109435,1,0,1:0:0:0:
442,89,109698,5,6,1:2:0:0:
442,89,109830,1,2,0:0:0:0:
330,75,110093,1,2,0:0:0:0:
330,75,110224,1,10,0:0:0:0:
219,54,110488,1,0,0:0:0:0:
123,111,110751,2,0,B|117:137|117:137|125:193,1,80,0|0,1:0|0:0,0:0:0:0:
214,255,111277,2,0,B|220:229|220:229|212:173,1,80,8|0,0:0|0:0,0:0:0:0:
270,80,111803,6,0,P|310:67|364:76,1,80,0|0,1:0|0:0,0:0:0:0:
402,167,112330,2,0,P|364:154|324:156,1,80,8|0,0:0|0:0,0:0:0:0:
274,256,112856,2,0,P|311:243|351:245,1,80,0|0,1:0|0:0,0:0:0:0:
436,318,113382,1,8,0:0:0:0:
334,365,113646,2,0,L|274:362,1,40,8|8,0:0|0:0,0:0:0:0:
237,360,113909,5,6,1:2:0:0:
237,353,114040,1,2,0:0:0:0:
128,333,114303,1,2,0:0:0:0:
129,327,114435,1,10,0:0:0:0:
191,240,114698,1,0,0:0:0:0:
101,172,114961,2,0,B|92:145|92:145|98:86,1,80,0|0,1:0|0:0,0:0:0:0:
178,42,115488,1,0,1:0:0:0:
272,60,115751,1,12,0:0:0:0:
300,168,116014,5,2,1:2:0:0:
222,248,116277,1,2,1:2:0:0:
115,212,116540,1,2,1:2:0:0:
192,131,116803,1,0,1:0:0:0:
300,159,117067,2,0,B|336:163|336:163|395:145,1,80,8|8,0:0|0:0,0:0:0:0:
327,50,117593,2,0,B|291:46|291:46|249:58,1,80,8|8,0:0|0:0,0:0:0:0:
186,143,118119,5,2,0:0:0:0:
186,143,118251,1,2,0:0:0:0:
138,233,118514,1,2,0:0:0:0:
138,233,118646,2,0,B|76:225|95:264|18:250,2,103.999995239258,2|2|2,0:0|0:0|0:0,0:0:0:0:
284,149,120224,6,0,P|320:153|349:166,1,51.999997619629,2|0,0:0|0:0,0:0:0:0:
378,259,120779,2,0,P|365:291|337:318,1,51.999997619629,2|0,0:0|0:0,0:0:0:0:
243,297,121317,2,0,P|226:261|219:231,1,51.999997619629,2|2,0:0|0:0,0:0:0:0:
303,236,121934,1,2,0:0:0:0:
