osu file format v14

[General]
AudioFilename: audio.mp3
AudioLeadIn: 0
PreviewTime: 67522
Countdown: 1
SampleSet: Soft
StackLeniency: 0.7
Mode: 0
LetterboxInBreaks: 0
WidescreenStoryboard: 0

[Editor]
DistanceSpacing: 0.8
BeatDivisor: 4
GridSize: 4
TimelineZoom: 1

[Metadata]
Title:Kimi no Kioku
TitleUnicode:キミの記憶
Artist:Roselia
ArtistUnicode:Roselia
Creator:Doormat
Version:Easy
Source:バンドリ! ガールズバンドパーティ!
Tags:BanG Dream! Girls Band Party bandori garupa ガルパ ロゼリア Persona 3 three ペルソナ P3 Meguro Shoji 目黒将司 Kawamura Yumi 川村ゆみ cover ending game size minato yukina 湊友希那 aiba aina 相羽あいな hikawa sayo 氷川紗夜 kudou haruka 工藤晴香 imai lisa 今井リサ endou yurika 遠藤ゆりか nakashima yuki 中島由貴 udagawa ako 宇田川あこ sakuragawa megu 櫻川めぐ shirokane rinko 白金燐子 akesaka satomi 明坂聡美
BeatmapID:1713564
BeatmapSetID:817187

[Difficulty]
HPDrainRate:3
CircleSize:3
OverallDifficulty:3
ApproachRate:3
SliderMultiplier:1.2
SliderTickRate:1

[Events]
//Background and Video events
0,0,"rinrin.jpg",0,0
//Break Periods
//Storyboard Layer 0 (Background)
//Storyboard Layer 1 (Fail)
//Storyboard Layer 2 (Pass)
//Storyboard Layer 3 (Foreground)
//Storyboard Sound Samples

[TimingPoints]
220,526.315789473684,4,2,1,40,1,0
220,-100,4,2,1,40,0,0
8641,-100,4,2,1,60,0,0
17062,-100,4,2,1,70,0,0
33904,-100,4,2,1,70,0,0
50746,-100,4,2,1,60,0,0
67588,-100,4,2,1,80,0,1
84298,-100,4,2,1,80,0,0
84430,-100,4,2,1,80,0,1
101272,-100,4,2,1,70,0,0

[Colours]
Combo1 : 100,110,235
Combo2 : 60,185,220

[HitObjects]
68,348,220,6,0,B|36:236|104:132|104:132|176:140|213:200,1,360,0|0,0:0|0:0,0:0:0:0:
284,264,2325,2,0,P|425:210|316:105,1,360,0|0,0:0|0:0,0:0:0:0:
224,136,4430,6,0,B|128:164|128:164|40:100|40:100|-8:172|12:264,1,360,0|0,0:0|0:0,0:0:0:0:
60,324,6535,2,0,B|172:296|172:296|268:368|268:368|386:329,1,360,0|0,0:0|0:0,0:0:0:0:
432,244,8641,6,0,P|400:192|356:76,1,180,0|0,0:0|0:0,0:0:0:0:
360,44,9693,1,0,0:0:0:0:
172,92,10746,2,0,L|56:84,2,90,0|0|0,0:0|0:0|0:0,0:0:0:0:
200,116,11798,1,0,0:0:0:0:
28,204,12851,6,0,P|-9:282|30:360,1,180,0|0,0:0|0:0,0:0:0:0:
64,376,13904,1,0,0:0:0:0:
232,288,14956,2,0,L|348:296,2,90,0|0|0,0:0|0:0|0:0,0:0:0:0:
204,264,16008,1,0,0:0:0:0:
340,128,17062,6,0,L|324:0,1,120,0|0,0:0|0:0,0:0:0:0:
232,32,18114,2,0,L|217:151,1,120,0|0,0:0|0:0,0:0:0:0:
140,208,19167,2,0,P|88:168|72:96,2,120,0|0|0,0:0|0:0|0:0,0:0:0:0:
228,248,20746,1,0,0:0:0:0:
180,332,21272,6,0,L|36:312,1,120,0|0,0:0|0:0,0:0:0:0:
100,228,22325,2,0,L|218:211,1,120,0|0,0:0|0:0,0:0:0:0:
312,239,23377,2,0,P|331:182|326:123,1,120,0|0,0:0|0:0,0:0:0:0:
296,104,24167,2,0,L|236:98,1,60,0|0,0:0|0:0,0:0:0:0:
256,4,24956,1,0,0:0:0:0:
348,28,25483,6,0,P|406:36|461:13,1,120,0|0,0:0|0:0,0:0:0:0:
484,108,26535,2,0,P|447:154|439:213,1,120,0|0,0:0|0:0,0:0:0:0:
372,280,27588,2,0,P|313:272|266:235,1,120,0|0,0:0|0:0,0:0:0:0:
244,208,28377,1,0,0:0:0:0:
168,268,28904,6,0,L|36:252,1,120,0|0,0:0|0:0,0:0:0:0:
32,160,29956,2,0,P|68:112|81:36,1,120,0|0,0:0|0:0,0:0:0:0:
176,68,31009,2,0,P|190:125|226:173,1,120,0|0,0:0|0:0,0:0:0:0:
260,184,31798,2,0,P|307:148|365:133,1,120,0|0,0:0|0:0,0:0:0:0:
400,148,32588,2,0,P|407:177|406:206,1,60,0|0,0:0|0:0,0:0:0:0:
384,300,33377,1,0,0:0:0:0:
292,276,33904,6,0,P|216:264|168:272,1,120,0|0,0:0|0:0,0:0:0:0:
88,312,34956,1,0,0:0:0:0:
46,226,35482,1,0,0:0:0:0:
131,183,36009,2,0,P|147:126|135:68,2,120,0|0|0,0:0|0:0|0:0,0:0:0:0:
46,226,37588,1,0,0:0:0:0:
3,141,38114,6,0,L|19:22,1,120,0|0,0:0|0:0,0:0:0:0:
116,8,39167,2,0,L|132:126,1,120,0|0,0:0|0:0,0:0:0:0:
208,188,40219,2,0,P|253:149|279:95,1,120,0|0,0:0|0:0,0:0:0:0:
296,64,41009,2,0,P|321:117|366:156,1,120,0|0,0:0|0:0,0:0:0:0:
400,172,41798,1,0,0:0:0:0:
392,268,42325,6,0,L|264:296,1,120,0|0,0:0|0:0,0:0:0:0:
192,340,43377,1,0,0:0:0:0:
121,276,43904,1,0,0:0:0:0:
203,229,44430,2,0,L|320:254,1,120,0|0,0:0|0:0,0:0:0:0:
348,280,45219,1,0,0:0:0:0:
420,212,45746,6,0,L|424:140,1,60,0|0,0:0|0:0,0:0:0:0:
440,120,46272,2,0,P|380:125|328:97,1,120,0|0,0:0|0:0,0:0:0:0:
300,76,47062,1,0,0:0:0:0:
296,72,47325,2,0,P|232:68|172:108,1,120,0|0,0:0|0:0,0:0:0:0:
160,120,48114,1,0,0:0:0:0:
164,124,48377,2,0,P|191:176|186:235,1,120,0|0,0:0|0:0,0:0:0:0:
160,260,49167,1,0,0:0:0:0:
216,340,49693,1,0,0:0:0:0:
284,272,50219,1,0,0:0:0:0:
344,345,50746,6,0,P|428:366|497:313,1,180,0|0,0:0|0:0,0:0:0:0:
508,278,51798,1,0,0:0:0:0:
360,156,52851,2,0,L|372:52,2,90,0|0|0,0:0|0:0|0:0,0:0:0:0:
375,187,53904,2,0,P|320:167|263:181,1,120,0|0,0:0|0:0,0:0:0:0:
168,200,54956,6,0,P|95:152|89:65,1,180,0|0,0:0|0:0,0:0:0:0:
104,32,56009,1,0,0:0:0:0:
296,12,57062,2,0,L|396:20,2,90,0|0|0,0:0|0:0|0:0,0:0:0:0:
272,40,58114,2,0,P|276:100|297:157,1,120,0|0,0:0|0:0,0:0:0:0:
376,211,59167,6,0,P|414:189|459:182,2,90,0|0|0,0:0|0:0|0:0,0:0:0:0:
360,244,60219,1,0,0:0:0:0:
192,152,61272,2,0,P|153:129|108:122,2,90,0|0|0,0:0|0:0|0:0,0:0:0:0:
208,184,62324,1,0,0:0:0:0:
132,244,62851,1,0,0:0:0:0:
192,320,63377,6,0,L|304:304,2,90,0|0|0,0:0|0:0|0:0,0:0:0:0:
168,348,64430,2,0,L|32:332,1,120,0|0,0:0|0:0,0:0:0:0:
4,248,65483,1,0,0:0:0:0:
55,167,66010,1,0,0:0:0:0:
150,171,66535,2,0,L|220:180,2,60,0|0|0,0:0|0:0|0:0,0:0:0:0:
108,79,67588,6,0,P|149:37|205:20,1,120,0|0,0:0|0:0,0:0:0:0:
300,32,68641,2,0,P|317:88|359:129,1,120,0|0,0:0|0:0,0:0:0:0:
456,144,69693,1,0,0:0:0:0:
400,224,70219,2,0,L|412:296,1,60,0|0,0:0|0:0,0:0:0:0:
436,308,70746,2,0,P|372:288|304:304,1,120,0|0,0:0|0:0,0:0:0:0:
236,340,71798,5,0,0:0:0:0:
148,300,72325,2,0,P|140:241|159:184,1,120,0|0,0:0|0:0,0:0:0:0:
228,120,73377,1,0,0:0:0:0:
160,52,73904,1,0,0:0:0:0:
240,0,74430,2,0,L|364:12,1,120,0|0,0:0|0:0,0:0:0:0:
428,76,75483,2,0,L|412:144,1,60,0|0,0:0|0:0,0:0:0:0:
388,160,76009,6,0,P|416:216|420:273,2,120,0|0|0,0:0|0:0|0:0,0:0:0:0:
296,136,77588,2,0,L|237:149,1,60,0|0,0:0|0:0,0:0:0:0:
216,180,78114,2,0,P|210:120|182:67,2,120,0|0|0,0:0|0:0|0:0,0:0:0:0:
156,252,79693,2,0,L|97:238,1,60,0|0,0:0|0:0,0:0:0:0:
68,216,80219,6,0,P|28:260|20:326,1,120,0|0,0:0|0:0,0:0:0:0:
32,352,81009,2,0,P|60:361|92:360,1,60,0|0,0:0|0:0,0:0:0:0:
184,336,81798,2,0,P|212:326|242:327,1,60,0|0,0:0|0:0,0:0:0:0:
276,340,82325,1,0,0:0:0:0:
280,344,82588,2,0,P|306:330|326:307,1,60,0|0,0:0|0:0,0:0:0:0:
336,272,83114,2,0,P|296:216|304:152,1,120,0|0,0:0|0:0,0:0:0:0:
316,136,83904,1,0,0:0:0:0:
388,196,84430,6,0,L|506:176,1,120,0|0,0:0|0:0,0:0:0:0:
508,272,85483,2,0,L|390:292,1,120,0|0,0:0|0:0,0:0:0:0:
304,244,86535,1,0,0:0:0:0:
256,329,87061,1,0,0:0:0:0:
171,281,87588,2,0,L|92:296,2,60,0|0|0,0:0|0:0|0:0,0:0:0:0:
219,196,88641,6,0,P|229:137|218:78,1,120,0|0,0:0|0:0,0:0:0:0:
122,82,89693,2,0,P|111:140|122:199,1,120,0|0,0:0|0:0,0:0:0:0:
171,281,90746,1,0,0:0:0:0:
252,228,91272,1,0,0:0:0:0:
316,300,91798,2,0,L|400:288,1,60,0|0,0:0|0:0,0:0:0:0:
400,264,92325,2,0,L|484:252,1,60,0|0,0:0|0:0,0:0:0:0:
484,227,92851,6,0,P|440:186|422:130,1,120,0|0,0:0|0:0,0:0:0:0:
344,72,93904,2,0,P|302:114|246:132,1,120,0|0,0:0|0:0,0:0:0:0:
152,108,94956,1,0,0:0:0:0:
60,76,95483,2,0,P|24:123|16:182,1,120,0|0,0:0|0:0,0:0:0:0:
32,280,96535,2,0,L|41:339,1,60,0|0,0:0|0:0,0:0:0:0:
24,372,97062,6,0,P|78:337|133:335,1,120,0|0,0:0|0:0,0:0:0:0:
168,344,97851,2,0,L|223:367,1,60,0|0,0:0|0:0,0:0:0:0:
316,348,98641,2,0,L|352:300,1,60,0|0,0:0|0:0,0:0:0:0:
376,272,99167,2,0,L|368:208,2,60,0|0|0,0:0|0:0|0:0,0:0:0:0:
472,291,100219,2,0,P|484:232|464:177,1,120,0|0,0:0|0:0,0:0:0:0:
379,128,101272,6,0,P|329:160|270:160,1,120,0|0,0:0|0:0,0:0:0:0:
200,96,102325,1,0,0:0:0:0:
136,167,102851,1,0,0:0:0:0:
207,231,103377,2,0,P|256:198|315:198,1,120,0|0,0:0|0:0,0:0:0:0:
386,264,104430,1,0,0:0:0:0:
450,193,104956,1,0,0:0:0:0:
379,128,105483,6,0,P|360:71|376:14,2,120,0|0|0,0:0|0:0|0:0,0:0:0:0:
457,70,107062,1,0,0:0:0:0:
492,160,107588,2,0,P|510:216|494:273,2,120,0|0|0,0:0|0:0|0:0,0:0:0:0:
414,218,109167,1,0,0:0:0:0:
340,155,109693,5,0,0:0:0:0:
322,250,110219,1,0,0:0:0:0:
304,345,110746,2,0,L|176:356,1,120,0|0,0:0|0:0,0:0:0:0:
96,316,111798,1,0,0:0:0:0:
114,221,112324,1,0,0:0:0:0:
132,126,112851,2,0,L|260:115,1,120,0|0,0:0|0:0,0:0:0:0:
284,132,113641,1,0,0:0:0:0:
288,136,113904,6,0,P|320:86|326:27,1,120,0|0,0:0|0:0,0:0:0:0:
420,56,114956,2,0,P|425:115|458:164,1,120,0|0,0:0|0:0,0:0:0:0:
488,184,115746,1,0,0:0:0:0:
492,188,116009,1,0,0:0:0:0:
448,272,116535,2,0,L|389:260,1,60,0|0,0:0|0:0,0:0:0:0:
360,240,117062,2,0,L|310:273,1,60,0|0,0:0|0:0,0:0:0:0:
275,279,117588,2,0,L|263:337,1,60,0|0,0:0|0:0,0:0:0:0:
236,360,118114,5,0,0:0:0:0:
