osu file format v14

[General]
AudioFilename: audio.mp3
AudioLeadIn: 0
PreviewTime: 67527
Countdown: 0
SampleSet: Normal
StackLeniency: 0.7
Mode: 1
LetterboxInBreaks: 0
WidescreenStoryboard: 0

[Editor]
Bookmarks: 76014,79961,92856,96803
DistanceSpacing: 1.1
BeatDivisor: 16
GridSize: 32
TimelineZoom: 1.6

[Metadata]
Title:Kimi no kioku
TitleUnicode:キミの記憶
Artist:Roselia
ArtistUnicode:Roselia
Creator:ASPIRIN
Version:Love through all eternity
Source:バンドリ! ガールズバンドパーティ!
Tags:BanG Dream! Girls Band Party bandori garupa ガルパ ロゼリア Persona 3 three ペルソナ P3 Meguro Shoji 目黒将司 shizaki kanon 志崎樺音 桜川めぐ cover ending game size minato yukina 湊友希那 aiba aina 相羽あいな hikawa sayo 氷川紗夜 kudou haruka 工藤晴香 imai lisa 今井リサ endou yurika 遠藤ゆりか nakashima yuki 中島由貴 udagawa ako 宇田川あこ sakuragawa megu 櫻川めぐ shirokane rinko 白金燐子 akesaka satomi 明坂聡美 Memories of you
BeatmapID:1756035
BeatmapSetID:838768

[Difficulty]
HPDrainRate:6
CircleSize:2
OverallDifficulty:5
ApproachRate:6
SliderMultiplier:1.4
SliderTickRate:1

[Events]
//Background and Video events
0,0,"bg.jpg",0,65
//Break Periods
2,951,3385
2,5161,7596
//Storyboard Layer 0 (Background)
//Storyboard Layer 1 (Fail)
//Storyboard Layer 2 (Pass)
//Storyboard Layer 3 (Foreground)
//Storyboard Layer 4 (Overlay)
//Storyboard Sound Samples

[TimingPoints]
225,526.315789473684,4,1,0,40,1,0
225,-100,4,1,0,40,0,0
8646,-100,4,1,0,50,0,0
17067,-100,4,1,0,50,0,0
50751,-100,4,1,0,40,0,0
67593,-100,4,1,0,60,0,1
83646,-100,4,1,0,60,0,0
84435,-100,4,1,0,60,0,1
101277,-100,4,1,0,60,0,0
116277,-100,4,1,0,66,0,0
116540,-100,4,1,0,71,0,0
116803,-100,4,1,0,77,0,0
117067,-100,4,1,0,83,0,0
117330,-100,4,1,0,89,0,0
117593,-100,4,1,0,94,0,0
117856,-100,4,1,0,100,0,0
118119,-100,4,1,0,50,0,0
119172,-100,4,1,0,50,0,0
119698,-100,4,1,0,44,0,0
120224,555.555555555556,4,1,0,38,1,0
120224,-94.7368421052631,4,1,0,38,0,0
120779,538.116591928251,4,1,0,32,1,8
120779,-97.8070175438597,4,1,0,32,0,0
121317,576.923076923077,4,1,0,27,1,8
121317,-91.2280701754386,4,1,0,27,0,0
121605,659.340659340659,4,1,0,21,1,8
121605,-79.8245614035088,4,1,0,21,0,0
121934,789.473684210526,4,1,0,15,1,8
121934,-66.6666666666667,4,1,0,15,0,0
122723,-66.6666666666667,4,1,0,12,0,0
123512,-66.6666666666667,4,1,0,10,0,0
124302,-66.6666666666667,4,1,0,8,0,0
125091,-66.6666666666667,4,1,0,5,0,0

[HitObjects]
256,192,225,5,2,0:0:0:0:
256,192,356,1,0,0:0:0:0:
256,192,619,1,0,0:0:0:0:
256,192,751,1,2,0:0:0:0:
256,192,4435,5,2,0:0:0:0:
256,192,4567,1,0,0:0:0:0:
256,192,4830,1,0,0:0:0:0:
256,192,4961,1,2,0:0:0:0:
256,192,8646,5,2,0:0:0:0:
256,192,8777,1,0,0:0:0:0:
256,192,9040,1,0,0:0:0:0:
256,192,9172,1,2,0:0:0:0:
256,192,9435,1,0,0:0:0:0:
256,192,9698,1,2,0:0:0:0:
256,192,10751,1,0,0:0:0:0:
256,192,11146,1,0,0:0:0:0:
256,192,11540,1,0,0:0:0:0:
256,192,11803,1,2,0:0:0:0:
256,192,12330,1,0,0:0:0:0:
256,192,12593,1,2,0:0:0:0:
256,192,12724,1,2,0:0:0:0:
256,192,12856,1,2,0:0:0:0:
256,192,12988,1,0,0:0:0:0:
256,192,13251,1,0,0:0:0:0:
256,192,13382,1,2,0:0:0:0:
256,192,13646,1,0,0:0:0:0:
256,192,13909,1,2,0:0:0:0:
256,192,14961,1,0,0:0:0:0:
256,192,15356,1,0,0:0:0:0:
256,192,15751,1,0,0:0:0:0:
256,192,16014,1,2,0:0:0:0:
256,192,16540,1,2,0:0:0:0:
256,192,17067,1,4,0:0:0:0:
256,192,17593,1,2,0:0:0:0:
256,192,17856,1,2,0:0:0:0:
256,192,17988,1,0,0:0:0:0:
256,192,18119,1,0,0:0:0:0:
256,192,18646,1,0,0:0:0:0:
256,192,18909,1,2,0:0:0:0:
256,192,19172,1,0,0:0:0:0:
256,192,19435,1,2,0:0:0:0:
256,192,19567,1,0,0:0:0:0:
256,192,19698,1,2,0:0:0:0:
256,192,19961,1,0,0:0:0:0:
256,192,20488,1,2,0:0:0:0:
256,192,20882,1,0,0:0:0:0:
256,192,21277,1,0,0:0:0:0:
256,192,21672,1,0,0:0:0:0:
256,192,21803,1,2,0:0:0:0:
256,192,22067,1,2,0:0:0:0:
256,192,22330,1,0,0:0:0:0:
256,192,22593,1,0,0:0:0:0:
256,192,22724,1,0,0:0:0:0:
256,192,22856,1,2,0:0:0:0:
256,192,23119,1,2,0:0:0:0:
256,192,23251,1,0,0:0:0:0:
256,192,23382,1,2,0:0:0:0:
256,192,23646,1,0,0:0:0:0:
256,192,23909,1,2,0:0:0:0:
256,192,24435,1,0,0:0:0:0:
256,192,24698,1,0,0:0:0:0:
256,192,24961,1,2,0:0:0:0:
256,192,25093,1,2,0:0:0:0:
256,192,25356,1,0,0:0:0:0:
256,192,25488,1,2,0:0:0:0:
256,192,26014,1,2,0:0:0:0:
256,192,26146,1,0,0:0:0:0:
256,192,26277,1,0,0:0:0:0:
256,192,26540,1,2,0:0:0:0:
256,192,27067,1,0,0:0:0:0:
256,192,27330,1,0,0:0:0:0:
256,192,27593,1,2,0:0:0:0:
256,192,27856,1,0,0:0:0:0:
256,192,27988,1,2,0:0:0:0:
256,192,28119,1,2,0:0:0:0:
256,192,28382,1,0,0:0:0:0:
256,192,28909,1,2,0:0:0:0:
256,192,29435,1,2,0:0:0:0:
256,192,29961,1,0,0:0:0:0:
256,192,30488,1,2,0:0:0:0:
256,192,31014,1,0,0:0:0:0:
256,192,31277,1,2,0:0:0:0:
256,192,31540,1,0,0:0:0:0:
256,192,31672,1,2,0:0:0:0:
256,192,31803,1,0,0:0:0:0:
256,192,31935,1,2,0:0:0:0:
256,192,32067,1,0,0:0:0:0:
256,192,32330,1,2,0:0:0:0:
256,192,32461,1,0,0:0:0:0:
256,192,32724,1,0,0:0:0:0:
256,192,32856,1,2,0:0:0:0:
256,192,33382,1,2,0:0:0:0:
256,192,33514,1,0,0:0:0:0:
256,192,33909,1,4,0:0:0:0:
256,192,34435,1,2,0:0:0:0:
256,192,34830,1,2,0:0:0:0:
256,192,35488,1,2,0:0:0:0:
256,192,35619,1,0,0:0:0:0:
256,192,36014,1,0,0:0:0:0:
256,192,36540,1,2,0:0:0:0:
256,192,36935,1,0,0:0:0:0:
256,192,37593,1,2,0:0:0:0:
256,192,37856,1,2,0:0:0:0:
256,192,37988,1,0,0:0:0:0:
256,192,38119,1,0,0:0:0:0:
256,192,38251,1,2,0:0:0:0:
256,192,38382,1,2,0:0:0:0:
256,192,38646,1,2,0:0:0:0:
256,192,38909,1,0,0:0:0:0:
256,192,39040,1,0,0:0:0:0:
256,192,39172,1,0,0:0:0:0:
256,192,39303,1,0,0:0:0:0:
256,192,39435,1,2,0:0:0:0:
256,192,39567,1,0,0:0:0:0:
256,192,39698,1,2,0:0:0:0:
256,192,39961,1,0,0:0:0:0:
256,192,40093,1,2,0:0:0:0:
256,192,40224,1,0,0:0:0:0:
256,192,40356,1,2,0:0:0:0:
256,192,40619,1,0,0:0:0:0:
256,192,40751,1,2,0:0:0:0:
256,192,41014,1,2,0:0:0:0:
256,192,41277,1,0,0:0:0:0:
256,192,41409,1,0,0:0:0:0:
256,192,41672,1,2,0:0:0:0:
256,192,41803,1,2,0:0:0:0:
256,192,42067,1,2,0:0:0:0:
256,192,42330,1,4,0:0:0:0:
256,192,42856,1,2,0:0:0:0:
256,192,43119,1,2,0:0:0:0:
256,192,43382,1,0,0:0:0:0:
256,192,43909,1,0,0:0:0:0:
256,192,44040,1,2,0:0:0:0:
256,192,44435,1,0,0:0:0:0:
256,192,44961,1,2,0:0:0:0:
256,192,45356,1,0,0:0:0:0:
256,192,45751,1,2,0:0:0:0:
256,192,46277,1,0,0:0:0:0:
256,192,46803,1,2,0:0:0:0:
256,192,47330,1,2,0:0:0:0:
256,192,47856,1,0,0:0:0:0:
256,192,48119,1,2,0:0:0:0:
256,192,48382,1,0,0:0:0:0:
256,192,48514,1,0,0:0:0:0:
256,192,48646,1,2,0:0:0:0:
256,192,49172,1,6,0:0:0:0:
256,192,49435,1,0,0:0:0:0:
256,192,49567,1,2,0:0:0:0:
256,192,49698,1,0,0:0:0:0:
256,192,49961,1,2,0:0:0:0:
256,192,50093,1,2,0:0:0:0:
256,192,50224,1,0,0:0:0:0:
256,192,50356,1,0,0:0:0:0:
256,192,50488,1,2,0:0:0:0:
256,192,50619,1,2,0:0:0:0:
256,192,50751,1,4,0:0:0:0:
256,192,51540,1,0,0:0:0:0:
256,192,51803,1,4,0:0:0:0:
256,192,52856,1,0,0:0:0:0:
256,192,53251,1,0,0:0:0:0:
256,192,53646,1,0,0:0:0:0:
256,192,53909,1,4,0:0:0:0:
256,192,54435,1,0,0:0:0:0:
256,192,54961,1,2,0:0:0:0:
256,192,55356,1,0,0:0:0:0:
256,192,55751,1,0,0:0:0:0:
256,192,56014,1,4,0:0:0:0:
256,192,57067,1,0,0:0:0:0:
256,192,57461,1,0,0:0:0:0:
256,192,57856,1,0,0:0:0:0:
256,192,58119,1,4,0:0:0:0:
256,192,58382,1,2,0:0:0:0:
256,192,58514,1,2,0:0:0:0:
256,192,58646,1,0,0:0:0:0:
256,192,58777,1,2,0:0:0:0:
256,192,58909,1,0,0:0:0:0:
256,192,59040,1,0,0:0:0:0:
256,192,59172,1,2,0:0:0:0:
256,192,59567,1,0,0:0:0:0:
256,192,59961,1,0,0:0:0:0:
256,192,60224,1,4,0:0:0:0:
256,192,61277,1,0,0:0:0:0:
256,192,61672,1,0,0:0:0:0:
256,192,62067,1,0,0:0:0:0:
256,192,62330,1,4,0:0:0:0:
256,192,62856,1,0,0:0:0:0:
256,192,63119,1,0,0:0:0:0:
256,192,63382,1,2,0:0:0:0:
256,192,63777,1,0,0:0:0:0:
256,192,64172,1,0,0:0:0:0:
256,192,64435,1,4,0:0:0:0:
256,192,64698,1,0,0:0:0:0:
256,192,64830,1,2,0:0:0:0:
256,192,64961,1,2,0:0:0:0:
256,192,65093,1,0,0:0:0:0:
256,192,65224,1,2,0:0:0:0:
256,192,65356,1,2,0:0:0:0:
256,192,65488,1,4,0:0:0:0:
256,192,65751,1,4,0:0:0:0:
256,192,66014,1,4,0:0:0:0:
256,192,66277,1,4,0:0:0:0:
256,192,66540,1,6,0:0:0:0:
256,192,66803,1,0,0:0:0:0:
256,192,66935,1,0,0:0:0:0:
256,192,67067,1,2,0:0:0:0:
256,192,67198,1,0,0:0:0:0:
256,192,67593,1,0,0:0:0:0:
256,192,67724,1,2,0:0:0:0:
256,192,67988,1,2,0:0:0:0:
256,192,68119,1,0,0:0:0:0:
256,192,68382,1,2,0:0:0:0:
256,192,68514,1,2,0:0:0:0:
256,192,68777,1,0,0:0:0:0:
256,192,68909,1,2,0:0:0:0:
256,192,69172,1,0,0:0:0:0:
256,192,69303,1,0,0:0:0:0:
256,192,69435,1,2,0:0:0:0:
256,192,69567,1,0,0:0:0:0:
256,192,69698,1,2,0:0:0:0:
256,192,69961,1,0,0:0:0:0:
256,192,70093,1,2,0:0:0:0:
256,192,70224,1,2,0:0:0:0:
256,192,70356,1,0,0:0:0:0:
256,192,70488,1,2,0:0:0:0:
256,192,70751,1,0,0:0:0:0:
256,192,70882,1,2,0:0:0:0:
256,192,71146,1,2,0:0:0:0:
256,192,71277,1,0,0:0:0:0:
256,192,71540,1,0,0:0:0:0:
256,192,71803,1,2,0:0:0:0:
256,192,71935,1,2,0:0:0:0:
256,192,72067,1,0,0:0:0:0:
256,192,72198,1,0,0:0:0:0:
256,192,72330,1,2,0:0:0:0:
256,192,72593,1,0,0:0:0:0:
256,192,72724,1,2,0:0:0:0:
256,192,72988,1,2,0:0:0:0:
256,192,73119,1,0,0:0:0:0:
256,192,73382,1,2,0:0:0:0:
256,192,73514,1,2,0:0:0:0:
256,192,73777,1,0,0:0:0:0:
256,192,73909,1,2,0:0:0:0:
256,192,74172,1,2,0:0:0:0:
256,192,74303,1,0,0:0:0:0:
256,192,74435,1,2,0:0:0:0:
256,192,74567,1,0,0:0:0:0:
256,192,74698,1,2,0:0:0:0:
256,192,74961,1,0,0:0:0:0:
256,192,75093,1,2,0:0:0:0:
256,192,75224,1,0,0:0:0:0:
256,192,75356,1,0,0:0:0:0:
256,192,75488,1,2,0:0:0:0:
256,192,75751,1,0,0:0:0:0:
256,192,75882,1,0,0:0:0:0:
256,192,76014,1,2,0:0:0:0:
256,192,76102,1,0,0:0:0:0:
256,192,76190,1,2,0:0:0:0:
256,192,76277,1,2,0:0:0:0:
256,192,76409,1,0,0:0:0:0:
256,192,76540,1,2,0:0:0:0:
256,192,77067,1,0,0:0:0:0:
256,192,77593,1,0,0:0:0:0:
256,192,77724,1,0,0:0:0:0:
256,192,77856,1,2,0:0:0:0:
256,192,77988,1,2,0:0:0:0:
256,192,78119,1,0,0:0:0:0:
256,192,78646,1,2,0:0:0:0:
256,192,78909,1,0,0:0:0:0:
256,192,79172,1,2,0:0:0:0:
256,192,79435,1,0,0:0:0:0:
256,192,79698,1,2,0:1:0:0:
256,192,79830,1,0,0:0:0:0:
256,192,79961,1,2,0:0:0:0:
256,192,80049,1,2,0:0:0:0:
256,192,80137,1,2,0:0:0:0:
256,192,80224,1,0,0:0:0:0:
256,192,80751,1,2,0:0:0:0:
256,192,81014,1,0,0:0:0:0:
256,192,81277,1,0,0:0:0:0:
256,192,81803,1,0,0:0:0:0:
256,192,82067,1,6,0:0:0:0:
256,192,82330,1,0,0:0:0:0:
256,192,82593,1,6,0:0:0:0:
256,192,82856,1,6,0:0:0:0:
256,192,83119,1,0,0:0:0:0:
256,192,83251,1,2,0:0:0:0:
256,192,83382,1,0,0:0:0:0:
256,192,83646,1,2,0:0:0:0:
256,192,83777,1,2,0:0:0:0:
256,192,83909,1,0,0:0:0:0:
256,192,84040,1,0,0:0:0:0:
256,192,84172,1,2,0:0:0:0:
256,192,84303,1,2,0:0:0:0:
256,192,84435,1,2,0:0:0:0:
256,192,84567,1,0,0:0:0:0:
256,192,84830,1,0,0:0:0:0:
256,192,84961,1,2,0:0:0:0:
256,192,85224,1,2,0:0:0:0:
256,192,85356,1,2,0:0:0:0:
256,192,85619,1,0,0:0:0:0:
256,192,85751,1,0,0:0:0:0:
256,192,86014,1,2,0:0:0:0:
256,192,86146,1,0,0:0:0:0:
256,192,86277,1,0,0:0:0:0:
256,192,86409,1,2,0:0:0:0:
256,192,86540,1,0,0:0:0:0:
256,192,86803,1,2,0:0:0:0:
256,192,86935,1,0,0:0:0:0:
256,192,87198,1,0,0:0:0:0:
256,192,87330,1,2,0:0:0:0:
256,192,87593,1,0,0:0:0:0:
256,192,87724,1,2,0:0:0:0:
256,192,87856,1,0,0:0:0:0:
256,192,87988,1,0,0:0:0:0:
256,192,88119,1,2,0:0:0:0:
256,192,88382,1,0,0:0:0:0:
256,192,88646,1,0,0:0:0:0:
256,192,88777,1,2,0:0:0:0:
256,192,89040,1,2,0:0:0:0:
256,192,89172,1,2,0:0:0:0:
256,192,89435,1,2,0:0:0:0:
256,192,89567,1,0,0:0:0:0:
256,192,89698,1,0,0:0:0:0:
256,192,89830,1,2,0:0:0:0:
256,192,89961,1,2,0:0:0:0:
256,192,90224,1,0,0:0:0:0:
256,192,90356,1,0,0:0:0:0:
256,192,90619,1,2,0:0:0:0:
256,192,90751,1,2,0:0:0:0:
256,192,91014,1,0,0:0:0:0:
256,192,91146,1,0,0:0:0:0:
256,192,91277,1,2,0:0:0:0:
256,192,91409,1,2,0:0:0:0:
256,192,91540,1,0,0:0:0:0:
256,192,91803,1,0,0:0:0:0:
256,192,91935,1,0,0:0:0:0:
256,192,92067,1,2,0:0:0:0:
256,192,92198,1,0,0:0:0:0:
256,192,92330,1,2,0:0:0:0:
256,192,92461,1,2,0:0:0:0:
256,192,92593,1,0,0:0:0:0:
256,192,92856,1,0,0:0:0:0:
256,192,92944,1,0,0:0:0:0:
256,192,93032,1,2,0:0:0:0:
256,192,93119,1,2,0:0:0:0:
256,192,93251,1,0,0:0:0:0:
256,192,93382,1,2,0:0:0:0:
256,192,93909,1,0,0:0:0:0:
256,192,94172,1,0,0:0:0:0:
256,192,94303,1,0,0:0:0:0:
256,192,94435,1,2,0:0:0:0:
256,192,94567,1,2,0:0:0:0:
256,192,94830,1,2,0:0:0:0:
256,192,94961,1,0,0:0:0:0:
256,192,95488,1,2,0:0:0:0:
256,192,95751,1,0,0:0:0:0:
256,192,96014,1,0,0:0:0:0:
256,192,96277,1,0,0:0:0:0:
256,192,96540,1,2,0:0:0:0:
256,192,96672,1,0,0:0:0:0:
256,192,96803,1,0,0:0:0:0:
256,192,96891,1,2,0:0:0:0:
256,192,96979,1,2,0:1:0:0:
256,192,97067,1,0,0:0:0:0:
256,192,97593,1,2,0:0:0:0:
256,192,97856,1,0,0:0:0:0:
256,192,98119,1,0,0:0:0:0:
256,192,98646,1,0,0:0:0:0:
256,192,98909,1,6,0:0:0:0:
256,192,99172,1,0,0:0:0:0:
256,192,99435,1,6,0:0:0:0:
256,192,99698,1,6,0:0:0:0:
256,192,99961,1,0,0:0:0:0:
256,192,100093,1,0,0:0:0:0:
256,192,100224,1,2,0:0:0:0:
256,192,100488,1,2,0:0:0:0:
256,192,100619,1,2,0:0:0:0:
256,192,100751,1,0,0:0:0:0:
256,192,100882,1,0,0:0:0:0:
256,192,101014,1,2,0:0:0:0:
256,192,101146,1,0,0:0:0:0:
256,192,101277,1,2,0:0:0:0:
256,192,101408,1,0,0:0:0:0:
256,192,101671,1,0,0:0:0:0:
256,192,101803,1,2,0:0:0:0:
256,192,102330,1,0,0:0:0:0:
256,192,102856,1,2,0:0:0:0:
256,192,103119,1,2,0:0:0:0:
256,192,103382,1,0,0:0:0:0:
256,192,103909,1,2,0:0:0:0:
256,192,104435,1,0,0:0:0:0:
256,192,104961,1,2,0:0:0:0:
256,192,105224,1,2,0:0:0:0:
256,192,105488,1,2,0:0:0:0:
256,192,105619,1,0,0:0:0:0:
256,192,105882,1,0,0:0:0:0:
256,192,106014,1,2,0:0:0:0:
256,192,106540,1,0,0:0:0:0:
256,192,107067,1,2,0:0:0:0:
256,192,107330,1,0,0:0:0:0:
256,192,107593,1,0,0:0:0:0:
256,192,108119,1,2,0:0:0:0:
256,192,108646,1,0,0:0:0:0:
256,192,109040,1,0,0:0:0:0:
256,192,109172,1,2,0:0:0:0:
256,192,109698,1,2,0:0:0:0:
256,192,109829,1,0,0:0:0:0:
256,192,110092,1,0,0:0:0:0:
256,192,110224,1,2,0:0:0:0:
256,192,110751,1,0,0:0:0:0:
256,192,111277,1,2,0:0:0:0:
256,192,111540,1,2,0:0:0:0:
256,192,111803,1,0,0:0:0:0:
256,192,112330,1,2,0:0:0:0:
256,192,112856,1,0,0:0:0:0:
256,192,113382,1,2,0:0:0:0:
256,192,113646,1,0,0:0:0:0:
256,192,113777,1,2,0:0:0:0:
256,192,113909,1,2,0:0:0:0:
256,192,114040,1,0,0:0:0:0:
256,192,114303,1,0,0:0:0:0:
256,192,114435,1,2,0:0:0:0:
256,192,114961,1,0,0:0:0:0:
256,192,115488,1,2,0:0:0:0:
256,192,115751,1,6,0:0:0:0:
256,192,116014,1,0,0:0:0:0:
256,192,116277,1,0,0:0:0:0:
256,192,116540,1,0,0:0:0:0:
256,192,116803,1,0,0:0:0:0:
256,192,117067,1,2,0:0:0:0:
256,192,117330,1,2,0:0:0:0:
256,192,117593,1,2,0:0:0:0:
256,192,117856,1,2,0:0:0:0:
256,192,118119,1,0,0:0:0:0:
256,192,118250,1,2,0:0:0:0:
256,192,118513,1,2,0:0:0:0:
256,192,118645,1,0,0:0:0:0:
256,192,119172,1,0,0:0:0:0:
256,192,119698,1,2,0:0:0:0:
256,192,120224,1,0,0:0:0:0:
256,192,120779,1,0,0:0:0:0:
256,192,121317,1,2,0:0:0:0:
256,192,121605,1,0,0:0:0:0:
256,192,121934,1,2,0:0:0:0:
256,192,122131,12,0,125881,0:0:0:0:
