osu file format v14

[General]
AudioFilename: audio.mp3
AudioLeadIn: 0
PreviewTime: 73790
Countdown: 0
SampleSet: Soft
StackLeniency: 0.7
Mode: 0
LetterboxInBreaks: 0
WidescreenStoryboard: 1

[Editor]
DistanceSpacing: 1
BeatDivisor: 4
GridSize: 4
TimelineZoom: 1

[Metadata]
Title:Hidamari Rhodonite
TitleUnicode:陽だまりロードナイト
Artist:Roselia
ArtistUnicode:Roselia
Creator:Maboyu
Version:Normal
Source:BanG Dream!
Tags:
BeatmapID:1621713
BeatmapSetID:771387

[Difficulty]
HPDrainRate:4
CircleSize:3
OverallDifficulty:4
ApproachRate:4
SliderMultiplier:1
SliderTickRate:1

[Events]
//Background and Video events
0,0,"bg.jpg",0,0
//Break Periods
//Storyboard Layer 0 (Background)
//Storyboard Layer 1 (Fail)
//Storyboard Layer 2 (Pass)
//Storyboard Layer 3 (Foreground)
//Storyboard Layer 4 (Overlay)
//Storyboard Sound Samples

[TimingPoints]
2881,419.58041958042,4,2,2,70,1,0
3300,419.58041958042,4,2,2,70,1,0
33510,-100,4,2,2,50,0,0
46307,-100,4,2,2,60,0,0
71898,-100,4,2,2,60,0,0
73160,-100,4,2,2,60,0,0
73789,-100,4,2,2,80,0,1
85957,-100,4,2,2,80,0,0
87216,-100,4,2,2,80,0,1
100642,-100,4,2,2,65,0,0

[Colours]
Combo1 : 221,0,111
Combo2 : 155,0,155
Combo3 : 121,0,242
Combo4 : 255,102,255

[HitObjects]
256,192,2881,5,4,0:1:0:0:
316,272,3300,2,0,P|376:300|400:304,2,75,4|4|4,0:0|0:0|0:0,0:0:0:0:
180,332,4558,1,0,0:0:0:0:
104,264,4978,2,0,P|72:200|80:152,1,100,0|0,0:0|0:0,0:0:0:0:
104,136,5607,2,0,P|168:112|248:132,1,150,0|0,0:0|0:0,0:0:0:0:
256,228,6656,6,0,P|312:264|340:264,2,75,4|4|4,0:0|0:0|0:0,0:0:0:0:
388,156,7915,1,0,0:0:0:0:
452,232,8334,2,0,B|460:300|440:348,1,100,0|0,0:0|0:0,0:0:0:0:
396,339,8964,2,0,B|359:326|341:341|341:341|298:329|298:329|272:343|237:341,1,150,0|2,0:0|0:3,0:0:0:0:
184,268,10013,6,0,P|148:260|96:268,2,75,4|4|4,0:0|0:0|0:0,0:0:0:0:
316,196,11272,1,0,0:0:0:0:
249,121,11691,2,0,B|193:121|193:121|141:89,1,100,0|0,0:0|0:0,0:0:0:0:
136,52,12320,2,0,B|112:168|112:168|124:216,1,150,0|0,0:0|0:0,0:0:0:0:
208,244,13369,6,0,L|288:240,2,75,4|4|4,0:0|0:0|0:0,0:0:0:0:
64,284,14628,1,0,0:0:0:0:
116,200,15048,2,0,L|72:164,2,50,2|8|8,0:0|0:0|0:0,0:0:0:0:
208,164,15887,2,0,P|256:164|308:144,1,100,8|4,0:0|0:0,0:0:0:0:
391,96,16726,6,0,P|402:167|388:200,1,100,2|8,0:0|0:0,0:0:0:0:
305,240,17565,2,0,L|351:283,2,50,2|2|8,0:0|0:0|0:0,0:0:0:0:
205,228,18404,2,0,P|193:168|217:118,1,100,2|8,0:0|0:0,0:0:0:0:
281,67,19244,2,0,L|333:54,2,50,2|2|8,0:0|0:0|0:0,0:0:0:0:
181,54,20083,6,0,L|71:38,1,100,2|8,0:0|0:0,0:0:0:0:
91,139,20922,2,0,L|145:132,2,50,2|2|8,0:0|0:0|0:0,0:0:0:0:
64,181,21551,2,0,P|53:247|74:297,2,100,2|2|2,0:3|0:3|0:3,0:0:0:0:
150,230,22810,6,0,P|248:232|312:220,1,150,2|2,0:0|0:0,0:0:0:0:
372,292,23859,1,8,0:0:0:0:
460,244,24279,2,0,L|500:276,2,50,2|2|8,0:0|0:0|0:0,0:0:0:0:
424,152,25118,2,0,P|396:96|412:48,1,100,2|8,0:0|0:0,0:0:0:0:
308,48,25957,2,0,L|240:56,2,50,2|2|8,0:0|0:0|0:0,0:0:0:0:
272,140,26796,6,0,B|228:146|228:146|203:140|203:140|160:149,1,100,2|8,0:0|0:0,0:0:0:0:
112,68,27635,2,0,L|160:56,2,50,2|2|8,0:0|0:0|0:0,0:0:0:0:
68,96,28265,2,0,P|64:192|76:208,2,100,2|2|2,0:3|0:3|0:3,0:0:0:0:
153,147,29523,6,0,P|169:193|157:241,1,100,8|0,0:0|0:0,0:0:0:0:
169,290,30153,2,0,P|219:310|252:310,2,75,4|0|4,0:0|0:0|0:0,0:0:0:0:
256,168,31411,1,2,0:3:0:0:
401,305,32251,2,0,L|426:252,1,50,2|8,0:3|0:0,0:0:0:0:
330,219,32880,2,0,L|355:166,2,50,2|2|2,0:0|0:0|0:0,0:0:0:0:
308,264,33509,6,0,P|245:250|193:264,1,100,4|0,0:0|0:0,0:0:0:0:
156,276,34139,2,0,P|96:224|100:144,1,150,0|0,0:0|0:0,0:0:0:0:
128,64,35188,2,0,B|184:20|240:88|328:52,1,200,2|0,0:3|0:0,0:0:0:0:
436,152,36656,1,0,0:0:0:0:
436,152,36866,6,0,P|428:216|432:256,1,100,2|0,0:3|0:0,0:0:0:0:
452,296,37495,2,0,P|396:284|292:316,1,150,0|0,0:0|0:0,0:0:0:0:
220,308,38544,2,0,P|184:252|216:160,1,150,2|0,0:3|0:0,0:0:0:0:
244,148,39383,2,0,L|312:144,1,50,0|0,0:0|0:0,0:0:0:0:
364,220,40013,1,0,0:0:0:0:
364,220,40223,6,0,P|392:164|364:76,1,150,2|0,0:3|0:0,0:0:0:0:
276,56,41272,2,0,B|212:56|212:56|176:32,1,100,0|0,0:0|0:0,0:0:0:0:
132,40,41901,2,0,B|120:112|120:112|136:160|136:160|132:252,1,200,2|0,0:3|0:0,0:0:0:0:
252,328,43369,1,0,0:0:0:0:
252,328,43579,6,0,P|320:308|412:312,1,150,2|0,0:3|0:0,0:0:0:0:
460,232,44628,2,0,P|464:152|472:124,1,100,0|0,0:0|0:0,0:0:0:0:
464,84,45258,2,0,B|436:48|364:48|364:48|316:88|268:72,1,200,2|0,0:3|0:0,0:0:0:0:
236,96,46306,6,0,P|232:120|233:145,1,50,2|8,0:0|0:0,0:0:0:0:
244,244,46936,2,0,P|172:232|128:252,1,100,2|8,0:0|0:0,0:0:0:0:
94,324,47775,2,0,P|59:289|46:234,1,100,2|2,0:0|0:0,0:0:0:0:
52,191,48404,1,8,0:0:0:0:
52,191,48614,2,0,B|67:164|109:154|109:154|135:136|119:70,1,150,2|0,0:0|0:0,0:0:0:0:
148,37,49453,2,0,P|221:33|271:38,1,100,2|8,0:0|0:0,0:0:0:0:
336,82,50293,6,0,P|326:123|361:167,1,100,2|8,0:0|0:0,0:0:0:0:
391,204,50922,1,0,0:0:0:0:
391,204,51132,2,0,P|396:268|384:300,1,100,2|2,0:0|0:0,0:0:0:0:
345,333,51761,1,8,0:0:0:0:
296,319,51971,2,0,P|223:306|188:314,2,100,2|8|2,0:0|0:0|0:0,0:0:0:0:
310,219,53230,6,0,P|261:187|242:132,1,100,8|2,0:0|0:0,0:0:0:0:
315,80,54069,2,0,L|371:62,2,50,8|0|2,0:0|0:0|0:0,0:0:0:0:
217,58,54908,2,0,L|155:37,1,50,2|8,0:0|0:0,0:0:0:0:
119,39,55327,2,0,P|92:114|92:155,1,100,2|8,0:0|0:0,0:0:0:0:
118,175,55957,1,0,0:0:0:0:
118,175,56167,2,0,P|176:155|215:155,1,100,2|8,0:0|0:0,0:0:0:0:
308,187,57006,6,0,P|359:284|358:289,2,100,2|8|2,0:0|0:0|0:0,0:0:0:0:
276,92,58265,2,0,L|322:73,1,50,2|8,0:0|0:0,0:0:0:0:
369,56,58684,1,2,0:0:0:0:
450,113,59104,2,0,P|465:64|456:14,2,100,8|2|8,0:0|0:0|0:0,0:0:0:0:
399,199,60362,6,0,P|406:238|440:280,2,75,4|0|4,0:0|0:0|0:0,0:0:0:0:
311,76,61621,1,0,0:0:0:0:
257,268,62460,1,0,0:0:0:0:
155,95,63300,1,0,0:0:0:0:
115,186,63719,6,0,L|96:283,2,75,4|0|4,0:0|0:0|0:0,0:0:0:0:
255,131,64978,1,0,0:0:0:0:
379,214,65607,2,0,L|367:330,1,100,8|8,0:0|0:0,0:0:0:0:
271,335,66446,2,0,P|216:315|161:317,1,100,8|8,0:0|0:0,0:0:0:0:
124,308,67076,6,0,B|92:276|56:272|56:272|104:208|88:144,1,200,4|2,0:0|0:0,0:0:0:0:
52,68,68334,1,2,0:0:0:0:
152,52,68754,2,0,L|260:32,1,100,2|2,0:0|0:0,0:0:0:0:
216,128,69593,2,0,L|314:109,1,100,2|2,0:0|0:0,0:0:0:0:
256,192,70432,12,8,71901,0:0:0:0:
256,64,73160,6,0,L|256:136,1,50,8|4,0:0|0:0,0:0:0:0:
356,132,73789,2,0,P|398:177|405:225,1,100,4|8,0:0|0:0,0:0:0:0:
305,219,74628,2,0,L|202:218,1,100,2|8,0:0|0:0,0:0:0:0:
163,245,75258,1,0,0:0:0:0:
116,226,75467,6,0,P|73:158|97:92,1,150,0|0,0:0|0:0,0:0:0:0:
142,86,76306,2,0,B|172:68|172:68|202:73|236:61,1,100,2|8,0:0|0:0,0:0:0:0:
334,77,77146,6,0,P|331:140|336:188,1,100,2|8,0:0|0:0,0:0:0:0:
430,204,77985,2,0,P|433:253|430:303,1,100,2|8,0:0|0:0,0:0:0:0:
339,347,78824,2,0,P|308:295|224:303,1,150,2|0,0:0|0:0,0:0:0:0:
186,330,79663,2,0,P|136:343|89:302,1,100,2|8,0:0|0:0,0:0:0:0:
41,235,80502,6,0,P|55:193|30:135,1,100,2|8,0:0|0:0,0:0:0:0:
110,74,81341,2,0,B|177:66|177:66|215:41,1,100,2|8,0:0|0:0,0:0:0:0:
253,37,81971,1,0,0:0:0:0:
293,66,82180,2,0,P|305:141|242:150,1,150,2|0,0:0|0:0,0:0:0:0:
197,160,83020,2,0,P|175:212|197:263,1,100,2|8,0:0|0:0,0:0:0:0:
287,247,83859,6,0,B|414:219|414:219|401:290,1,200,2|2,0:0|0:0,0:0:0:0:
320,345,85118,1,8,0:0:0:0:
220,348,85537,2,0,L|163:334,1,50,2|2,0:0|0:0,0:3:0:0:
122,323,85957,1,8,0:0:0:0:
190,250,86376,2,0,B|261:268|261:268|305:243,1,100,2|8,0:0|0:0,0:0:0:0:
384,257,87216,6,0,P|426:212|433:164,1,100,4|8,0:0|0:0,0:0:0:0:
333,170,88055,2,0,L|230:171,1,100,2|8,0:0|0:0,0:0:0:0:
190,144,88685,1,0,0:0:0:0:
144,163,88894,2,0,P|101:231|125:297,1,150,2|0,0:0|0:0,0:0:0:0:
170,303,89733,2,0,B|200:321|200:321|230:316|264:328,1,100,2|8,0:0|0:0,0:0:0:0:
362,312,90573,6,0,P|359:249|364:201,1,100,2|8,0:0|0:0,0:0:0:0:
458,185,91412,2,0,P|461:136|458:86,1,100,2|8,0:0|0:0,0:0:0:0:
357,85,92251,2,0,B|320:72|302:87|302:87|259:75|259:75|233:89|198:87,1,150,2|0,0:0|0:0,0:0:0:0:
165,71,93090,2,0,P|115:141|119:161,1,100,2|8,0:0|0:0,0:0:0:0:
134,246,93929,6,0,B|179:266|222:224|222:224|280:216|322:257,1,200,2|2,0:0|0:0,0:0:0:0:
395,314,95188,1,8,0:0:0:0:
427,219,95607,2,0,L|453:159,1,50,2|0,0:0|0:0,0:0:0:0:
441,123,96027,2,0,L|424:67,1,50,8|0,0:0|0:0,0:0:0:0:
397,34,96446,2,0,P|346:48|284:32,1,100,2|8,0:0|0:0,0:0:0:0:
201,58,97286,6,0,L|145:59,1,50,2|0,0:0|0:0,0:0:0:0:
104,40,97705,2,0,P|43:68|42:108,1,100,8|8,0:0|0:0,0:0:0:0:
39,144,98334,2,0,L|36:214,2,50,0|8|4,0:0|0:0|0:0,0:0:0:0:
338,168,100013,2,0,L|338:224,1,50,0|4,0:0|0:1,0:0:0:0:
238,229,100642,6,0,P|178:257|154:261,2,75,4|4|4,0:0|0:0|0:0,0:0:0:0:
340,338,101900,1,0,0:0:0:0:
408,264,102320,2,0,P|440:200|432:152,1,100,0|0,0:0|0:0,0:0:0:0:
408,136,102949,2,0,P|344:112|263:130,1,150,0|0,0:0|0:0,0:0:0:0:
256,228,103999,6,0,P|200:264|172:264,2,75,4|4|4,0:0|0:0|0:0,0:0:0:0:
124,156,105258,1,0,0:0:0:0:
161,63,105677,2,0,B|211:52|211:52|270:83|325:59,1,150,8|8,0:0|0:0,0:0:0:0:
347,93,106516,2,0,L|363:159,2,50,2|8|2,0:0|0:0|0:0,0:0:0:0:
268,156,107355,6,0,L|268:240,2,75,4|4|4,0:0|0:0|0:0,0:0:0:0:
196,84,108404,2,0,L|148:68,1,50,2|8,0:0|0:0,0:0:0:0:
60,116,109034,2,0,P|31:200|72:264,1,150,2|0,0:0|0:0,0:0:0:0:
95,281,109873,2,0,L|155:265,2,50,0|2|8,0:0|0:0|0:0,0:0:0:0:
128,186,110712,6,0,L|200:165,2,75,4|4|4,0:0|0:0|0:0,0:0:0:0:
180,45,111971,1,0,0:0:0:0:
273,80,112390,2,0,B|339:49|339:49|374:61,1,100,2|0,0:3|0:0,0:0:0:0:
412,66,113020,2,0,B|399:109|399:109|408:170,1,100,2|0,0:3|0:0,0:0:0:0:
385,208,113649,2,0,L|274:202,1,100,2|4,0:3|0:0,0:0:0:0:
256,192,114174,12,0,117425,0:0:0:0:
