osu file format v14

[General]
AudioFilename: audio.mp3
AudioLeadIn: 0
PreviewTime: 73790
Countdown: 0
SampleSet: Soft
StackLeniency: 0.7
Mode: 0
LetterboxInBreaks: 0
WidescreenStoryboard: 0

[Editor]
Bookmarks: 48614,53020
DistanceSpacing: 1.2
BeatDivisor: 4
GridSize: 4
TimelineZoom: 1

[Metadata]
Title:Hidamari Rhodonite
TitleUnicode:陽だまりロードナイト
Artist:Roselia
ArtistUnicode:Roselia
Creator:Maboyu
Version:Hard
Source:BanG Dream!
Tags:
BeatmapID:1621714
BeatmapSetID:771387

[Difficulty]
HPDrainRate:6
CircleSize:4
OverallDifficulty:6
ApproachRate:7
SliderMultiplier:1.5
SliderTickRate:1

[Events]
//Background and Video events
0,0,"bg.jpg",0,0
//Break Periods
//Storyboard Layer 0 (Background)
//Storyboard Layer 1 (Fail)
//Storyboard Layer 2 (Pass)
//Storyboard Layer 3 (Foreground)
//Storyboard Layer 4 (Overlay)
//Storyboard Sound Samples

[TimingPoints]
2881,419.58041958042,4,2,2,70,1,0
3300,419.58041958042,4,2,2,70,1,0
33510,-200,4,2,2,50,0,0
46307,-100,4,2,2,60,0,0
71898,-200,4,2,2,60,0,0
73160,-100,4,2,2,60,0,0
73789,-100,4,2,2,80,0,1
85957,-100,4,2,2,80,0,0
87216,-100,4,2,2,80,0,1
100642,-100,4,2,2,65,0,0

[Colours]
Combo1 : 221,0,111
Combo2 : 155,0,155
Combo3 : 121,0,242
Combo4 : 255,102,255

[HitObjects]
256,32,2881,5,4,0:1:0:0:
256,32,3300,2,0,L|256:176,2,112.5,4|4|4,0:0|0:0|0:0,0:0:0:0:
168,288,4559,1,0,0:0:0:0:
344,288,4978,6,0,P|384:236|328:168,1,150
272,116,5608,2,0,P|188:108|112:120,1,150
96,204,6237,1,0,0:0:0:0:
256,352,6657,6,0,L|256:208,2,112.5,4|4|4,0:0|0:0|0:0,0:0:0:0:
344,96,7915,1,0,0:0:0:0:
167,96,8335,6,0,P|127:154|167:212,1,150
256,228,8965,2,0,P|340:220|416:232,1,150,0|2,0:0|0:0,0:0:0:0:
460,300,9594,1,2,0:3:0:0:
256,32,10013,6,0,L|256:176,2,112.5,4|4|4,0:0|0:0|0:0,0:0:0:0:
344,288,11272,1,0,0:0:0:0:
168,288,11691,6,0,P|128:236|184:168,1,150
240,116,12321,2,0,P|324:108|400:120,1,150
428,200,12950,1,0,0:0:0:0:
256,352,13370,6,0,L|256:208,2,112.5,4|4|4,0:0|0:0|0:0,0:0:0:0:
168,96,14629,1,0,0:0:0:0:
256,252,15048,5,2,0:0:0:0:
344,256,15258,2,0,L|364:292,2,37.5,8|8|8,0:0|0:0|0:0,0:0:0:0:
396,184,15678,2,0,L|448:200,2,37.5,8|8|8,0:0|0:0|0:0,0:0:0:0:
412,96,16097,1,2,0:0:0:0:
412,96,16202,1,8,0:0:0:0:
412,96,16307,2,0,P|372:80|280:100,1,112.5,4|0,0:0|0:0,0:0:0:0:
276,124,16727,6,0,P|212:124|184:100,1,75,2|0,0:0|0:0,0:0:0:0:
137,59,17146,2,0,P|82:95|70:116,1,75,8|0,0:0|0:0,0:0:0:0:
61,190,17565,1,2,0:0:0:0:
61,190,17775,1,2,0:0:0:0:
150,195,17985,2,0,B|174:294|174:294|162:343,1,150,8|2,0:0|0:0,0:0:0:0:
252,351,18615,5,0,0:0:0:0:
297,273,18825,2,0,B|346:260|346:260|401:273,1,75,8|0,0:0|0:0,0:0:0:0:
439,322,19244,1,2,0:0:0:0:
439,322,19453,1,2,0:0:0:0:
462,234,19663,2,0,P|451:189|469:137,1,75,8|0,0:0|0:0,0:0:0:0:
443,71,20083,6,0,L|351:59,1,75,2|0,0:0|0:0,0:0:0:0:
347,147,20503,2,0,L|255:163,1,75,8|0,0:0|0:0,0:0:0:0:
216,89,20922,1,2,0:0:0:0:
144,144,21132,2,0,P|152:176|176:211,1,75,2|8,0:0|0:0,0:0:0:0:
118,280,21552,6,0,P|68:200|64:140,2,150,2|2|2,0:3|0:3|0:3,0:0:0:0:
212,294,22601,2,0,P|293:284|299:288,1,75,2|2,0:0|0:0,0:0:0:0:
363,316,23020,2,0,L|411:363,3,37.5,8|0|0|0,0:0|0:0|0:0|0:0,0:0:0:0:
435,342,23440,6,0,P|463:298|463:254,1,75,2|0,0:0|0:0,0:0:0:0:
416,202,23860,2,0,P|392:170|392:130,1,75,8|0,0:0|0:0,0:0:0:0:
471,97,24279,1,2,0:0:0:0:
471,97,24489,1,2,0:0:0:0:
401,40,24699,2,0,B|353:20|307:59|238:27,1,150,8|2,0:0|0:0,0:0:0:0:
163,26,25327,5,0,0:0:0:0:
155,115,25537,2,0,B|124:156|68:151,1,75,8|0,0:0|0:0,0:0:0:0:
21,94,25957,1,2,0:0:0:0:
21,94,26167,1,2,0:0:0:0:
92,151,26377,2,0,P|81:186|102:243,1,75,8|0,0:0|0:0,0:0:0:0:
172,255,26796,6,0,L|254:237,1,75,2|0,0:0|0:0,0:0:0:0:
292,316,27216,2,0,L|373:320,1,75,8|0,0:0|0:0,0:0:0:0:
417,244,27635,1,2,0:0:0:0:
370,166,27845,2,0,B|377:114|377:114|407:90,1,75,2|8,0:0|0:0,0:0:0:0:
487,310,28265,6,0,L|457:164,2,150,2|2|2,0:3|0:3|0:3,0:0:0:0:
403,343,29314,1,2,0:0:0:0:
345,274,29524,1,8,0:0:0:0:
345,274,29629,1,8,0:0:0:0:
345,274,29734,6,0,P|304:263|276:227,1,75
215,159,30153,2,0,L|197:271,2,112.5,4|0|4,0:0|0:0|0:0,0:0:0:0:
256,33,31412,5,2,0:3:0:0:
77,193,32251,2,0,L|90:266,1,75,2|8,0:3|0:0,0:0:0:0:
257,346,32881,1,2,0:0:0:0:
326,288,33090,1,2,0:0:0:0:
242,254,33300,1,2,0:0:0:0:
242,254,33405,1,2,0:0:0:0:
242,254,33510,6,0,P|200:278|180:310,1,75,4|0,0:0|0:0,0:0:0:0:
257,346,34139,2,0,P|340:326|408:347,1,150
421,259,35188,2,0,P|348:245|292:196,1,150,2|0,0:3|0:0,0:0:0:0:
77,51,36657,5,0,0:0:0:0:
58,135,36867,2,0,P|38:196|84:274,1,150,2|0,0:3|0:0,0:0:0:0:
158,246,37915,2,0,P|218:224|239:223,1,75
278,294,38545,2,0,P|333:302|388:295,1,112.5,2|0,0:3|0:0,0:0:0:0:
454,246,39384,2,0,L|447:208,1,37.5
346,68,40013,5,0,0:0:0:0:
309,146,40223,2,0,L|234:156,1,75,2|0,0:3|0:0,0:0:0:0:
158,115,40853,2,0,P|154:188|207:238,1,150
276,287,41901,2,0,L|111:281,1,150,2|0,0:3|0:0,0:0:0:0:
257,58,43370,5,0,0:0:0:0:
314,122,43580,2,0,P|371:119|397:104,1,75,2|0,0:3|0:0,0:0:0:0:
420,32,44209,2,0,L|437:192,1,150
385,251,45258,2,0,P|326:197|253:179,1,150,2|0,0:3|0:0,0:0:0:0:
201,248,46307,1,2,0:0:0:0:
201,248,46412,1,2,0:0:0:0:
201,248,46516,2,0,P|131:265|100:213,1,112.5,8|0,0:0|0:0,0:0:0:0:
105,196,46936,6,0,P|115:144|88:105,1,75,4|0,0:0|0:0,0:0:0:0:
153,47,47356,2,0,P|189:27|250:28,1,75,8|0,0:0|0:0,0:0:0:0:
270,99,47776,2,0,L|285:176,2,75,2|0|2,0:0|0:0|0:0,0:0:0:0:
318,23,48404,1,8,0:0:0:0:
405,45,48614,6,0,L|398:120,1,75,2|0,0:0|0:0,0:0:0:0:
484,93,49034,2,0,L|477:168,1,75,8|0,0:0|0:0,0:0:0:0:
409,279,49454,2,0,L|395:206,1,75
319,155,49874,1,8,0:0:0:0:
311,244,50083,5,0,0:0:0:0:
237,191,50293,2,0,L|224:117,1,75,2|0,0:0|0:0,0:0:0:0:
311,244,50713,2,0,L|283:313,1,75,8|0,0:0|0:0,0:0:0:0:
193,321,51132,1,2,0:0:0:0:
139,248,51342,1,0,0:0:0:0:
193,321,51552,5,2,0:0:0:0:
225,237,51761,2,0,L|211:158,1,75,8|2,0:0|0:0,0:0:0:0:
299,185,52181,2,0,L|284:102,1,75,0|8,0:0|0:0,0:0:0:0:
255,25,52601,2,0,B|212:30|212:30|161:17,1,75,0|2,0:0|0:0,0:0:0:0:
109,76,53020,1,0,0:0:0:0:
122,165,53230,5,8,0:0:0:0:
122,165,53335,1,8,0:0:0:0:
122,165,53440,2,0,P|134:203|161:234,1,75,0|2,0:0|0:0,0:0:0:0:
115,309,53860,1,0,0:0:0:0:
200,339,54069,2,0,P|250:305|266:202,1,150,8|2,0:0|0:0,0:0:0:0:
286,133,54699,1,0,0:0:0:0:
357,186,54908,6,0,P|409:223|421:262,1,75,2|8,0:0|0:0,0:0:0:0:
366,308,55328,2,0,L|194:275,1,150,2|8,0:0|0:0,0:0:0:0:
177,200,55957,1,0,0:0:0:0:
120,270,56167,1,2,0:0:0:0:
78,190,56376,1,0,0:0:0:0:
177,200,56587,6,0,P|205:175|241:165,1,75,8|0,0:0|0:0,0:0:0:0:
325,197,57006,2,0,P|328:141|263:76,1,150,2|8,0:0|0:0,0:0:0:0:
194,22,57636,1,0,0:0:0:0:
125,80,57846,2,0,L|128:162,1,75,2|0,0:0|0:0,0:0:0:0:
53,37,58265,5,2,0:0:0:0:
49,127,58475,2,0,L|53:234,1,75,8|2,0:0|0:0,0:0:0:0:
51,292,58894,1,0,0:0:0:0:
131,252,59104,2,0,B|189:242|238:258|238:258|308:261,2,150,8|2|8,0:0|0:0|0:0,0:0:0:0:
256,30,60363,6,0,L|256:142,2,112.5,4|0|4,0:0|0:0|0:0,0:0:0:0:
256,148,61622,1,0,0:0:0:0:
256,153,62461,1,0,0:0:0:0:
135,296,63300,5,0,0:0:0:0:
377,296,63720,2,0,L|412:187,2,112.5,4|0|4,0:0|0:0|0:0,0:0:0:0:
256,30,64978,1,0,0:0:0:0:
69,93,65608,6,0,P|54:172|40:273,1,150,8|8,0:0|0:0,0:0:0:0:
99,311,66237,1,0,0:0:0:0:
183,277,66447,2,0,P|223:271|257:281,1,75,8|2,0:0|0:0,0:0:0:0:
319,344,66867,5,8,0:0:0:0:
319,344,66971,1,8,0:0:0:0:
319,344,67076,2,0,L|425:327,1,75,4|0,0:0|0:0,0:0:0:0:
474,293,67496,2,0,P|459:258|466:219,1,75,2|0,0:0|0:0,0:0:0:0:
386,176,67915,2,0,P|392:138|370:84,1,75,2|0,0:0|0:0,0:0:0:0:
313,52,68335,6,0,L|463:61,1,150,2|2,0:0|0:0,0:0:0:0:
461,151,68964,1,0,0:0:0:0:
382,103,69174,1,2,0:0:0:0:
315,163,69384,2,0,P|307:198|318:262,2,75,0|2|0,0:0|0:0|0:0,0:0:0:0:
258,93,70013,2,0,P|200:64|173:63,1,75,2|0,0:0|0:0,0:0:0:0:
102,77,70432,5,8,0:0:0:0:
122,165,70643,2,0,L|110:216,3,37.5,8|0|8|0,0:0|0:0|0:0|0:0,0:0:0:0:
115,246,71062,2,0,L|141:302,3,37.5,8|0|8|0,0:0|0:0|0:0|0:0,0:0:0:0:
165,309,71482,2,0,L|200:319,3,37.5,8|0|8|0,0:0|0:0|0:0|0:0,0:0:0:0:
223,321,71901,6,0,P|263:240|352:234,1,187.5,2|0,0:0|0:0,0:0:0:0:
376,322,73160,1,8,0:0:0:0:
376,322,73265,1,8,0:0:0:0:
376,322,73370,2,0,P|422:328|475:304,1,75,4|0,0:0|0:0,0:0:0:0:
352,234,73790,6,0,P|371:161|329:125,1,112.5,4|0,0:0|0:0,0:0:0:0:
308,124,74209,2,0,P|304:82|313:49,1,75,8|0,0:0|0:0,0:0:0:0:
222,44,74628,2,0,B|167:48|167:48|120:29,1,75,2|0,0:0|0:0,0:0:0:0:
58,31,75048,2,0,L|54:131,1,75,8|0,0:0|0:0,0:0:0:0:
87,190,75467,6,0,B|117:165|117:165|207:167,1,112.5,2|0,0:3|0:3,0:3:0:0:
235,173,75887,2,0,L|262:249,1,75,8|0,0:0|0:0,0:0:0:0:
197,309,76307,2,0,L|289:331,1,75,2|0,0:0|0:0,0:0:0:0:
340,269,76727,1,8,0:0:0:0:
340,269,77146,6,0,B|388:273|388:273|402:229|374:152,1,150,2|8,0:0|0:0,0:0:0:0:
311,115,77776,1,0,0:0:0:0:
221,118,77985,2,0,L|243:189,1,75,2|0,0:0|0:0,0:0:0:0:
126,219,78405,6,0,L|107:292,1,75,8|0,0:0|0:0,0:0:0:0:
19,305,78824,2,0,P|128:340|142:391,1,150,2|8,0:0|0:0,0:0:0:0:
265,232,79453,1,0,0:0:0:0:
217,318,79663,2,0,P|187:289|178:254,1,75,2|0,0:0|0:0,0:0:0:0:
266,77,80083,6,0,P|287:109|289:146,1,75,8|0,0:0|0:0,0:0:0:0:
178,257,80503,2,0,P|153:188|178:119,1,150,2|8,0:0|0:0,0:0:0:0:
158,32,81132,2,0,P|124:47|100:76,2,75,0|2|0,0:0|0:0|0:0,0:0:0:0:
248,34,81762,5,8,0:0:0:0:
278,118,81971,1,0,0:0:0:0:
349,63,82181,2,0,B|366:100|400:114|400:114|380:148|399:199,1,150,2|8,0:0|0:0,0:0:0:0:
456,254,82811,1,0,0:0:0:0:
371,284,83020,2,0,P|315:285|280:275,1,75,2|0,0:0|0:0,0:0:0:0:
206,291,83440,5,8,0:0:0:0:
186,203,83650,2,0,P|179:166|180:128,1,75,0|2,0:0|0:0,0:0:0:0:
150,43,84069,1,0,0:0:0:0:
93,112,84279,2,0,P|93:200|116:269,1,150,8|2,0:0|0:0,0:0:0:0:
186,203,84908,1,0,0:0:0:0:
111,258,85118,6,0,P|73:256|36:257,1,75,8|0,0:0|0:0,0:0:0:0:
164,331,85538,2,0,P|201:332|238:331,1,75,2|2,0:0|0:0,0:0:0:0:
320,292,85957,1,8,0:0:0:0:
398,336,86167,1,0,0:0:0:0:
392,246,86377,2,0,L|429:220,3,37.5,2|0|8|0,0:0|0:0|0:0|0:0,0:0:0:0:
451,189,86797,6,0,L|453:146,3,37.5,8|0|2|0,0:0|0:0|0:0|0:0,0:0:0:0:
443,107,87216,2,0,P|353:121|320:101,1,112.5,4|0,0:0|0:0,0:0:0:0:
293,102,87635,2,0,L|296:185,1,75,8|0,0:0|0:0,0:0:0:0:
222,116,88055,2,0,P|216:153|220:207,1,75,2|0,0:0|0:0,0:0:0:0:
293,312,88475,6,0,P|297:275|293:238,1,75,8|0,0:0|0:0,0:0:0:0:
302,148,88894,1,2,0:0:0:0:
370,206,89104,1,0,0:0:0:0:
217,190,89313,1,8,0:0:0:0:
145,134,89523,1,0,0:0:0:0:
131,223,89733,1,2,0:0:0:0:
183,296,89943,1,0,0:0:0:0:
70,304,90153,6,0,P|20:218|48:164,1,150,8|2,0:0|0:0,0:0:0:0:
61,91,90783,1,0,0:0:0:0:
212,119,90992,2,0,L|139:133,2,75,8|0|2,0:0|0:0|0:0,0:0:0:0:
260,41,91622,1,0,0:0:0:0:
312,114,91832,6,0,P|317:159|301:215,1,75,8|0,0:0|0:0,0:0:0:0:
236,237,92251,2,0,P|310:231|384:244,1,150,2|8,0:0|0:0,0:0:0:0:
472,226,92881,1,0,0:0:0:0:
384,244,93090,1,2,0:0:0:0:
453,313,93300,1,2,0:0:0:0:
421,151,93510,6,0,P|344:120|367:71,1,150,8|2,0:0|0:0,0:0:0:0:
438,29,94139,1,0,0:0:0:0:
361,75,94349,2,0,P|299:80|213:68,1,150,8|2,0:0|0:0,0:0:0:0:
134,22,94978,1,0,0:0:0:0:
47,48,95188,6,0,P|50:90|80:149,1,75,8|0,0:0|0:0,0:0:0:0:
151,115,95608,2,0,P|140:161|114:194,1,75,2|0,0:0|0:0,0:0:0:0:
63,250,96027,2,0,B|84:281|150:273|150:273|178:343,1,150,8|2,0:0|0:0,0:0:0:0:
261,323,96657,1,8,0:0:0:0:
261,323,96762,1,8,0:0:0:0:
261,323,96867,6,0,B|236:251|236:251|271:172,1,150,8|2,0:0|0:0,0:0:0:0:
300,100,97496,2,0,L|269:77,2,37.5,0|0|8,0:0|0:0|0:0,0:0:0:0:
384,69,97915,2,0,L|386:32,2,37.5,0|0|8,0:0|0:0|0:0,0:0:0:0:
444,136,98335,2,0,L|507:96,1,75,0|8,0:0|0:0,0:0:0:0:
365,159,98755,1,4,0:0:0:0:
256,352,100223,5,4,0:1:0:0:
256,352,100642,2,0,L|256:208,2,112.5,4|4|4,0:0|0:0|0:0,0:0:0:0:
168,96,101901,1,0,0:0:0:0:
344,96,102321,2,0,P|384:148|328:216,1,150
268,256,102950,2,0,P|200:280|128:252,1,150
48,296,103580,5,2,0:0:0:0:
44,208,103790,1,8,0:0:0:0:
44,208,103894,1,8,0:0:0:0:
44,208,103999,2,0,P|52:156|16:80,2,112.5,4|4|4,0:0|0:0|0:0,0:0:0:0:
256,196,105258,5,0,0:0:0:0:
432,228,105678,2,0,L|451:193,3,37.5,8|8|2|8,0:0|0:0|0:0|0:0,0:0:0:0:
456,152,106097,2,0,L|436:96,3,37.5,8|0|8|0,0:0|0:0|0:0|0:0,0:0:0:0:
400,100,106517,2,0,P|372:124|328:140,2,75,2|8|2,0:0|0:0|0:0,0:0:0:0:
256,32,107356,6,0,L|256:172,2,112.5,4|4|4,0:0|0:0|0:0,0:0:0:0:
344,288,108405,1,2,0:0:0:0:
256,300,108615,6,0,P|180:276|88:308,1,150,8|2,0:0|0:0,0:0:0:0:
15,222,109244,2,0,L|32:256,2,37.5,8|8|2,0:0|0:0|0:0,0:0:0:0:
27,145,109559,2,0,L|12:180,2,37.5,8|0|0,0:0|0:0|0:0,0:0:0:0:
48,104,109874,2,0,P|80:100|120:48,2,75,0|2|8,0:0|0:0|0:0,0:0:0:0:
256,352,110713,6,0,L|256:240,2,112.5,4|4|4,0:0|0:0|0:0,0:0:0:0:
120,91,111971,1,0,0:0:0:0:
392,91,112391,6,0,L|348:244,1,150,2|0,0:3|0:0,0:0:0:0:
310,324,113020,2,0,P|301:242|370:250,1,150,2|0,0:3|0:0,0:0:0:0:
466,241,113650,2,0,P|376:269|349:201,1,150,2|4,0:3|0:0,0:0:0:0:
256,192,114174,12,0,117426,0:0:0:0:
