osu file format v14

[General]
AudioFilename: audio.mp3
AudioLeadIn: 0
PreviewTime: 60857
Countdown: 0
SampleSet: Soft
StackLeniency: 0.7
Mode: 2
LetterboxInBreaks: 0
WidescreenStoryboard: 0

[Editor]
DistanceSpacing: 1
BeatDivisor: 4
GridSize: 16
TimelineZoom: 3.199999

[Metadata]
Title:Hacking to the Gate
TitleUnicode:Hacking to the Gate
Artist:Roselia
ArtistUnicode:Roselia
Creator:Shirokane Rinko
Version:Platter
Source:BanG Dream!
Tags:bandori ガールズバンドパーティ! ガルパ! バンドリ! girls band party! minato yukina 湊友希那 hikawa sayo 氷川紗夜 imai lisa 今井リサ udagawa ako 宇田川あこ Rinko Shirokane 白金憐子 Game ver Xetopia
BeatmapID:1414589
BeatmapSetID:668686

[Difficulty]
HPDrainRate:5
CircleSize:3.5
OverallDifficulty:8
ApproachRate:8
SliderMultiplier:1.4
SliderTickRate:1

[Events]
//Background and Video events
0,0,"bg.jpg",0,0
//Break Periods
//Storyboard Layer 0 (Background)
//Storyboard Layer 1 (Fail)
//Storyboard Layer 2 (Pass)
//Storyboard Layer 3 (Foreground)
//Storyboard Sound Samples

[TimingPoints]
858,372.670807453416,4,2,1,50,1,0
858,-62.5,4,2,1,50,0,0
6820,-62.5,4,2,1,50,0,0
12783,-62.5,4,2,1,45,0,0
36448,-62.5,4,2,1,35,0,0
42410,-62.5,4,2,1,45,0,0
48373,-62.5,4,2,1,35,0,0
54336,-62.5,4,2,1,45,0,0
61976,-62.5,4,2,1,45,0,1
87317,-62.5,4,2,1,35,0,0
94771,-62.5,4,2,1,5,0,0

[Colours]
Combo1 : 255,23,23
Combo2 : 150,8,210
Combo3 : 0,0,0
Combo4 : 40,12,239
Combo5 : 227,121,4

[HitObjects]
149,238,858,6,0,P|180:126|204:117,1,112
273,137,1230,1,0,0:0:0:0:
438,134,1417,2,0,P|377:70|336:59,1,112
236,55,1789,1,0,0:0:0:0:
97,51,1976,2,0,P|55:146|77:162,1,112
417,239,2348,6,0,P|450:166|415:128,1,112
331,142,2721,1,0,0:0:0:0:
195,142,2907,1,0,0:0:0:0:
64,145,3094,1,0,0:0:0:0:
220,144,3280,2,0,P|243:72|286:40,1,112
396,135,3653,1,0,0:0:0:0:
51,147,3839,6,0,L|95:283,1,112
217,250,4212,1,0,0:0:0:0:
377,243,4398,1,0,0:0:0:0:
261,247,4584,1,0,0:0:0:0:
114,253,4771,1,0,0:0:0:0:
261,247,4957,2,0,P|176:182|130:183,1,112
454,260,5330,5,0,0:0:0:0:
316,262,5516,1,0,0:0:0:0:
185,267,5702,1,0,0:0:0:0:
316,262,5889,1,0,0:0:0:0:
454,260,6075,1,0,0:0:0:0:
316,262,6261,1,0,0:0:0:0:
191,269,6448,2,0,P|131:197|72:195,1,112
438,262,6820,5,0,0:0:0:0:
305,268,7007,1,0,0:0:0:0:
185,274,7193,2,0,P|129:240|108:179,2,112
312,269,7752,1,0,0:0:0:0:
442,268,7938,1,0,0:0:0:0:
306,270,8125,1,0,0:0:0:0:
187,273,8311,6,0,P|129:232|98:165,1,112
286,187,8684,1,0,0:0:0:0:
425,186,8870,1,0,0:0:0:0:
268,186,9056,2,0,P|181:160|164:119,1,112
27,132,9429,1,0,0:0:0:0:
177,133,9615,1,0,0:0:0:0:
313,129,9802,6,0,P|427:153|442:170,1,112
269,131,10174,1,0,0:0:0:0:
163,133,10361,1,0,0:0:0:0:
327,130,10547,2,0,P|398:137|439:174,1,112
327,130,10920,2,0,P|233:139|211:165,1,112
31,146,11292,1,0,0:0:0:0:
168,145,11479,5,0,0:0:0:0:
293,147,11665,2,0,P|388:108|396:87,2,112
108,144,12224,1,0,0:0:0:0:
57,171,12317,1,0,0:0:0:0:
36,215,12410,1,0,0:0:0:0:
37,262,12503,1,0,0:0:0:0:
67,295,12597,1,0,0:0:0:0:
377,321,12783,6,0,P|456:260|459:214,1,112
317,248,13156,1,0,0:0:0:0:
200,247,13342,1,0,0:0:0:0:
59,253,13528,2,0,P|93:180|127:144,1,112
255,153,13901,1,0,0:0:0:0:
376,152,14087,1,0,0:0:0:0:
232,150,14274,2,0,P|178:224|185:259,1,112
454,236,14646,1,0,0:0:0:0:
328,237,14833,1,0,0:0:0:0:
204,240,15019,2,0,P|235:166|270:136,1,112
439,139,15392,5,0,0:0:0:0:
317,139,15578,1,0,0:0:0:0:
205,143,15764,2,0,P|134:74|111:72,1,112
227,75,16137,1,0,0:0:0:0:
374,75,16323,1,0,0:0:0:0:
196,74,16510,2,0,P|158:124|158:181,1,112
415,173,16882,1,0,0:0:0:0:
292,176,17069,1,0,0:0:0:0:
150,176,17255,2,0,P|204:83|235:76,1,112
358,83,17628,2,0,P|428:123|443:161,1,112
288,160,18000,5,0,0:0:0:0:
179,161,18187,1,0,0:0:0:0:
40,166,18373,2,0,P|93:63|119:57,1,112
245,166,18746,1,0,0:0:0:0:
356,166,18932,1,0,0:0:0:0:
149,174,19118,2,0,P|186:85|218:63,1,112
351,79,19491,1,0,0:0:0:0:
219,81,19677,1,0,0:0:0:0:
65,86,19864,6,0,P|55:181|89:200,1,112
333,183,20236,1,0,0:0:0:0:
451,182,20423,1,0,0:0:0:0:
258,187,20609,2,0,P|211:120|173:101,1,112
43,190,20982,1,0,0:0:0:0:
177,188,21168,1,0,0:0:0:0:
321,190,21354,2,0,P|342:130|412:110,1,112
121,265,21727,5,0,0:0:0:0:
67,219,21913,1,0,0:0:0:0:
65,146,22100,1,0,0:0:0:0:
120,102,22286,1,0,0:0:0:0:
364,295,22659,1,0,0:0:0:0:
418,248,22845,1,0,0:0:0:0:
360,204,23031,1,0,0:0:0:0:
82,297,23590,1,0,0:0:0:0:
220,293,23777,2,0,P|284:228|256:174,1,112
92,212,24149,2,0,P|70:139|187:14,1,224
371,26,24708,5,0,0:0:0:0:
252,179,24895,1,0,0:0:0:0:
401,176,25081,2,0,P|436:231|402:272,1,112
272,267,25454,1,0,0:0:0:0:
160,272,25640,1,0,0:0:0:0:
36,272,25826,2,0,P|61:188|103:183,1,112
227,182,26199,1,0,0:0:0:0:
366,179,26385,1,0,0:0:0:0:
75,191,26572,1,0,0:0:0:0:
211,192,26758,1,0,0:0:0:0:
75,191,26944,2,0,P|112:299|139:303,1,112
265,298,27317,5,0,0:0:0:0:
375,299,27503,1,0,0:0:0:0:
478,301,27690,2,0,P|499:217|467:196,1,112
373,189,28062,1,0,0:0:0:0:
253,190,28249,1,0,0:0:0:0:
124,194,28435,2,0,P|122:280|165:291,1,112
415,280,28808,1,0,0:0:0:0:
294,285,28994,1,0,0:0:0:0:
179,290,29180,2,0,P|182:191|230:177,1,112
305,192,29553,2,0,P|353:131|331:98,1,112
180,105,29926,5,0,0:0:0:0:
301,103,30112,1,0,0:0:0:0:
460,100,30298,2,0,P|435:215|416:225,1,112
186,198,30671,1,0,0:0:0:0:
66,199,30857,1,0,0:0:0:0:
222,199,31044,2,0,P|247:119|271:100,1,112
429,109,31417,1,0,0:0:0:0:
300,111,31603,1,0,0:0:0:0:
184,114,31789,6,0,P|107:74|52:74,1,112
447,136,32162,1,0,0:0:0:0:
330,139,32348,1,0,0:0:0:0:
171,142,32535,2,0,P|162:222|200:248,1,112
314,236,32907,1,0,0:0:0:0:
180,239,33094,1,0,0:0:0:0:
43,249,33280,6,0,P|49:135|66:120,1,112
227,142,33653,1,0,0:0:0:0:
93,143,33839,1,0,0:0:0:0:
246,141,34025,1,0,0:0:0:0:
423,135,34212,2,0,P|415:227|376:262,1,112
212,252,34584,2,0,P|160:210|175:138,1,112
455,168,34957,2,0,P|428:249|400:276,1,112
250,280,35330,1,0,0:0:0:0:
101,286,35516,1,0,0:0:0:0:
250,280,35702,1,0,0:0:0:0:
425,278,35889,5,0,0:0:0:0:
289,282,36075,1,0,0:0:0:0:
425,278,36261,1,0,0:0:0:0:
125,288,36448,2,0,P|128:187|170:147,1,112
264,182,36820,1,0,0:0:0:0:
403,179,37007,2,0,P|383:289|351:316,1,112
234,295,37379,1,0,0:0:0:0:
169,295,37566,1,0,0:0:0:0:
106,295,37752,1,0,0:0:0:0:
276,295,37938,6,0,P|310:220|344:210,1,112
471,209,38311,1,0,0:0:0:0:
360,211,38497,1,0,0:0:0:0:
248,214,38684,1,0,0:0:0:0:
82,219,38870,2,0,P|93:123|203:83,1,224
388,85,39429,1,0,0:0:0:0:
424,115,39522,1,0,0:0:0:0:
445,159,39615,2,0,P|400:249|288:287,1,224
136,300,40174,5,0,0:0:0:0:
279,297,40361,2,0,P|351:263|390:128,1,224
234,131,40920,1,0,0:0:0:0:
97,132,41106,1,0,0:0:0:0:
240,132,41292,2,0,P|334:130|344:143,1,112
457,131,41665,1,0,0:0:0:0:
314,129,41851,1,0,0:0:0:0:
168,133,42038,5,0,0:0:0:0:
339,133,42224,1,0,0:0:0:0:
67,129,42410,2,0,P|123:257|200:290,1,224
360,282,42969,2,0,P|437:239|455:171,1,112
313,206,43342,1,0,0:0:0:0:
193,209,43528,5,0,0:0:0:0:
58,218,43715,1,0,0:0:0:0:
201,219,43901,2,0,P|263:148|308:139,1,112
423,144,44274,1,0,0:0:0:0:
285,147,44460,2,0,P|210:83|171:74,1,112
56,145,44833,1,0,0:0:0:0:
196,142,45019,1,0,0:0:0:0:
346,143,45205,6,0,P|411:81|456:75,1,112
272,145,45578,2,0,P|250:221|219:240,1,112
101,242,45951,1,0,0:0:0:0:
215,240,46137,1,0,0:0:0:0:
339,240,46323,2,0,P|411:289|453:287,1,112
339,240,46696,2,0,P|248:300|211:299,1,112
86,312,47069,5,0,0:0:0:0:
43,269,47255,1,0,0:0:0:0:
48,208,47441,1,0,0:0:0:0:
85,162,47628,1,0,0:0:0:0:
382,313,47814,1,0,0:0:0:0:
421,265,48000,1,0,0:0:0:0:
444,208,48187,1,0,0:0:0:0:
82,327,48373,6,0,P|76:201|140:129,1,224
292,131,48932,2,0,L|401:179,1,112
268,181,49305,1,0,0:0:0:0:
163,183,49491,1,0,0:0:0:0:
54,180,49677,1,0,0:0:0:0:
370,181,49864,6,0,P|354:111|304:94,1,112
148,188,50236,2,0,P|192:89|313:71,1,224
465,72,50795,1,0,0:0:0:0:
327,71,50982,1,0,0:0:0:0:
209,74,51168,2,0,P|138:79|97:121,1,112
443,141,51541,6,0,P|455:260|379:320,1,224
251,325,52100,1,0,0:0:0:0:
123,331,52286,2,0,P|77:270|77:222,1,112
191,226,52659,1,0,0:0:0:0:
466,223,52845,5,0,0:0:0:0:
344,225,53031,1,0,0:0:0:0:
207,228,53218,1,0,0:0:0:0:
79,232,53404,2,0,P|79:156|138:133,1,112
255,136,53777,1,0,0:0:0:0:
387,135,53963,1,0,0:0:0:0:
501,134,54149,1,0,0:0:0:0:
101,120,54336,6,0,P|92:266|168:316,1,224
301,308,54895,1,0,0:0:0:0:
435,309,55081,1,0,0:0:0:0:
301,308,55267,2,0,P|206:291|183:266,1,112
69,271,55640,1,0,0:0:0:0:
249,271,55826,5,0,0:0:0:0:
382,270,56013,2,0,P|430:217|395:173,1,112
282,177,56385,1,0,0:0:0:0:
148,184,56572,1,0,0:0:0:0:
282,177,56758,2,0,P|195:128|166:128,1,112
397,177,57131,1,0,0:0:0:0:
61,183,57317,6,0,P|147:125|185:124,1,112
303,191,57690,1,0,0:0:0:0:
468,192,57876,1,0,0:0:0:0:
89,195,58062,2,0,P|125:258|188:256,1,112
313,261,58435,1,0,0:0:0:0:
464,258,58621,1,0,0:0:0:0:
112,271,58808,6,0,P|195:237|183:216,1,112
36,248,59180,1,0,0:0:0:0:
143,251,59367,1,0,0:0:0:0:
450,241,59553,2,0,P|474:183|423:156,1,112
289,163,59926,1,0,0:0:0:0:
110,166,60112,1,0,0:0:0:0:
75,128,60205,1,0,0:0:0:0:
113,83,60298,1,0,0:0:0:0:
367,82,60485,1,0,0:0:0:0:
135,257,60857,6,0,L|43:145,1,112
190,160,61230,1,0,0:0:0:0:
440,269,61417,1,0,0:0:0:0:
483,228,61510,1,0,0:0:0:0:
435,181,61603,1,0,0:0:0:0:
134,292,61976,6,0,P|78:235|84:207,2,112
294,291,62535,2,0,P|440:265|485:165,1,224
385,203,63094,1,0,0:0:0:0:
59,213,63280,2,0,P|83:138|217:69,1,224
336,72,63839,2,0,P|413:122|413:151,1,112
260,137,64212,1,0,0:0:0:0:
374,137,64398,5,0,0:0:0:0:
500,134,64584,1,0,0:0:0:0:
57,148,64771,2,0,P|139:81|255:37,1,224
407,40,65330,1,0,0:0:0:0:
97,49,65516,2,0,P|76:160|147:271,1,224
290,259,66075,1,0,0:0:0:0:
460,261,66261,6,0,P|342:330|287:275,1,224
100,288,66820,1,0,0:0:0:0:
224,290,67007,1,0,0:0:0:0:
49,291,67193,2,0,P|115:225|180:223,1,112
276,222,67566,1,0,0:0:0:0:
423,222,67752,1,0,0:0:0:0:
44,235,67938,6,0,P|61:150|115:100,1,112
131,84,68218,1,0,0:0:0:0:
185,43,68311,1,0,0:0:0:0:
473,65,68497,2,0,P|470:244|416:280,1,224
298,270,69056,1,0,0:0:0:0:
39,279,69243,2,0,P|52:170|147:98,1,224
271,95,69802,1,0,0:0:0:0:
426,93,70174,2,0,P|316:117|309:135,1,112
173,104,70547,1,0,0:0:0:0:
343,102,70733,6,0,P|403:186|319:259,1,224
166,268,71292,1,0,0:0:0:0:
433,265,71479,1,0,0:0:0:0:
298,273,71851,1,0,0:0:0:0:
159,280,72038,1,0,0:0:0:0:
409,275,72224,2,0,P|405:196|358:163,1,112
261,181,72597,1,0,0:0:0:0:
90,187,72783,6,0,P|130:113|175:95,1,112
276,100,73156,1,0,0:0:0:0:
143,101,73342,1,0,0:0:0:0:
282,94,73528,2,0,P|332:70|385:54,1,112
106,101,73901,5,0,0:0:0:0:
307,124,74087,1,0,0:0:0:0:
352,170,74180,1,0,0:0:0:0:
310,218,74274,1,0,0:0:0:0:
136,216,74460,1,0,0:0:0:0:
90,261,74553,1,0,0:0:0:0:
139,306,74646,1,0,0:0:0:0:
337,295,74833,2,0,P|435:237|441:218,1,112
284,214,75205,6,0,P|258:131|126:72,1,224
51,78,75764,2,0,P|49:166|98:207,1,112
198,186,76137,2,0,P|298:117|324:128,1,112
436,117,76510,1,0,0:0:0:0:
112,124,76696,6,0,P|139:219|168:216,1,112
286,212,77069,1,0,0:0:0:0:
416,212,77255,1,0,0:0:0:0:
85,213,77441,6,0,P|129:330|223:323,1,224
364,325,78000,1,0,0:0:0:0:
159,331,78187,2,0,P|87:278|87:233,1,112
226,242,78559,1,0,0:0:0:0:
381,240,78746,2,0,L|381:121,1,112
248,128,79118,1,0,0:0:0:0:
131,127,79305,1,0,0:0:0:0:
248,128,79491,1,0,0:0:0:0:
412,127,79677,5,0,0:0:0:0:
266,128,79864,1,0,0:0:0:0:
80,127,80050,1,0,0:0:0:0:
34,163,80143,1,0,0:0:0:0:
67,210,80236,1,0,0:0:0:0:
357,202,80423,6,0,P|345:296|297:312,1,112
196,312,80795,2,0,P|154:240|177:199,1,112
340,210,81168,2,0,P|352:131|202:81,1,224
108,92,81727,1,0,0:0:0:0:
229,92,81913,1,0,0:0:0:0:
352,92,82100,1,0,0:0:0:0:
193,96,82286,6,0,P|140:155|144:188,1,112
415,175,82659,2,0,P|399:272|279:309,1,224
123,317,83218,1,0,0:0:0:0:
316,313,83404,2,0,P|419:254|372:158,1,224
261,171,83963,1,0,0:0:0:0:
117,174,84149,2,0,P|183:109|318:107,1,224
444,180,84708,1,0,0:0:0:0:
343,180,84895,1,0,0:0:0:0:
227,186,85081,2,0,P|270:127|345:103,1,112
466,192,85454,6,0,P|337:85|276:78,1,224
98,230,86013,1,0,0:0:0:0:
42,190,86106,1,0,0:0:0:0:
97,147,86199,1,0,0:0:0:0:
303,234,86385,2,0,P|369:196|353:171,1,112
210,174,86758,2,0,P|153:134|119:86,1,112
405,106,87131,1,0,0:0:0:0:
256,192,87317,12,0,94771,0:0:0:0:
