osu file format v14

[General]
AudioFilename: audio.mp3
AudioLeadIn: 0
PreviewTime: 54786
Countdown: 0
SampleSet: None
StackLeniency: 0.7
Mode: 0
LetterboxInBreaks: 0
WidescreenStoryboard: 1

[Editor]
Bookmarks: 9374,166626
DistanceSpacing: 2.5
BeatDivisor: 4
GridSize: 4
TimelineZoom: 2.3

[Metadata]
Title:HEROIC ADVENT
TitleUnicode:-HEROIC ADVENT-
Artist:Roselia
ArtistUnicode:Roselia
Creator:benbenn
Version:GTO
Source:
Tags:
BeatmapID:2074862
BeatmapSetID:991526

[Difficulty]
HPDrainRate:5
CircleSize:4
OverallDifficulty:9
ApproachRate:9.3
SliderMultiplier:1.4
SliderTickRate:1

[Events]
//Background and Video events
0,0,"Wood_Wallpaper__Dark_Edition-1920x1200.jpg",0,0
//Break Periods
2,180013,184534
//Storyboard Layer 0 (Background)
//Storyboard Layer 1 (Fail)
//Storyboard Layer 2 (Pass)
//Storyboard Layer 3 (Foreground)
//Storyboard Sound Samples

[TimingPoints]
473,329.67032967033,4,2,1,41,1,0
500,-71.4285714285714,4,2,1,41,0,0
4264,-100,4,2,1,41,0,0
5747,-71.4285714285714,4,2,1,60,0,0
37396,-58.8235294117647,4,2,1,60,0,0
44978,-71.4285714285714,4,2,1,60,0,0
54538,-83.3333333333333,4,2,1,60,0,0
55857,-71.4285714285714,4,2,1,60,0,1
65088,-58.8235294117647,4,2,1,60,0,1
65912,-71.4285714285714,4,2,1,60,0,1
87341,-71.4285714285714,4,2,1,60,0,0
92121,-100,4,2,1,60,0,0
103330,-71.4285714285714,4,2,1,60,0,0
113879,-58.8235294117647,4,2,1,60,0,0
121462,-71.4285714285714,4,2,1,60,0,0
132341,-71.4285714285714,4,2,1,60,0,1
153440,-100,4,2,1,60,0,0
158714,-66.6666666666667,4,2,1,60,0,0
165308,-71.4285714285714,4,2,1,60,0,0
185088,-100,4,2,1,60,0,0
189703,-71.4285714285714,4,2,1,60,0,1

[HitObjects]
72,128,473,5,2,0:0:0:0:
72,128,637,1,0,0:0:0:0:
104,227,802,2,0,L|122:326,1,97.9999970092774
212,160,1132,6,0,L|232:268,2,97.9999970092774,2|0|0,0:0|0:0|0:0,0:0:0:0:
340,180,1626,6,0,L|364:292,2,97.9999970092774,2|0|0,0:0|0:0|0:0,0:0:0:0:
444,108,2121,6,0,L|468:222,2,97.9999970092774,2|0|0,0:0|0:0|0:0,0:0:0:0:
256,232,2615,5,2,0:0:0:0:
256,232,2780,2,0,P|307:222|368:212,1,97.9999970092774
424,144,3110,5,2,0:0:0:0:
424,144,3275,1,0,0:0:0:0:
364,68,3440,2,0,P|304:76|260:84,1,97.9999970092774
300,268,3769,5,2,0:0:0:0:
296,272,3934,2,0,P|248:280|199:286,1,97.9999970092774
44,252,4264,6,0,B|75:166|7:93|7:93|92:14|183:59,1,350,2|0,0:0|0:0,0:0:0:0:
353,163,5253,5,0,1:0:0:0:
352,215,5335,1,0,1:0:0:0:
338,266,5417,1,0,1:0:0:0:
101,171,5747,6,0,P|85:101|199:95,1,195.999994018555,0|0,0:0|1:2,0:0:0:0:
241,180,6242,1,0,0:0:0:0:
205,292,6407,2,0,P|266:303|322:306,1,97.9999970092774
351,198,6736,2,0,P|399:202|447:211,1,97.9999970092774,0|0,1:2|0:0,0:0:0:0:
398,103,7066,6,0,P|333:61|220:84,1,195.999994018555,0|0,0:0|1:0,0:0:0:0:
220,200,7560,1,0,0:0:0:0:
368,268,7725,1,0,0:0:0:0:
368,268,7890,2,0,P|286:286|233:288,1,97.9999970092774,0|0,0:0|1:0,0:0:0:0:
162,216,8220,1,0,0:0:0:0:
128,192,8302,1,0,0:0:0:0:
112,160,8385,6,0,P|98:101|208:25,1,195.999994018555,0|0,0:0|1:0,0:0:0:0:
280,100,8879,1,0,0:0:0:0:
200,188,9044,2,0,P|219:232|246:273,1,97.9999970092774
326,185,9374,2,0,P|306:140|279:99,1,97.9999970092774,0|0,1:0|0:0,0:0:0:0:
164,116,9703,6,0,P|80:168|152:240,1,195.999994018555,0|0,0:0|1:0,0:0:0:0:
204,316,10198,2,0,B|303:250|303:362|394:299,1,195.999994018555
328,204,10692,1,0,1:0:0:0:
412,120,10857,1,0,0:0:0:0:
412,120,10940,1,0,0:0:0:0:
412,120,11022,6,0,P|440:216|392:300,1,195.999994018555,0|0,0:0|1:0,0:0:0:0:
288,340,11516,1,0,0:0:0:0:
300,224,11681,2,0,P|232:216|184:224,1,97.9999970092774
184,336,12011,2,0,P|135:340|86:333,1,97.9999970092774,0|0,1:0|0:0,0:0:0:0:
68,216,12341,6,0,P|144:148|240:124,1,195.999994018555,0|0,0:0|1:0,0:0:0:0:
216,240,12835,1,0,0:0:0:0:
332,256,13000,2,0,P|385:230|444:200,1,97.9999970092774
344,120,13330,2,0,P|397:94|456:64,1,97.9999970092774,0|0,1:0|0:0,0:0:0:0:
212,80,13659,5,0,0:0:0:0:
156,320,13824,1,0,0:0:0:0:
340,160,13989,1,0,1:0:0:0:
108,76,14154,5,0,0:0:0:0:
236,284,14319,1,0,0:0:0:0:
20,168,14483,1,0,0:0:0:0:
160,56,14648,5,0,1:0:0:0:
172,348,14813,1,0,0:0:0:0:
276,72,14978,1,0,0:0:0:0:
224,360,15143,5,0,0:0:0:0:
120,84,15308,1,0,1:0:0:0:
352,268,15473,1,0,0:0:0:0:
328,76,15637,5,2,0:0:0:0:
420,152,15802,2,0,P|440:264|360:316,1,195.999994018555,2|0,0:0|0:0,0:0:0:0:
364,320,16214,5,0,0:0:0:0:
340,324,16297,2,0,L|240:336,1,97.9999970092774,2|0,0:0|0:0,0:0:0:0:
244,236,16626,2,0,L|144:248,1,97.9999970092774,2|0,0:0|0:0,0:0:0:0:
88,352,16956,2,0,P|33:249|88:156,1,195.999994018555,2|0,0:0|0:0,0:0:0:0:
148,72,17451,6,0,P|256:64|348:88,1,195.999994018555,2|0,0:0|0:0,0:0:0:0:
260,172,17945,1,0,0:0:0:0:
372,212,18110,1,0,0:0:0:0:
480,164,18275,2,0,P|476:232|452:288,1,97.9999970092774,2|0,0:0|0:0,0:0:0:0:
348,272,18604,2,0,P|330:317|324:365,1,97.9999970092774
176,304,18934,5,2,0:0:0:0:
252,216,19099,1,2,0:0:0:0:
136,192,19264,1,2,0:0:0:0:
52,276,19429,2,0,P|36:172|88:80,1,195.999994018555,2|0,0:0|0:0,0:0:0:0:
184,108,19923,2,0,P|208:44|212:8,1,97.9999970092774,2|0,0:0|0:0,0:0:0:0:
308,84,20253,5,2,0:0:0:0:
384,172,20418,1,2,0:0:0:0:
308,260,20582,1,2,0:0:0:0:
228,172,20747,2,0,P|188:224|233:354,1,195.999994018555,2|0,0:0|0:0,0:0:0:0:
217,342,21159,1,0,0:0:0:0:
217,342,21242,1,4,0:0:0:0:
104,308,21407,1,0,0:0:0:0:
67,67,21571,6,0,L|106:159,1,97.9999970092774
217,119,21901,2,0,L|256:211,1,97.9999970092774
150,264,22231,1,0,0:0:0:0:
150,264,22396,2,0,P|182:323|221:354,1,97.9999970092774
322,345,22725,6,0,P|411:278|422:183,1,195.999994018555
311,232,23220,1,0,0:0:0:0:
311,114,23385,2,0,L|367:26,2,97.9999970092774
119,97,23879,5,0,0:0:0:0:
33,176,24044,1,0,0:0:0:0:
145,211,24209,1,0,0:0:0:0:
230,130,24374,2,0,P|300:156|333:188,1,97.9999970092774
285,283,24703,2,0,P|397:269|437:182,1,195.999994018555
394,93,25198,5,0,0:0:0:0:
394,93,25363,1,0,0:0:0:0:
150,100,25527,5,0,0:0:0:0:
87,337,25692,1,0,0:0:0:0:
318,255,25857,1,0,0:0:0:0:
51,172,26022,5,0,0:0:0:0:
291,124,26187,1,0,0:0:0:0:
202,352,26352,1,0,0:0:0:0:
426,257,26516,5,0,0:0:0:0:
442,211,26598,1,0,0:0:0:0:
447,163,26680,1,0,0:0:0:0:
439,115,26763,1,0,0:0:0:0:
419,71,26845,1,0,0:0:0:0:
206,293,27341,5,0,0:0:0:0:
240,258,27423,1,0,0:0:0:0:
260,214,27505,1,0,0:0:0:0:
90,222,28000,5,0,0:0:0:0:
130,194,28082,1,0,0:0:0:0:
158,154,28164,1,0,0:0:0:0:
54,93,28659,5,0,0:0:0:0:
87,57,28741,1,0,0:0:0:0:
131,36,28823,1,0,0:0:0:0:
259,108,28989,5,0,0:0:0:0:
259,108,29071,1,0,0:0:0:0:
259,108,29154,2,0,P|326:98|361:85,1,97.9999970092774
435,174,29483,6,0,P|395:208|382:224,1,48.9999985046387
336,276,29648,1,0,0:0:0:0:
324,296,29730,1,0,0:0:0:0:
316,320,29812,1,0,0:0:0:0:
125,224,29978,6,0,L|109:245,1,24.4999992523194
399,135,30308,6,0,L|413:159,1,24.4999992523194
164,80,30637,6,0,B|200:200|96:168|148:300,1,195.999994018555
148,288,31049,1,0,0:0:0:0:
164,308,31132,1,0,0:0:0:0:
356,308,31297,5,0,0:0:0:0:
440,224,31462,1,0,0:0:0:0:
296,156,31626,1,0,0:0:0:0:
268,268,31791,1,0,0:0:0:0:
200,368,31956,2,0,P|131:256|184:177,1,195.999994018555
152,205,32451,5,0,1:0:0:0:
100,100,32615,1,0,0:0:0:0:
100,100,32698,1,0,0:0:0:0:
100,100,32780,2,0,P|160:84|216:96,1,97.9999970092774
312,96,33110,1,0,1:0:0:0:
312,96,33275,2,0,B|332:172|332:172|376:224|376:224|400:296,1,195.999994018555
276,244,33769,1,0,1:0:0:0:
184,320,33934,5,0,0:0:0:0:
100,200,34099,1,0,0:0:0:0:
40,336,34264,1,0,0:0:0:0:
264,188,34429,1,0,1:0:0:0:
344,344,34593,2,0,P|398:303|424:262,1,97.9999970092774
436,96,34923,5,0,0:0:0:0:
272,204,35088,1,0,1:0:0:0:
460,264,35253,1,0,0:0:0:0:
268,304,35418,5,0,0:0:0:0:
436,204,35582,1,0,0:0:0:0:
256,124,35747,1,0,1:0:0:0:
92,240,35912,6,0,P|112:342|174:281,1,195.999994018555
360,316,36407,2,0,P|348:248|314:202,1,97.9999970092774,0|0,1:0|0:0,0:0:0:0:
112,64,36736,5,0,3:2:0:0:
392,160,36901,1,0,3:2:0:0:
112,256,37066,1,0,3:2:0:0:
392,352,37231,1,0,3:2:0:0:
216,324,37396,6,0,P|120:308|200:236,1,238.00000453949
404,260,37890,2,0,P|403:163|292:60,1,238.00000453949
310,65,38385,1,0,0:0:0:0:
72,136,38549,6,0,B|112:308|112:308|164:344,1,238.00000453949
162,342,39044,1,0,0:0:0:0:
412,224,39209,6,0,B|349:239|300:200|300:200|285:151|350:101,1,238.00000453949
172,117,39703,2,0,P|206:49|250:20,1,119.000002269745
61,237,40033,6,0,B|116:314|116:314|268:299,1,238.00000453949
296,200,40527,2,0,B|363:198|363:198|418:254,1,119.000002269745,0|0,0:0|2:0,0:0:0:0:
392,64,40857,6,0,B|256:40|280:120|136:88,1,238.00000453949
80,180,41516,6,0,P|104:296|220:320,1,238.00000453949
272,196,42011,2,0,L|312:312,1,119.000002269745
376,180,42341,2,0,L|337:67,1,119.000002269745
96,164,42670,6,0,P|59:82|170:121,1,238.00000453949
192,316,43165,2,0,B|268:308|268:308|336:264|336:264|448:284,1,238.00000453949
415,278,43659,1,0,0:0:0:0:
232,60,43824,6,0,B|125:72|86:157|86:157|143:182,1,238.00000453949
135,178,44319,1,0,0:0:0:0:
436,179,44483,6,0,B|440:288|351:333|351:333|312:284,1,238.00000453949
136,336,44978,5,0,0:0:0:0:
146,300,45060,1,0,0:0:0:0:
157,265,45142,1,0,0:0:0:0:
168,230,45225,1,0,0:0:0:0:
180,199,45308,2,0,B|208:136|208:136|263:109|263:109|296:40,1,195.999994018555,0|0,0:0|1:0,0:0:0:0:
324,192,45802,1,0,0:0:0:0:
324,192,45885,1,0,0:0:0:0:
324,192,45967,2,0,L|288:292,1,97.9999970092774
380,364,46297,2,0,L|416:264,1,97.9999970092774,0|0,1:0|0:0,0:0:0:0:
456,176,46626,6,0,P|412:90|322:55,1,195.999994018555,0|0,0:0|1:0,0:0:0:0:
320,176,47121,1,0,0:0:0:0:
404,256,47286,1,0,0:0:0:0:
300,312,47451,1,0,0:0:0:0:
224,224,47615,5,0,1:0:0:0:
152,316,47780,1,0,0:0:0:0:
108,208,47945,2,0,P|152:108|240:72,1,195.999994018555,0|0,0:0|1:0,0:0:0:0:
336,28,48440,1,0,0:0:0:0:
420,108,48604,2,0,L|460:204,1,97.9999970092774
380,288,48934,1,0,1:0:0:0:
280,188,49099,5,0,0:0:0:0:
272,216,49181,1,0,0:0:0:0:
260,240,49264,2,0,P|164:284|88:212,1,195.999994018555,0|0,0:0|1:0,0:0:0:0:
180,156,49758,1,0,0:0:0:0:
280,96,49923,5,0,0:0:0:0:
296,212,50088,1,0,0:0:0:0:
388,140,50253,1,0,1:0:0:0:
412,256,50418,1,0,0:0:0:0:
324,332,50582,5,0,0:0:0:0:
64,192,50747,1,0,0:0:0:0:
320,48,50912,1,0,0:0:0:0:
72,68,51077,5,0,0:0:0:0:
348,172,51242,1,0,0:0:0:0:
100,332,51407,1,0,0:0:0:0:
392,308,51571,5,0,0:0:0:0:
220,68,51736,1,0,0:0:0:0:
144,352,51901,1,0,0:0:0:0:
84,64,52066,5,0,0:0:0:0:
232,316,52231,1,0,0:0:0:0:
348,44,52396,1,0,0:0:0:0:
68,124,52560,5,0,0:0:0:0:
416,224,52725,1,0,0:0:0:0:
68,244,52890,5,0,0:0:0:0:
404,104,53055,1,0,0:0:0:0:
304,304,53220,6,0,B|336:256|336:256|336:208,1,97.9999970092774
104,136,53549,2,0,B|106:78|106:78|134:39,1,97.9999970092774
372,100,53879,5,0,0:0:0:0:
208,284,54044,1,0,0:0:0:0:
164,292,54126,1,0,0:0:0:0:
124,300,54209,2,0,B|68:296|68:296|16:292,1,97.9999970092774
512,284,54868,6,0,L|384:272,1,125.999996154785
380,272,55198,1,0,0:0:0:0:
260,68,55363,1,0,0:0:0:0:
132,264,55527,2,0,P|77:260|12:272,1,83.9999974365235,0|0,1:0|0:0,0:0:0:0:
20,288,55775,1,0,0:0:0:0:
8,328,55857,5,0,0:0:0:0:
244,0,56022,1,0,0:0:0:0:
442,358,56187,2,0,L|460:246,1,105.000004005432,0|0,1:0|0:0,0:0:0:0:
453,206,56434,1,0,0:0:0:0:
445,159,56516,1,0,0:0:0:0:
308,208,56681,5,0,0:0:0:0:
204,312,56846,2,0,L|96:332,1,97.9999970092774,0|0,1:0|0:0,0:0:0:0:
48,196,57176,2,0,P|116:112|204:84,1,195.999994018555,0|0,0:0|1:0,0:0:0:0:
348,172,57670,5,0,0:0:0:0:
448,340,57835,1,0,0:0:0:0:
288,284,58000,1,0,0:0:0:0:
484,192,58165,1,0,1:0:0:0:
428,56,58330,1,0,0:0:0:0:
400,60,58412,1,0,0:0:0:0:
372,68,58494,1,0,0:0:0:0:
368,184,58659,2,0,P|336:188|296:200,1,48.9999985046387
236,252,58824,1,0,1:0:0:0:
88,240,58989,6,0,L|124:340,1,97.9999970092774
316,368,59319,1,0,0:0:0:0:
300,172,59483,5,0,1:0:0:0:
152,272,59648,1,0,0:0:0:0:
320,336,59813,2,0,P|419:283|418:174,1,195.999994018555,0|0,0:0|1:0,0:0:0:0:
284,216,60308,1,0,0:0:0:0:
404,60,60473,1,0,0:0:0:0:
420,256,60637,1,0,0:0:0:0:
420,256,60720,1,0,0:0:0:0:
420,256,60802,1,0,1:0:0:0:
272,128,60967,2,0,P|280:152|284:184,1,48.9999985046387
188,204,61132,2,0,P|200:260|224:304,1,97.9999970092774
44,200,61462,5,0,1:0:0:0:
236,220,61626,1,0,0:0:0:0:
148,312,61791,1,0,0:0:0:0:
140,116,61956,1,0,0:0:0:0:
340,68,62121,5,0,1:0:0:0:
224,224,62286,1,0,0:0:0:0:
392,184,62451,2,0,B|364:244|364:244|368:280|368:280|336:352,1,146.999995513916
349,320,62780,1,0,1:0:0:0:
480,252,62945,1,0,0:0:0:0:
468,104,63110,6,0,P|400:76|308:92,1,146.999995513916
328,83,63440,1,0,1:0:0:0:
400,212,63604,1,0,0:0:0:0:
272,284,63769,6,0,L|152:300,1,97.9999970092774
100,116,64099,1,0,1:0:0:0:
48,304,64264,1,0,0:0:0:0:
160,252,64429,6,0,L|257:239,1,97.9999970092774
308,48,64758,1,0,1:0:0:0:
372,232,64923,1,0,0:0:0:0:
196,154,65088,6,0,P|172:220|268:221,1,178.500003404617
292,156,65418,2,0,P|364:236|360:324,1,178.500003404617,0|0,1:0|0:0,0:0:0:0:
364,308,65747,1,0,0:0:0:0:
92,316,65912,5,0,0:0:0:0:
102,281,65994,1,0,0:0:0:0:
112,247,66076,1,0,1:0:0:0:
122,213,66159,1,0,0:0:0:0:
132,179,66241,1,0,0:0:0:0:
143,144,66324,1,0,0:0:0:0:
153,110,66406,5,0,0:0:0:0:
444,376,66571,1,0,0:0:0:0:
452,36,66736,1,0,1:0:0:0:
184,108,66901,1,0,0:0:0:0:
184,108,66983,1,0,0:0:0:0:
184,108,67066,6,0,L|160:204,1,97.9999970092774
300,152,67396,1,0,1:0:0:0:
224,332,67560,1,0,0:0:0:0:
36,284,67725,2,0,P|92:364|212:340,1,195.999994018555,0|0,0:0|1:0,0:0:0:0:
364,280,68220,5,0,0:0:0:0:
200,172,68385,1,0,0:0:0:0:
340,140,68549,1,0,0:0:0:0:
217,293,68714,1,0,1:0:0:0:
260,100,68879,1,0,0:0:0:0:
260,100,68961,1,0,0:0:0:0:
260,100,69043,1,0,0:0:0:0:
112,177,69209,2,0,P|101:203|93:237,1,48.9999985046387
152,316,69374,1,0,1:0:0:0:
258,152,69538,5,0,0:0:0:0:
197,338,69703,1,0,0:0:0:0:
112,160,69868,1,0,0:0:0:0:
10,299,70033,2,0,L|118:325,1,97.9999970092774,0|0,1:0|0:0,0:0:0:0:
219,222,70363,6,0,L|327:248,1,97.9999970092774
420,356,70692,1,0,1:0:0:0:
476,168,70857,6,0,L|500:76,1,48.9999985046387
420,20,71022,1,0,0:0:0:0:
256,128,71187,5,0,0:0:0:0:
248,176,71269,1,0,0:0:0:0:
247,225,71351,1,0,1:0:0:0:
384,328,71516,5,0,0:0:0:0:
384,328,71681,2,0,P|412:264|420:212,1,97.9999970092774
493,86,72011,1,0,1:0:0:0:
347,168,72176,1,0,0:0:0:0:
236,64,72341,6,0,P|213:128|213:192,1,97.9999970092774
370,109,72670,1,0,1:0:0:0:
293,257,72835,1,0,0:0:0:0:
191,354,73000,6,0,P|142:309|123:244,1,97.9999970092774
296,271,73330,1,0,1:0:0:0:
167,166,73494,1,0,0:0:0:0:
235,318,73659,1,0,0:0:0:0:
272,155,73824,1,0,0:0:0:0:
156,274,73989,6,0,L|291:302,1,97.9999970092774,0|0,1:0|0:0,0:0:0:0:
419,307,74319,2,0,B|450:188|450:188|432:141,1,146.999995513916
383,107,74648,2,0,B|352:226|352:226|370:273,1,146.999995513916,0|0,1:0|0:0,0:0:0:0:
444,253,74978,2,0,P|385:329|315:326,1,146.999995513916
340,333,75308,1,0,1:0:0:0:
173,319,75473,6,0,B|163:258|163:258|133:223|133:223|116:147,1,146.999995513916
124,184,75802,5,0,0:0:0:0:
300,308,75967,1,0,1:0:0:0:
132,316,76132,1,0,0:0:0:0:
228,180,76297,1,0,0:0:0:0:
380,240,76462,5,0,1:0:0:0:
385,191,76544,1,0,1:0:0:0:
376,145,76626,1,0,1:0:0:0:
96,240,76791,5,0,1:0:0:0:
90,288,76873,1,0,1:0:0:0:
99,334,76955,1,0,1:0:0:0:
380,324,77286,6,0,L|416:168,1,146.999995513916,0|0,1:0|0:0,0:0:0:0:
344,256,77615,2,0,L|380:100,1,146.999995513916
464,104,77945,2,0,P|384:40|304:52,1,146.999995513916,0|0,1:0|0:0,0:0:0:0:
343,38,78275,5,0,0:0:0:0:
456,176,78440,1,0,0:0:0:0:
284,140,78604,1,0,1:0:0:0:
156,48,78769,6,0,B|164:124|164:124|128:176|128:176|120:244,1,195.999994018555
121,231,79181,1,0,0:0:0:0:
121,231,79264,1,0,1:0:0:0:
40,108,79429,1,0,0:0:0:0:
208,60,79593,6,0,P|228:92|240:128,1,48.9999985046387
264,184,79758,1,0,0:0:0:0:
276,220,79840,1,0,0:0:0:0:
285,259,79922,1,0,1:0:0:0:
120,320,80088,6,0,L|160:316,1,24.4999992523194
388,128,80418,6,0,L|348:132,1,24.4999992523194
120,76,80747,6,0,P|88:140|120:184,1,97.9999970092774
108,180,80994,5,0,0:0:0:0:
128,192,81077,1,0,0:0:0:0:
260,140,81242,2,0,L|304:44,2,97.9999970092774,0|0|0,1:0|0:0|0:0,0:0:0:0:
408,152,81736,5,0,0:0:0:0:
268,196,81901,1,0,1:0:0:0:
324,60,82066,2,0,P|388:76|424:112,1,97.9999970092774
272,140,82396,5,0,0:0:0:0:
348,264,82560,1,0,1:0:0:0:
200,248,82725,2,0,P|128:304|112:336,1,97.9999970092774
304,304,83055,5,0,1:0:0:0:
329,318,83137,1,0,1:0:0:0:
357,317,83219,1,0,1:0:0:0:
381,299,83302,1,0,1:0:0:0:
390,272,83384,1,0,1:0:0:0:
383,244,83467,1,0,1:0:0:0:
304,224,83549,6,0,P|352:152|344:192,1,342.999989532471
428,156,84209,6,0,P|352:28|248:24,1,244.999992523194
267,18,84703,1,0,0:0:0:0:
424,148,84868,5,0,0:0:0:0:
356,382,85033,1,0,0:0:0:0:
252,180,85198,1,0,1:0:0:0:
232,168,85280,1,0,0:0:0:0:
208,164,85363,2,0,B|82:180|82:180|56:203,1,146.999995513916
64,237,85692,2,0,B|190:221|190:221|216:198,1,146.999995513916,0|0,0:0|0:0,1:0:0:0:
164,148,86022,2,0,P|253:145|276:228,1,146.999995513916
279,187,86352,1,0,0:0:0:0:
128,276,86516,1,0,0:0:0:0:
192,88,86681,1,0,0:0:0:0:
368,84,86846,5,0,0:0:0:0:
379,105,86928,1,0,0:0:0:0:
389,127,87010,1,0,0:0:0:0:
397,151,87093,1,0,0:0:0:0:
403,174,87175,1,0,0:0:0:0:
406,199,87258,1,0,0:0:0:0:
408,220,87341,6,0,P|384:300|288:360,1,195.999994018555
300,212,87835,1,0,1:0:0:0:
212,312,88000,1,0,0:0:0:0:
228,180,88165,1,0,0:0:0:0:
320,276,88329,1,0,0:0:0:0:
344,144,88494,1,0,1:0:0:0:
244,48,88659,6,0,P|171:16|157:107,1,195.999994018555
332,144,89154,1,0,1:0:0:0:
192,148,89319,1,0,0:0:0:0:
312,232,89483,1,0,0:0:0:0:
164,241,89648,1,0,0:0:0:0:
276,336,89813,2,0,P|336:328|376:300,1,97.9999970092774,0|0,1:0|0:0,0:0:0:0:
280,268,90143,5,0,0:0:0:0:
280,121,90308,1,0,0:0:0:0:
407,194,90473,1,0,1:0:0:0:
328,252,90637,5,0,0:0:0:0:
177,361,90802,1,0,0:0:0:0:
157,176,90967,1,0,0:0:0:0:
304,160,91132,5,0,1:0:0:0:
274,343,91297,1,0,0:0:0:0:
129,227,91462,1,0,0:0:0:0:
292,260,91626,5,0,0:0:0:0:
188,128,91791,1,0,1:0:0:0:
200,296,91956,1,0,0:0:0:0:
200,296,92038,1,0,0:0:0:0:
200,296,92121,1,0,0:0:0:0:
404,304,92286,6,0,B|388:232|388:232|424:176|424:132|396:76,1,210,0|0,1:0|0:0,0:0:0:0:
136,144,93440,5,2,0:0:0:0:
200,224,94099,5,2,0:0:0:0:
324,256,94758,5,2,0:0:0:0:
324,256,95088,1,2,0:0:0:0:
128,156,95418,6,0,L|156:80,1,70,2|0,0:0|0:0,0:0:0:0:
224,128,95747,2,0,L|252:52,1,70,2|0,0:0|0:0,0:0:0:0:
184,304,96736,5,2,0:0:0:0:
200,308,96901,1,0,0:0:0:0:
224,312,97066,1,2,0:0:0:0:
248,312,97231,1,0,0:0:0:0:
400,220,97560,5,6,3:0:0:0:
400,220,97643,1,6,3:0:0:0:
400,220,97725,2,0,P|428:160|408:108,1,105,2|0,3:0|0:0,0:0:0:0:
360,88,98055,6,0,L|340:156,1,70,2|0,0:0|0:0,0:0:0:0:
268,104,98385,2,0,L|248:172,1,70,2|0,0:0|0:0,0:0:0:0:
196,36,98714,2,0,L|176:104,1,70,2|0,0:0|0:0,0:0:0:0:
100,56,99044,2,0,L|80:124,1,70,2|0,0:0|0:0,0:0:0:0:
132,208,99374,6,0,L|64:224,1,70,2|0,0:0|0:0,0:0:0:0:
184,272,99703,2,0,L|252:256,1,70,2|0,0:0|0:0,0:0:0:0:
100,312,100033,2,0,L|32:328,1,70,2|0,0:0|0:0,0:0:0:0:
152,376,100362,2,0,L|220:360,1,70,2|0,0:0|0:0,0:0:0:0:
312,256,100692,6,0,L|296:336,1,70,2|0,0:0|0:0,0:0:0:0:
396,288,101022,2,0,L|409:356,1,70,2|0,0:0|0:0,0:0:0:0:
300,224,101352,2,0,L|284:304,1,70,2|0,0:0|0:0,0:0:0:0:
384,256,101682,2,0,L|397:324,1,70,2|0,0:0|0:0,0:0:0:0:
208,184,102011,6,0,L|224:116,1,70,2|0,0:0|0:0,0:0:0:0:
132,152,102341,2,0,L|148:84,1,70,2|0,0:0|0:0,0:0:0:0:
60,116,102670,2,0,L|76:48,1,70,2|0,0:0|0:0,0:0:0:0:
72,280,103000,5,2,0:0:0:0:
99,285,103082,1,0,0:0:0:0:
126,291,103164,1,0,0:0:0:0:
154,297,103247,1,0,0:0:0:0:
180,304,103330,2,0,L|296:296,1,97.9999970092774,2|0,0:0|0:0,0:0:0:0:
308,132,103659,5,0,1:0:0:0:
336,324,103824,1,0,0:0:0:0:
220,328,103989,1,0,0:0:0:0:
404,184,104154,1,0,0:0:0:0:
388,380,104319,1,0,1:0:0:0:
488,104,104483,6,0,B|500:228|424:292,1,195.999994018555
368,128,104978,1,0,1:0:0:0:
336,320,105143,1,0,0:0:0:0:
184,196,105308,5,0,0:0:0:0:
428,120,105473,1,0,0:0:0:0:
180,132,105637,5,0,1:0:0:0:
456,200,105802,1,0,0:0:0:0:
236,308,105967,6,0,L|124:324,2,97.9999970092774,0|0|0,0:0|0:0|1:0,0:0:0:0:
296,152,106462,6,0,L|312:52,1,97.9999970092774
376,168,106791,2,0,P|324:228|268:224,1,97.9999970092774,0|0,0:0|1:0,0:0:0:0:
192,140,107121,2,0,B|216:192|216:192|192:236|184:288|252:340,1,195.999994018555
320,312,107533,2,0,P|348:360|360:380,1,48.9999985046387,0|0,0:0|1:0,0:0:0:0:
368,188,107780,5,0,0:0:0:0:
224,272,107945,1,0,0:0:0:0:
296,128,108110,1,0,0:0:0:0:
328,292,108275,1,0,1:0:0:0:
168,344,108440,2,0,P|128:252|180:172,1,195.999994018555
232,272,108934,1,0,1:0:0:0:
340,172,109099,5,0,0:0:0:0:
340,172,109181,1,0,0:0:0:0:
340,172,109264,1,0,0:0:0:0:
188,100,109429,1,0,0:0:0:0:
280,240,109593,1,0,1:0:0:0:
152,308,109758,2,0,B|96:208|196:224|140:120,1,195.999994018555
284,212,110253,1,0,1:0:0:0:
160,264,110418,5,0,0:0:0:0:
256,128,110582,1,0,0:0:0:0:
140,168,110747,1,0,0:0:0:0:
300,212,110912,1,0,1:0:0:0:
244,36,111077,2,0,P|321:55|360:120,1,146.999995513916
357,108,111407,5,0,0:0:0:0:
392,272,111571,1,0,1:0:0:0:
244,196,111736,1,0,0:0:0:0:
400,140,111901,1,0,0:0:0:0:
312,276,112066,1,0,0:0:0:0:
260,116,112231,1,0,1:0:0:0:
92,84,112396,6,0,P|108:140|144:272,1,195.999994018555
240,160,112890,1,0,1:0:0:0:
104,212,113055,1,0,0:0:0:0:
136,68,113220,6,0,L|192:44,1,48.9999985046387,2|0,0:0|0:0,0:0:0:0:
240,264,113385,2,0,L|296:240,1,48.9999985046387,2|0,0:0|0:0,0:0:0:0:
272,160,113549,6,0,L|328:136,1,48.9999985046387,2|0,1:0|0:0,0:0:0:0:
376,356,113714,2,0,L|432:332,1,48.9999985046387,2|0,0:0|0:0,0:0:0:0:
434,186,113879,6,0,B|384:135|384:135|377:81|377:81|252:46,1,238.00000453949
108,164,114374,6,0,B|143:221|143:221|115:273|108:335|178:371,1,238.00000453949
173,368,114868,1,0,0:0:0:0:
355,290,115033,6,0,B|384:161|384:161|463:231,1,238.00000453949
463,231,115527,1,0,0:0:0:0:
426,79,115692,6,0,P|282:44|190:119,1,238.00000453949
307,199,116187,1,0,0:0:0:0:
341,77,116352,1,0,0:0:0:0:
154,139,116516,6,0,P|65:158|162:192,1,238.00000453949
179,342,117011,2,0,B|262:260|340:380|428:294,1,238.00000453949
442,183,117505,2,0,P|390:138|424:107,1,119.000002269745
159,142,118000,6,0,P|263:76|366:110,1,238.00000453949
340,213,118494,2,0,P|428:235|480:202,1,119.000002269745
419,75,118824,5,2,0:0:0:0:
406,49,118906,1,0,0:0:0:0:
378,40,118988,1,0,0:0:0:0:
353,55,119071,1,0,0:0:0:0:
340,76,119154,6,0,P|308:204|376:280,1,238.00000453949,2|0,0:0|0:0,0:0:0:0:
440,200,119648,6,0,B|288:232|288:232|256:324,1,238.00000453949
260,310,120143,1,0,0:0:0:0:
108,292,120308,6,0,B|160:208|160:208|132:120|132:120|184:40,1,238.00000453949
157,80,120802,1,0,0:0:0:0:
352,84,120967,6,0,B|420:112|436:188|436:188|428:244|384:272,1,238.00000453949
387,269,121462,1,0,0:0:0:0:
232,324,121626,5,0,0:0:0:0:
344,200,121791,1,0,0:0:0:0:
336,368,121956,1,0,0:0:0:0:
244,228,122121,1,0,1:0:0:0:
244,228,122203,1,0,0:0:0:0:
244,228,122286,1,0,0:0:0:0:
112,132,122451,6,0,P|188:84|208:80,1,97.9999970092774
316,196,122780,1,0,1:0:0:0:
160,136,122945,1,0,0:0:0:0:
296,92,123110,6,0,L|388:152,1,97.9999970092774
492,104,123440,1,0,1:0:0:0:
400,244,123604,1,0,0:0:0:0:
504,192,123769,1,0,0:0:0:0:
340,168,123934,1,0,0:0:0:0:
416,76,124099,5,0,1:0:0:0:
288,212,124264,1,0,0:0:0:0:
132,36,124429,2,0,B|120:148|120:148|140:240,1,195.999994018555,0|0,0:0|1:0,0:0:0:0:
124,336,124923,1,0,0:0:0:0:
148,334,125005,1,0,0:0:0:0:
172,333,125087,1,0,0:0:0:0:
108,176,125253,1,0,0:0:0:0:
240,280,125418,1,0,1:0:0:0:
200,120,125582,6,0,P|228:112|264:112,1,48.9999985046387
296,32,125747,2,0,P|368:60|436:172,1,195.999994018555,0|0,0:0|1:0,0:0:0:0:
296,208,126242,1,0,0:0:0:0:
291,232,126324,1,0,0:0:0:0:
287,256,126406,1,0,0:0:0:0:
140,272,126571,2,0,L|112:376,2,97.9999970092774,0|0|0,0:0|1:0|0:0,0:0:0:0:
128,104,127066,5,0,0:0:0:0:
236,356,127231,1,0,0:0:0:0:
288,164,127396,1,0,1:0:0:0:
48,32,127560,5,0,0:0:0:0:
192,268,127725,1,0,0:0:0:0:
40,168,127890,1,0,0:0:0:0:
272,20,128055,5,0,1:0:0:0:
232,292,128220,1,0,0:0:0:0:
380,164,128385,1,0,0:0:0:0:
160,324,128549,5,0,0:0:0:0:
128,52,128714,1,0,1:0:0:0:
380,240,128879,1,0,0:0:0:0:
144,36,129044,5,0,0:0:0:0:
192,348,129209,1,0,0:0:0:0:
296,52,129374,5,0,1:0:0:0:
288,364,129538,1,0,0:0:0:0:
408,172,129703,6,0,B|359:144|359:144|304:159,1,97.9999970092774
248,272,130033,2,0,B|192:279|192:279|147:244,1,97.9999970092774
224,108,130363,5,0,0:0:0:0:
372,224,130527,1,0,0:0:0:0:
386,249,130609,1,0,0:0:0:0:
400,276,130692,2,0,L|408:376,1,97.9999970092774
256,232,131022,6,0,L|264:332,1,97.9999970092774
112,304,131352,5,0,0:0:0:0:
102,272,131434,1,0,0:0:0:0:
98,240,131516,1,0,0:0:0:0:
100,208,131599,1,0,0:0:0:0:
108,172,131681,1,0,0:0:0:0:
127,127,131763,1,0,0:0:0:0:
162,92,131845,1,0,0:0:0:0:
206,72,131928,1,0,0:0:0:0:
256,64,132011,1,0,0:0:0:0:
309,70,132093,1,0,0:0:0:0:
364,96,132175,1,0,0:0:0:0:
408,140,132258,1,0,0:0:0:0:
424,208,132341,5,0,0:0:0:0:
128,20,132505,1,0,0:0:0:0:
148,372,132670,2,0,L|256:364,1,97.9999970092774
280,356,132918,1,0,0:0:0:0:
312,348,133000,1,0,0:0:0:0:
348,184,133165,5,0,0:0:0:0:
240,312,133330,1,0,0:0:0:0:
252,148,133494,1,0,0:0:0:0:
376,108,133659,2,0,P|304:52|204:56,1,195.999994018555
292,160,134154,5,0,0:0:0:0:
156,256,134319,1,0,0:0:0:0:
272,232,134483,1,0,0:0:0:0:
116,172,134648,1,0,0:0:0:0:
260,92,134813,1,0,0:0:0:0:
260,92,134896,1,0,0:0:0:0:
260,92,134978,6,0,P|328:96|364:128,1,97.9999970092774
240,236,135308,1,0,0:0:0:0:
156,92,135473,1,0,0:0:0:0:
116,252,135637,2,0,L|144:356,1,97.9999970092774
208,212,135967,5,0,0:0:0:0:
64,292,136132,1,0,0:0:0:0:
116,152,136297,2,0,P|208:108|312:164,1,195.999994018555
384,280,136791,5,0,0:0:0:0:
408,116,136956,1,0,0:0:0:0:
256,188,137121,2,0,P|220:248|220:300,1,97.9999970092774
416,192,137451,5,0,0:0:0:0:
412,164,137533,1,0,0:0:0:0:
400,136,137615,2,0,P|352:88|300:72,1,97.9999970092774
224,200,137945,1,0,0:0:0:0:
384,252,138110,1,0,0:0:0:0:
292,112,138275,1,0,0:0:0:0:
276,276,138440,1,0,0:0:0:0:
116,236,138604,6,0,L|96:340,1,97.9999970092774
128,120,138934,6,0,P|216:88|304:100,1,146.999995513916
268,90,139264,1,0,0:0:0:0:
140,240,139429,1,0,0:0:0:0:
320,168,139593,6,0,L|356:316,1,146.999995513916
354,310,139923,1,0,0:0:0:0:
432,132,140088,1,0,0:0:0:0:
236,120,140253,5,0,0:0:0:0:
168,304,140418,1,0,0:0:0:0:
324,184,140582,1,0,0:0:0:0:
128,204,140747,1,0,0:0:0:0:
308,284,140912,1,0,0:0:0:0:
184,132,141077,1,0,0:0:0:0:
228,324,141242,1,0,0:0:0:0:
300,152,141407,1,0,0:0:0:0:
144,268,141571,6,0,B|104:248|100:216|100:216|88:120,1,146.999995513916
128,104,141901,2,0,B|168:124|172:156|172:156|184:252,1,146.999995513916
181,231,142231,1,0,0:0:0:0:
120,324,142396,5,0,0:0:0:0:
163,318,142478,1,0,0:0:0:0:
207,312,142560,1,0,0:0:0:0:
251,306,142643,1,0,0:0:0:0:
294,300,142725,1,0,0:0:0:0:
338,295,142808,1,0,0:0:0:0:
382,289,142890,5,0,0:0:0:0:
164,24,143055,1,0,0:0:0:0:
88,360,143220,2,0,L|40:252,1,97.9999970092774
44,236,143467,1,0,0:0:0:0:
48,200,143549,1,0,0:0:0:0:
192,96,143714,5,0,0:0:0:0:
148,268,143879,1,0,0:0:0:0:
296,172,144044,1,0,0:0:0:0:
296,172,144126,1,0,0:0:0:0:
296,172,144209,1,0,0:0:0:0:
264,324,144374,2,0,P|332:316|388:268,1,97.9999970092774
224,188,144703,5,0,0:0:0:0:
172,356,144868,1,0,0:0:0:0:
288,268,145033,1,0,0:0:0:0:
112,276,145198,1,0,0:0:0:0:
245,160,145363,1,0,0:0:0:0:
245,160,145445,1,0,0:0:0:0:
245,160,145527,2,0,P|304:152|368:192,1,97.9999970092774
220,296,145857,5,0,0:0:0:0:
288,132,146022,1,0,0:0:0:0:
364,292,146187,1,0,0:0:0:0:
424,128,146352,1,0,0:0:0:0:
296,204,146516,5,0,0:0:0:0:
460,272,146681,1,0,0:0:0:0:
304,356,146846,2,0,B|180:296|228:400|92:332,1,195.999994018555
224,200,147341,5,0,0:0:0:0:
232,161,147423,1,0,0:0:0:0:
241,123,147505,1,0,0:0:0:0:
92,164,147670,1,0,0:0:0:0:
280,224,147835,1,0,0:0:0:0:
128,68,148000,1,0,0:0:0:0:
76,280,148165,6,0,L|176:248,1,97.9999970092774
192,84,148494,1,0,0:0:0:0:
236,276,148659,1,0,0:0:0:0:
376,140,148824,6,0,P|416:196|424:240,1,97.9999970092774
264,212,149154,1,0,0:0:0:0:
444,132,149319,1,0,0:0:0:0:
252,48,149483,6,0,L|152:88,1,97.9999970092774
332,184,149813,1,0,0:0:0:0:
140,148,149978,1,0,0:0:0:0:
208,252,150143,1,0,0:0:0:0:
292,76,150308,1,0,0:0:0:0:
176,160,150473,5,0,0:0:0:0:
340,268,150637,1,0,0:0:0:0:
148,316,150802,2,0,P|116:276|120:184,1,146.999995513916
60,120,151132,2,0,P|128:108|212:96,1,146.999995513916
288,112,151462,2,0,B|320:216|320:216|300:292,1,146.999995513916
310,252,151791,1,0,0:0:0:0:
144,220,151956,6,0,P|172:152|212:128,1,97.9999970092774
332,184,152286,1,0,0:0:0:0:
200,252,152451,1,0,0:0:0:0:
336,308,152615,1,0,0:0:0:0:
444,208,152780,5,0,0:0:0:0:
400,160,152889,1,0,0:0:0:0:
337,148,152999,1,0,0:0:0:0:
279,175,153109,1,0,0:0:0:0:
224,208,153220,1,0,0:0:0:0:
164,224,153329,1,0,0:0:0:0:
100,216,153439,5,0,0:0:0:0:
100,216,153604,1,0,0:0:0:0:
260,96,154099,6,0,L|272:168,1,70
368,256,154429,5,0,0:0:0:0:
368,256,154593,1,0,0:0:0:0:
128,272,155418,6,0,L|200:256,1,70
312,156,156077,5,0,0:0:0:0:
312,156,156242,1,0,0:0:0:0:
144,276,157066,5,0,0:0:0:0:
144,276,157231,1,0,0:0:0:0:
388,308,158055,6,0,P|400:256|384:216,1,70
380,172,158385,5,0,0:0:0:0:
361,129,158494,1,0,0:0:0:0:
324,102,158604,1,0,0:0:0:0:
280,92,158714,6,0,B|176:92|96:168|104:280|180:352|284:360|356:332|368:252|368:252|284:252|284:252|284:256|284:256,1,577.500022029878
176,136,160033,6,0,B|344:112|344:112|272:120|272:120|296:328,1,420.000016021729
292,176,161352,6,0,P|124:156|292:196,1,525.000020027161
372,160,162670,6,0,B|308:312|308:312|252:244|200:208|124:228|60:296,1,420.000016021729
88,112,163989,6,0,B|180:64|180:64|288:104|288:104|188:200|272:296|312:308,1,420.000016021729
388,68,165308,6,0,B|348:168|348:168|376:216|376:216|336:360,1,293.999991027832
164,159,165967,5,0,0:0:0:0:
376,208,166132,1,0,0:0:0:0:
172,224,166297,5,0,0:0:0:0:
376,156,166462,1,0,0:0:0:0:
228,284,166626,5,0,0:0:0:0:
296,100,166791,1,0,0:0:0:0:
412,260,166956,1,0,0:0:0:0:
224,204,167121,5,0,0:0:0:0:
404,128,167286,1,0,0:0:0:0:
368,320,167451,1,0,0:0:0:0:
292,140,167615,5,0,0:0:0:0:
464,236,167780,1,0,0:0:0:0:
288,324,167945,1,0,0:0:0:0:
372,148,168110,5,0,0:0:0:0:
328,340,168275,1,0,0:0:0:0:
188,204,168440,1,0,0:0:0:0:
392,112,168604,5,0,0:0:0:0:
390,128,168686,1,0,0:0:0:0:
389,144,168768,1,0,0:0:0:0:
388,160,168851,1,0,0:0:0:0:
387,177,168933,1,0,0:0:0:0:
386,193,169016,1,0,0:0:0:0:
384,208,169099,6,0,P|336:308|164:304,1,293.999991027832
292,180,169758,1,0,0:0:0:0:
252,344,169923,1,0,0:0:0:0:
188,216,170088,1,0,0:0:0:0:
344,276,170253,1,0,0:0:0:0:
184,316,170418,1,0,0:0:0:0:
72,224,170582,6,0,P|120:140|216:108,1,195.999994018555
208,276,171077,1,0,0:0:0:0:
312,144,171242,2,0,L|340:44,1,97.9999970092774
376,212,171571,2,0,L|348:312,1,97.9999970092774
484,208,171901,6,0,P|432:112|352:104,1,195.999994018555
376,268,172396,1,0,0:0:0:0:
256,156,172560,2,0,L|240:256,1,97.9999970092774
124,240,172890,2,0,L|108:340,1,97.9999970092774
56,168,173220,6,0,P|56:108|140:160,1,195.999994018555
120,320,173714,2,0,B|200:252|256:376|340:272,1,195.999994018555
188,184,174209,1,0,0:0:0:0:
324,88,174374,5,0,0:0:0:0:
344,100,174456,1,0,0:0:0:0:
361,118,174538,2,0,P|400:244|376:324,1,195.999994018555
272,180,175033,1,0,0:0:0:0:
184,264,175198,2,0,L|152:364,1,97.9999970092774
100,200,175527,2,0,L|132:100,1,97.9999970092774
296,116,175857,6,0,P|348:68|356:160,1,195.999994018555
204,116,176352,1,0,0:0:0:0:
112,252,176516,5,0,0:0:0:0:
144,253,176598,1,0,0:0:0:0:
177,254,176680,1,0,0:0:0:0:
209,255,176763,1,0,0:0:0:0:
236,276,176846,5,0,0:0:0:0:
268,277,176928,1,0,0:0:0:0:
301,278,177010,1,0,0:0:0:0:
333,279,177093,1,0,0:0:0:0:
364,280,177176,6,0,L|420:280,1,48.9999985046387
312,72,177341,1,0,0:0:0:0:
268,312,177505,1,0,0:0:0:0:
160,136,177670,6,0,L|216:148,1,48.9999985046387
408,180,177835,1,0,0:0:0:0:
216,332,178000,1,0,0:0:0:0:
360,88,178165,6,0,L|376:140,1,48.9999985046387
300,344,178330,1,0,0:0:0:0:
168,140,178494,1,0,0:0:0:0:
100,284,178659,6,0,P|77:338|77:402,2,97.9999970092774
244,12,179154,5,0,0:0:0:0:
248,88,179263,1,0,0:0:0:0:
252,164,179374,1,0,0:0:0:0:
324,200,179483,5,0,0:0:0:0:
293,275,179592,1,0,0:0:0:0:
364,320,179703,1,0,0:0:0:0:
300,384,179813,1,0,0:0:0:0:
140,260,185088,6,0,L|128:328,1,70
228,228,185418,2,0,L|216:296,1,70
308,256,185747,2,0,L|296:324,1,70
396,224,186077,2,0,L|384:292,1,70
384,120,186407,6,0,L|396:48,1,70
276,164,186736,2,0,L|308:88,1,70
128,108,187066,2,0,L|204:76,1,70
116,200,187396,2,0,L|192:168,1,70
224,272,187725,6,0,L|300:236,1,70
152,320,188055,2,0,L|188:396,1,70
104,248,188385,2,0,L|40:277,1,70
188,200,188714,2,0,L|158:136,1,70
292,128,189044,6,0,L|320:196,1,70
392,136,189374,2,0,L|420:204,1,70
404,332,189703,5,0,0:0:0:0:
296,112,189868,1,0,0:0:0:0:
132,296,190033,2,0,P|76:232|60:172,1,146.999995513916
44,72,190363,5,0,0:0:0:0:
284,380,190527,1,0,0:0:0:0:
432,16,190692,2,0,P|456:96|460:132,1,97.9999970092774
460,148,190940,1,0,0:0:0:0:
456,188,191022,1,0,0:0:0:0:
