osu file format v14

[General]
AudioFilename: audio.mp3
AudioLeadIn: 0
PreviewTime: 50332
Countdown: 0
SampleSet: Soft
StackLeniency: 0.3
Mode: 0
LetterboxInBreaks: 0
WidescreenStoryboard: 0

[Editor]
Bookmarks: 10968,41465,49255,96161
DistanceSpacing: 0.4
BeatDivisor: 4
GridSize: 32
TimelineZoom: 2.2

[Metadata]
Title:Guren no Yumiya
TitleUnicode:紅蓮の弓矢
Artist:Roselia
ArtistUnicode:ロゼリア
Creator:Yogurtt
Version:Colossal
Source:バンドリ! ガールズバンドパーティ!
Tags:shingeki no kyojin, attack on titan, op, opening, bang dream, bandori, girls party
BeatmapID:1697688
BeatmapSetID:809050

[Difficulty]
HPDrainRate:4.6
CircleSize:4.3
OverallDifficulty:9
ApproachRate:9.4
SliderMultiplier:1.9
SliderTickRate:1

[Events]
//Background and Video events
0,0,"seddddd.png",0,0
//Break Periods
//Storyboard Layer 0 (Background)
//Storyboard Layer 1 (Fail)
//Storyboard Layer 2 (Pass)
//Storyboard Layer 3 (Foreground)
//Storyboard Sound Samples

[TimingPoints]
2681,331.491712707182,4,2,1,100,1,0
3343,-200,4,2,1,5,0,0
3509,-200,4,2,1,11,0,0
3675,-200,4,2,1,20,0,0
3841,-200,4,2,1,30,0,0
4006,-100,4,2,1,60,0,0
6493,-333.333333333333,4,2,1,60,0,0
6658,-76.9230769230769,4,2,1,60,0,0
9145,-333.333333333333,4,2,1,60,0,0
9310,-76.9230769230769,4,2,1,60,0,0
10636,-66.6666666666667,4,2,1,60,0,0
10719,-66.6666666666667,4,2,1,5,0,0
10802,-66.6666666666667,4,2,1,60,0,0
10968,-66.6666666666667,4,2,1,60,0,0
11051,-66.6666666666667,4,2,1,5,0,0
11134,-66.6666666666667,4,2,1,60,0,0
11299,-66.6666666666667,4,2,1,60,0,0
11382,-66.6666666666667,4,2,1,5,0,0
11465,-66.6666666666667,4,2,1,60,0,0
11631,-66.6666666666667,4,2,1,60,0,0
11714,-66.6666666666667,4,2,1,5,0,0
11797,-66.6666666666667,4,2,1,60,0,0
11879,-66.6666666666667,4,2,1,5,0,0
11962,-76.9230769230769,4,2,1,70,0,0
14448,-333.333333333333,4,2,1,70,0,0
14614,-76.9230769230769,4,2,1,70,0,0
15940,-66.6666666666667,4,2,1,70,0,0
16023,-66.6666666666667,4,2,1,5,0,0
16106,-66.6666666666667,4,2,1,70,0,0
16355,-66.6666666666667,4,2,1,5,0,0
16437,-66.6666666666667,4,2,1,70,0,0
16686,-66.6666666666667,4,2,1,5,0,0
16769,-66.6666666666667,4,2,1,70,0,0
18592,-133.333333333333,4,2,1,40,0,0
28703,-133.333333333333,4,2,1,70,0,0
29200,-100,4,2,1,70,0,0
34006,-133.333333333333,4,2,1,70,0,0
34504,-100,4,2,1,70,0,0
39310,-125,4,2,1,70,0,0
39725,-125,4,2,1,5,0,0
39808,-100,4,2,1,70,0,0
41465,-76.9230769230769,4,2,1,70,0,0
41797,-66.6666666666667,4,2,1,70,0,0
42460,-100,4,2,1,70,0,0
43122,-83.3333333333333,4,2,1,70,0,0
43785,-71.4285714285714,4,2,1,70,0,0
44448,-62.5,4,2,1,70,0,0
44946,-100,4,2,1,70,0,0
48758,-66.6666666666667,4,2,1,70,0,0
48841,-66.6666666666667,4,2,1,5,0,0
48924,-66.6666666666667,4,2,1,70,0,0
49006,-66.6666666666667,4,2,1,5,0,0
49089,-58.8235294117647,4,2,1,70,0,0
50415,-76.9230769230769,4,2,1,80,0,1
59531,-166.666666666667,4,2,1,80,0,1
59863,-66.6666666666667,4,2,1,80,0,1
60360,-58.8235294117647,4,2,1,80,0,1
60692,-52.6315789473684,4,2,1,80,0,0
61023,-76.9230769230769,4,2,1,80,0,1
68482,-76.9230769230769,4,2,1,30,0,1
68647,-76.9230769230769,4,2,1,40,0,1
68813,-76.9230769230769,4,2,1,60,0,1
68979,-76.9230769230769,4,2,1,80,0,0
70139,-333.333333333333,4,2,1,80,0,0
70305,-76.9230769230769,4,2,1,80,0,0
72791,-333.333333333333,4,2,1,80,0,0
72957,-76.9230769230769,4,2,1,80,0,0
74283,-66.6666666666667,4,2,1,80,0,0
74366,-66.6666666666667,4,2,1,5,0,0
74448,-66.6666666666667,4,2,1,80,0,0
74697,-66.6666666666667,4,2,1,5,0,0
74780,-66.6666666666667,4,2,1,80,0,0
75029,-66.6666666666667,4,2,1,5,0,0
75111,-66.6666666666667,4,2,1,80,0,0
75360,-66.6666666666667,4,2,1,5,0,0
75443,-66.6666666666667,4,2,1,80,0,0
75526,-66.6666666666667,4,2,1,5,0,0
75609,-76.9230769230769,4,2,1,80,0,0
78095,-333.333333333333,4,2,1,80,0,0
78261,-76.9230769230769,4,2,1,80,0,0
79587,-66.6666666666667,4,2,1,80,0,0
79669,-66.6666666666667,4,2,1,5,0,0
79752,-66.6666666666667,4,2,1,80,0,0
80001,-66.6666666666667,4,2,1,5,0,0
80084,-66.6666666666667,4,2,1,80,0,0
80332,-66.6666666666667,4,2,1,5,0,0
80415,-66.6666666666667,4,2,1,80,0,0
80913,-76.9230769230769,4,2,1,80,0,1
88868,-76.9230769230769,4,2,1,80,0,0
90194,-66.6666666666667,4,2,1,80,0,0
90526,-133.333333333333,4,2,1,80,0,0
90857,-133.333333333333,4,2,1,80,0,0
93841,-133.333333333333,4,2,1,70,0,0
94172,-133.333333333333,4,2,1,60,0,0
94504,-133.333333333333,4,2,1,50,0,0
94835,-133.333333333333,4,2,1,40,0,0
95167,-133.333333333333,4,2,1,30,0,0
95498,-133.333333333333,4,2,1,20,0,0
95830,-133.333333333333,4,2,1,10,0,0

[HitObjects]
220,227,3343,6,0,P|168:237|157:348,1,166.25
236,212,4006,5,4,0:0:0:0:
249,121,4172,1,0,0:0:0:0:
323,180,4338,1,0,0:0:0:0:
412,137,4504,2,0,P|395:214|392:252,1,95
334,86,4835,1,0,0:0:0:0:
506,147,5001,1,0,0:0:0:0:
334,86,5167,6,0,B|264:93|264:93|217:78|217:78|131:93,1,190
244,266,5664,1,0,0:0:0:0:
147,90,5830,2,0,L|158:198,1,95
21,330,6161,2,0,L|30:235,1,95
244,266,6493,2,0,L|217:271,1,14.2499995651245
150,287,6658,6,0,B|198:271|250:319|250:319|313:375|399:330,1,246.999988693238,6|8,0:0|0:0,0:0:0:0:
476,153,7156,2,0,P|482:224|500:287,1,123.499994346619,0|2,0:0|0:0,0:0:0:0:
334,122,7487,2,0,P|322:183|321:245,1,123.499994346619,0|8,0:0|0:0,0:0:0:0:
198,43,7819,1,0,0:0:0:0:
51,267,7984,5,2,0:0:0:0:
52,273,8067,1,0,0:0:0:0:
53,279,8150,1,0,0:0:0:0:
232,162,8316,1,8,0:0:0:0:
0,335,8482,2,0,L|164:309,1,123.499994346619,0|2,0:0|0:0,0:0:0:0:
299,257,8813,2,0,L|135:231,1,123.499994346619,0|8,0:0|0:0,0:0:0:0:
79,30,9145,2,0,L|83:52,1,14.2499995651245
2,117,9310,6,0,P|99:77|259:91,1,246.999988693238,6|8,0:0|0:0,0:0:0:0:
390,37,9808,2,0,P|378:102|368:169,1,123.499994346619,0|2,0:0|0:0,0:0:0:0:
488,360,10139,1,0,0:0:0:0:
488,360,10222,1,0,0:0:0:0:
488,360,10305,1,8,0:0:0:0:
155,252,10471,1,4,0:0:0:0:
489,231,10636,6,0,P|441:239|405:272,1,71.2500027179719,8|0,0:0|0:0,0:0:0:0:
220,379,10802,1,4,0:0:0:0:
421,290,10968,6,0,P|373:282|337:249,1,71.2500027179719,8|0,0:0|0:0,0:0:0:0:
161,162,11134,1,4,0:0:0:0:
333,239,11299,6,0,P|285:247|249:280,1,71.2500027179719,8|0,0:0|0:0,0:0:0:0:
92,384,11465,1,4,0:0:0:0:
315,354,11631,6,0,L|231:343,1,71.2500027179719,8|0,0:0|0:0,0:0:0:0:
20,310,11797,2,0,L|104:299,1,71.2500027179719,8|0,0:0|0:0,0:0:0:0:
252,68,11962,6,0,B|160:49|160:49|201:255,1,246.999988693238,6|8,0:0|0:0,0:0:0:0:
407,189,12460,2,0,P|330:156|272:183,1,123.499994346619,0|2,0:0|0:0,0:0:0:0:
401,325,12791,2,0,P|461:333|512:301,1,123.499994346619,0|8,0:0|0:0,0:0:0:0:
420,84,13122,1,0,0:0:0:0:
275,263,13288,5,2,0:0:0:0:
269,262,13371,1,0,0:0:0:0:
263,261,13454,1,0,0:0:0:0:
483,217,13620,1,8,0:0:0:0:
214,206,13785,2,0,L|235:354,1,123.499994346619,0|2,0:0|0:0,0:0:0:0:
82,183,14117,2,0,L|103:331,1,123.499994346619,0|8,0:0|0:0,0:0:0:0:
284,85,14448,2,0,L|309:76,1,14.2499995651245
342,9,14614,6,0,B|334:195|334:195|403:174,1,246.999988693238,6|8,0:0|0:0,0:0:0:0:
207,95,15111,2,0,P|135:72|72:106,1,123.499994346619,0|2,0:0|0:0,0:0:0:0:
5,269,15443,1,0,0:0:0:0:
5,269,15526,1,0,0:0:0:0:
5,269,15609,1,8,0:0:0:0:
392,177,15774,1,4,0:0:0:0:
32,168,15940,6,0,P|75:169|116:199,1,71.2500027179719,8|0,0:0|0:0,0:0:0:0:
279,325,16106,1,4,0:0:0:0:
111,216,16272,6,0,P|154:215|195:185,1,71.2500027179719,8|0,0:0|0:0,0:0:0:0:
357,84,16438,1,4,0:0:0:0:
197,179,16603,6,0,P|240:180|281:210,1,71.2500027179719,8|0,0:0|0:0,0:0:0:0:
444,322,16769,1,8,0:3:0:0:
382,355,16851,1,8,0:3:0:0:
314,342,16934,1,8,0:3:0:0:
257,302,17018,1,8,0:3:0:0:
193,272,17100,1,8,0:3:0:0:
126,290,17183,1,8,0:3:0:0:
86,347,17266,5,0,0:0:0:0:
87,353,17432,1,0,0:0:0:0:
88,359,17598,1,0,0:0:0:0:
183,348,17763,1,0,0:0:0:0:
59,244,17929,1,0,0:0:0:0:
60,238,18095,1,0,0:0:0:0:
61,232,18261,6,8,L|144:219,1,71.2500027179719
182,175,18426,2,8,L|252:186,1,71.2500027179719
322,208,18592,6,0,L|311:113,1,71.2500027179719,4|0,0:0|0:0,0:0:0:0:
390,32,18924,2,0,L|379:127,1,71.2500027179719,8|0,0:0|0:0,0:0:0:0:
244,91,19255,2,0,L|154:86,1,71.2500027179719
38,152,19587,1,8,0:0:0:0:
39,145,19752,1,0,0:0:0:0:
182,175,19918,6,0,L|190:245,1,71.2500027179719
64,341,20250,2,0,L|72:270,1,71.2500027179719,8|0,0:0|0:0,0:0:0:0:
265,243,20581,2,0,L|273:313,1,71.2500027179719
273,313,20830,1,0,0:0:0:0:
273,313,20913,1,8,0:0:0:0:
288,160,21078,1,0,0:0:0:0:
273,313,21244,6,0,P|320:306|372:309,1,71.2500027179719,2|0,0:0|0:0,0:0:0:0:
512,273,21576,2,0,P|476:271|441:265,1,71.2500027179719,8|0,0:0|0:0,0:0:0:0:
185,235,21907,2,0,P|232:228|284:231,1,71.2500027179719
424,195,22239,2,0,P|388:193|353:187,1,71.2500027179719,8|0,0:0|0:0,0:0:0:0:
65,13,22570,6,0,P|52:47|26:89,1,71.2500027179719
119,207,22901,2,0,P|136:176|149:142,1,71.2500027179719,8|0,0:0|0:0,0:0:0:0:
257,94,23233,1,0,0:0:0:0:
257,94,23399,2,0,P|274:124|287:158,2,71.2500027179719,0|8|0,0:0|0:0|0:0,0:0:0:0:
195,359,23896,5,6,0:0:0:0:
198,372,24062,1,0,0:0:0:0:
195,151,24227,1,10,0:0:0:0:
192,138,24393,1,0,0:0:0:0:
73,319,24559,1,2,0:0:0:0:
61,328,24725,1,0,0:0:0:0:
270,255,24890,1,10,0:0:0:0:
282,246,25056,1,0,0:0:0:0:
73,191,25222,5,2,0:0:0:0:
62,200,25388,1,0,0:0:0:0:
195,359,25553,1,10,0:0:0:0:
198,372,25719,1,0,0:0:0:0:
195,151,25885,1,2,0:0:0:0:
192,138,26051,1,0,0:0:0:0:
73,319,26216,1,10,0:0:0:0:
61,328,26382,1,0,0:0:0:0:
49,337,26548,6,0,P|105:347|147:300,1,106.875004076958,2|0,0:0|0:0,0:0:0:0:
223,291,26879,2,0,P|271:279|307:305,1,71.2500027179719,8|0,0:0|0:0,0:0:0:0:
357,347,27211,1,0,0:0:0:0:
223,291,27377,2,0,P|192:273|179:240,1,71.2500027179719,0|8,0:0|0:0,0:0:0:0:
350,141,27708,5,0,0:0:0:0:
147,105,27874,1,2,0:0:0:0:
147,105,27957,1,0,0:0:0:0:
147,105,28040,1,0,0:0:0:0:
293,86,28205,1,8,0:0:0:0:
80,146,28371,1,0,0:0:0:0:
293,86,28537,1,2,0:0:0:0:
180,4,28703,6,0,L|189:50,1,35.625001358986,4|0,0:0|0:0,0:0:0:0:
248,300,28868,1,8,0:0:0:0:
256,249,28950,1,8,0:0:0:0:
265,198,29033,1,8,0:0:0:0:
274,148,29116,1,8,0:0:0:0:
283,97,29199,5,6,0:0:0:0:
141,197,29366,1,0,0:0:0:0:
186,38,29531,1,10,0:0:0:0:
358,146,29697,2,0,L|462:129,1,95,0|2,0:0|0:0,0:0:0:0:
319,2,30029,1,0,0:0:0:0:
319,2,30194,1,10,0:0:0:0:
458,139,30360,6,0,L|442:239,1,95,0|2,0:0|0:0,0:0:0:0:
283,97,30692,2,0,B|236:84|236:84|166:99,1,95,0|10,0:0|0:0,0:0:0:0:
282,215,31023,2,0,B|327:224|327:224|374:211,1,95,0|2,0:0|0:0,0:0:0:0:
96,64,31355,2,0,L|111:157,1,95,0|10,0:0|0:0,0:0:0:0:
114,173,31603,1,0,0:0:0:0:
116,187,31686,1,0,0:0:0:0:
57,333,31852,5,2,0:0:0:0:
201,244,32018,1,0,0:0:0:0:
57,333,32183,1,8,0:0:0:0:
213,62,32349,2,0,L|198:155,1,95,0|2,0:0|0:0,0:0:0:0:
29,29,32680,1,0,0:0:0:0:
29,29,32846,1,8,0:0:0:0:
205,162,33012,6,0,L|309:147,1,95,0|2,0:0|0:0,0:0:0:0:
476,199,33343,2,0,L|372:184,1,95,0|8,0:0|0:0,0:0:0:0:
201,244,33675,2,0,L|305:229,1,95,0|2,0:0|0:0,0:0:0:0:
505,109,34006,2,0,L|450:101,1,35.625001358986,4|0,0:0|0:0,0:0:0:0:
317,17,34172,1,8,0:0:0:0:
312,71,34254,1,8,0:0:0:0:
306,124,34337,1,8,0:0:0:0:
300,177,34420,1,8,0:0:0:0:
295,230,34503,5,6,0:0:0:0:
231,128,34669,1,0,0:0:0:0:
418,259,34835,1,8,0:0:0:0:
161,235,35001,2,0,P|107:226|46:224,1,95,0|2,0:0|0:0,0:0:0:0:
204,352,35332,1,0,0:0:0:0:
204,352,35498,1,8,0:0:0:0:
61,215,35664,6,0,L|75:106,1,95,0|2,0:0|0:0,0:0:0:0:
231,52,35995,2,0,P|192:26|129:39,1,95,0|8,0:0|0:0,0:0:0:0:
300,168,36327,2,0,P|346:171|385:145,1,95,0|2,0:0|0:0,0:0:0:0:
171,164,36658,2,0,L|183:258,1,95,0|8,0:0|0:0,0:0:0:0:
184,268,36907,1,0,0:0:0:0:
185,279,36990,1,0,0:0:0:0:
328,102,37156,5,2,0:0:0:0:
35,199,37321,1,0,0:0:0:0:
214,78,37487,1,8,0:0:0:0:
66,322,37653,2,0,L|173:302,1,95,0|2,0:0|0:0,0:0:0:0:
53,116,37984,1,0,0:0:0:0:
53,116,38150,1,8,0:0:0:0:
159,304,38316,6,0,L|252:321,1,95,0|2,0:0|0:0,0:0:0:0:
420,277,38647,1,8,0:3:0:0:
421,283,38730,1,8,0:3:0:0:
422,289,38813,1,8,0:3:0:0:
301,232,38979,1,8,0:3:0:0:
378,193,39145,1,8,0:3:0:0:
352,162,39310,2,0,P|357:264|366:364,1,190,4|0,0:3|0:0,0:0:0:0:
338,267,39808,6,0,B|291:258|251:289|251:289|202:327|129:292,1,190,6|8,0:0|0:0,0:0:0:0:
46,192,40305,1,0,0:0:0:0:
46,192,40471,2,0,P|53:240|60:298,1,95,2|0,0:0|0:0,0:0:0:0:
206,122,40802,2,0,P|199:169|193:216,1,95,8|0,0:0|0:0,0:0:0:0:
435,358,41134,6,0,P|428:286|418:215,1,142.5,8|0,0:0|0:0,0:0:0:0:
435,358,41465,6,0,P|441:286|464:171,1,185.249991519928,8|0,0:0|0:0,0:0:0:0:
465,18,41797,5,8,0:0:0:0:
474,87,41879,1,8,0:0:0:0:
482,157,41962,1,8,0:0:0:0:
487,228,42045,1,8,0:0:0:0:
490,298,42128,2,8,L|412:285,1,71.2500027179719
257,210,42294,2,8,L|334:197,1,71.2500027179719
222,374,42460,6,0,L|75:350,1,126.666666666667,6|0,0:0|0:0,0:0:0:0:
14,202,42791,1,8,0:0:0:0:
10,218,42901,1,8,0:0:0:0:
6,234,43012,1,8,0:0:0:0:
2,250,43122,6,0,P|78:208|142:242,1,151.999995361328,6|0,0:0|0:0,0:0:0:0:
242,182,43454,1,8,0:0:0:0:
279,216,43564,1,8,0:0:0:0:
329,223,43674,1,8,0:0:0:0:
373,201,43785,6,0,B|314:189|314:189|264:205|264:205|175:179,1,177.33332792155,6|0,0:0|0:0,0:0:0:0:
22,122,44117,1,8,0:0:0:0:
27,24,44227,1,8,0:0:0:0:
124,29,44338,1,8,0:0:0:0:
119,127,44448,6,0,B|169:136|206:108|206:108|234:113|254:120|254:120|292:97|345:95,1,228,6|0,0:0|0:0,0:0:0:0:
447,150,44780,2,0,P|457:194|492:235,1,76,8|0,0:0|0:0,0:0:0:0:
300,310,44946,6,0,P|302:272|329:220,1,95,6|0,0:0|0:0,0:0:0:0:
447,150,45277,1,0,0:0:0:0:
300,310,45443,2,0,P|262:304|213:271,1,95,8|0,0:0|0:0,0:0:0:0:
0,378,45774,2,0,P|38:350|84:341,1,95,2|0,0:0|0:0,0:0:0:0:
102,104,46106,2,0,P|115:139|111:198,1,95,8|0,0:0|0:0,0:0:0:0:
0,378,46437,5,6,0:0:0:0:
236,18,46603,1,8,0:0:0:0:
227,76,46685,1,8,0:0:0:0:
218,135,46768,1,8,0:0:0:0:
209,194,46851,1,8,0:0:0:0:
200,252,46935,2,0,P|264:212|332:233,1,142.5,8|0,0:0|0:0,0:0:0:0:
450,203,47266,2,0,P|386:243|318:222,1,142.5,8|0,0:0|0:0,0:0:0:0:
227,76,47598,5,6,0:0:0:0:
304,60,47763,1,0,0:0:0:0:
202,99,47929,1,0,0:0:0:0:
366,114,48095,1,10,0:0:0:0:
146,168,48261,1,0,0:0:0:0:
410,49,48426,1,2,0:0:0:0:
410,49,48509,1,0,0:0:0:0:
410,49,48592,1,0,0:0:0:0:
112,77,48758,6,0,L|214:93,1,71.2500027179719,10|0,0:0|0:0,0:0:0:0:
415,184,48924,2,0,L|313:200,1,71.2500027179719,8|0,0:0|0:0,0:0:0:0:
93,368,49089,6,8,P|105:320|106:272,1,80.750001540184
187,344,49255,2,8,P|186:294|174:247,1,80.750001540184
257,91,49421,6,8,P|269:139|270:187,1,80.750001540184
351,115,49587,2,8,P|350:164|338:211,1,80.750001540184
512,278,49752,5,8,0:0:0:0:
444,320,49834,1,8,0:0:0:0:
365,314,49917,1,8,0:0:0:0:
305,262,50000,1,8,0:0:0:0:
252,202,50084,1,8,0:0:0:0:
175,182,50167,1,8,0:0:0:0:
100,209,50250,1,8,0:0:0:0:
54,274,50333,1,8,0:0:0:0:
53,354,50415,6,0,P|48:315|38:277,1,61.7499971733095,6|0,0:0|0:0,0:0:0:0:
175,182,50581,2,0,P|173:212|169:243,1,61.7499971733095,4|0,0:0|0:0,0:0:0:0:
267,350,50747,2,0,P|281:322|292:293,1,61.7499971733095,12|0,0:0|0:0,0:0:0:0:
135,60,50913,1,0,0:0:0:0:
135,60,50995,1,0,0:0:0:0:
135,60,51078,1,2,0:0:0:0:
325,150,51244,1,0,0:0:0:0:
27,171,51410,1,8,0:0:0:0:
27,171,51576,6,0,B|85:158|136:198|136:198|190:242|266:213,1,246.999988693238,2|0,0:0|0:0,0:0:0:0:
419,61,52073,1,8,0:0:0:0:
197,13,52239,2,0,P|205:86|208:160,1,123.499994346619,0|2,0:0|0:0,0:0:0:0:
338,371,52570,2,0,P|341:309|348:248,1,123.499994346619,0|8,0:0|0:0,0:0:0:0:
87,304,52901,1,0,0:0:0:0:
87,304,52984,1,0,0:0:0:0:
87,304,53067,5,2,0:0:0:0:
330,237,53233,1,0,0:0:0:0:
124,191,53399,1,8,0:0:0:0:
338,371,53564,2,0,P|269:347|202:339,1,123.499994346619,0|2,0:0|0:0,0:0:0:0:
0,242,53896,2,0,P|69:218|136:210,1,123.499994346619,0|8,0:0|0:0,0:0:0:0:
310,49,54227,6,0,B|232:18|232:18|224:197,1,246.999988693238,6|0,0:0|0:0,0:0:0:0:
224,180,54642,1,0,0:0:0:0:
224,180,54725,1,8,0:0:0:0:
383,300,54890,2,0,P|458:331|512:303,1,123.499994346619,0|2,0:0|0:0,0:0:0:0:
283,181,55222,2,0,P|242:174|200:198,1,61.7499971733095,8|8,0:0|0:0,0:0:0:0:
46,222,55388,1,8,0:0:0:0:
39,246,55471,1,8,0:0:0:0:
32,271,55554,1,8,0:0:0:0:
25,295,55637,1,8,0:0:0:0:
19,320,55719,6,0,L|166:300,1,123.499994346619,2|0,0:0|0:0,0:0:0:0:
335,162,56051,2,0,B|201:144|201:144|245:95,1,185.249991519928,12|0,0:0|0:0,0:0:0:0:
101,195,56382,2,0,L|248:175,1,123.499994346619,2|0,0:0|0:0,0:0:0:0:
471,56,56714,1,8,0:0:0:0:
471,56,56879,6,0,P|412:23|255:119,1,246.999988693238,2|0,0:0|0:0,0:0:0:0:
352,320,57377,1,8,0:0:0:0:
263,94,57542,2,0,P|194:83|136:73,1,123.499994346619,0|2,0:0|0:0,0:0:0:0:
0,235,57874,2,0,P|69:224|127:214,1,123.499994346619,0|8,0:0|0:0,0:0:0:0:
55,17,58205,1,0,0:0:0:0:
55,17,58288,1,0,0:0:0:0:
55,17,58371,5,6,0:0:0:0:
190,141,58537,1,0,0:0:0:0:
370,102,58703,1,10,0:0:0:0:
154,47,58868,1,0,0:0:0:0:
207,276,59034,1,2,0:0:0:0:
237,12,59200,1,0,0:0:0:0:
207,276,59366,2,0,L|216:197,1,61.7499971733095,10|0,0:0|0:0,0:0:0:0:
225,109,59531,6,0,L|237:194,1,85.4999973907472,2|0,0:0|0:0,0:0:0:0:
133,303,59863,6,0,B|103:312|64:283|64:283|97:345|159:325|159:325|223:309|265:346,1,285.000010871888,4|0,0:0|0:0,0:0:0:0:
381,353,60360,6,0,B|415:314|435:258|408:193|365:182|330:188|310:230|316:253,1,242.250004620552,4|0,0:0|0:0,0:0:0:0:
236,193,60692,6,0,B|295:129|288:37|288:37|301:108|383:148,1,270.749992770195,4|0,0:0|0:0,0:0:0:0:
474,102,61023,6,0,P|437:89|390:85,1,61.7499971733095,6|0,0:0|0:0,0:0:0:0:
228,53,61189,2,0,P|258:47|287:36,1,61.7499971733095,4|0,0:0|0:0,0:0:0:0:
494,146,61355,2,0,P|461:123|417:107,1,61.7499971733095,12|0,0:0|0:0,0:0:0:0:
161,118,61520,1,0,0:0:0:0:
161,118,61603,1,0,0:0:0:0:
161,118,61686,1,2,0:0:0:0:
373,17,61852,1,0,0:0:0:0:
303,278,62018,1,8,0:0:0:0:
303,278,62183,6,0,B|292:192|292:192|307:133|307:133|285:26,1,246.999988693238
494,146,62680,1,8,0:0:0:0:
287,36,62846,2,0,P|223:43|128:41,1,123.499994346619,0|2,0:0|0:0,0:0:0:0:
0,175,63178,2,0,P|61:175|123:182,1,123.499994346619,0|8,0:0|0:0,0:0:0:0:
286,366,63509,1,0,0:0:0:0:
286,366,63592,1,0,0:0:0:0:
286,366,63675,5,2,0:0:0:0:
394,241,63841,1,0,0:0:0:0:
165,321,64006,1,8,0:0:0:0:
405,338,64172,2,0,P|464:345|512:308,1,123.499994346619,0|2,0:0|0:0,0:0:0:0:
319,171,64504,2,0,P|264:133|199:150,1,123.499994346619,0|8,0:0|0:0,0:0:0:0:
29,285,64835,6,0,B|95:233|95:233|72:49,1,246.999988693238,6|0,0:0|0:0,0:0:0:0:
74,71,65250,1,0,0:0:0:0:
74,71,65332,1,8,0:0:0:0:
375,226,65498,2,0,L|249:207,1,123.499994346619,0|2,0:0|0:0,0:0:0:0:
74,71,65830,2,0,L|168:55,1,61.7499971733095,8|0,0:0|0:0,0:0:0:0:
405,45,65995,1,10,0:0:0:0:
398,90,66077,1,8,0:0:0:0:
390,135,66160,1,8,0:0:0:0:
382,180,66243,1,8,0:0:0:0:
375,226,66327,6,0,P|432:280|508:276,1,123.499994346619,2|0,0:0|0:0,0:0:0:0:
299,51,66658,2,0,P|218:15|151:72,1,185.249991519928,12|0,0:0|0:0,0:0:0:0:
194,137,66990,2,0,P|199:214|194:282,1,123.499994346619,2|0,0:0|0:0,0:0:0:0:
39,375,67321,1,8,0:0:0:0:
39,375,67487,6,0,B|122:331|122:331|308:368,1,246.999988693238,2|0,0:0|0:0,0:0:0:0:
458,275,67984,1,8,0:0:0:0:
272,360,68150,2,0,L|284:219,1,123.499994346619,0|2,0:0|0:0,0:0:0:0:
166,59,68482,5,8,0:0:0:0:
171,64,68564,5,8,0:0:0:0:
188,73,68647,5,8,0:0:0:0:
238,79,68730,5,8,0:0:0:0:
303,63,68813,5,8,0:0:0:0:
376,42,68896,5,8,0:0:0:0:
458,57,68979,5,12,0:0:0:0:
458,57,70139,6,0,L|453:84,1,14.2499995651245
309,132,70305,6,0,B|393:144|455:71|455:71|480:124|527:130,1,246.999988693238,6|8,0:0|0:0,0:0:0:0:
361,299,70802,2,0,L|212:269,1,123.499994346619,0|2,0:0|0:0,0:0:0:0:
108,108,71134,2,0,L|229:83,1,123.499994346619,0|8,0:0|0:0,0:0:0:0:
2,352,71465,1,0,0:0:0:0:
217,176,71631,5,2,0:0:0:0:
218,181,71714,1,0,0:0:0:0:
219,186,71797,1,0,0:0:0:0:
8,143,71962,1,8,0:0:0:0:
157,236,72128,2,0,L|306:220,1,123.499994346619,0|2,0:0|0:0,0:0:0:0:
238,312,72460,2,0,L|387:296,1,123.499994346619,0|8,0:0|0:0,0:0:0:0:
321,35,72791,2,0,L|332:59,1,14.2499995651245
424,97,72957,6,0,B|366:66|313:63|248:90|248:90|297:84|324:109,1,246.999988693238,6|8,0:0|0:0,0:0:0:0:
128,224,73454,2,0,P|125:166|119:87,1,123.499994346619,0|2,0:0|0:0,0:0:0:0:
512,361,73785,1,0,0:0:0:0:
512,361,73868,1,0,0:0:0:0:
512,361,73951,1,8,0:0:0:0:
128,224,74117,1,4,0:0:0:0:
510,270,74283,6,0,L|423:293,1,71.2500027179719,8|0,0:0|0:0,0:0:0:0:
220,352,74448,1,4,0:0:0:0:
418,306,74614,6,0,L|331:283,1,71.2500027179719,8|0,0:0|0:0,0:0:0:0:
128,224,74779,1,4,0:0:0:0:
340,266,74946,6,0,L|253:289,1,71.2500027179719,8|0,0:0|0:0,0:0:0:0:
50,348,75111,1,4,0:0:0:0:
259,266,75277,6,0,P|210:251|186:231,1,71.2500027179719,8|0,0:0|0:0,0:0:0:0:
0,180,75443,2,0,P|30:161|64:153,1,71.2500027179719,8|0,0:0|0:0,0:0:0:0:
115,43,75609,6,0,P|103:159|94:292,1,246.999988693238,6|8,0:0|0:0,0:0:0:0:
469,131,76106,2,0,P|394:91|336:103,1,123.499994346619,0|2,0:0|0:0,0:0:0:0:
194,239,76437,2,0,P|254:237|304:202,1,123.499994346619,0|8,0:0|0:0,0:0:0:0:
229,7,76769,1,0,0:0:0:0:
407,278,76935,5,2,0:0:0:0:
406,272,77018,1,0,0:0:0:0:
405,266,77100,1,0,0:0:0:0:
491,45,77266,1,8,0:0:0:0:
468,321,77432,2,0,L|331:301,1,123.499994346619,0|2,0:0|0:0,0:0:0:0:
302,383,77763,2,0,L|165:363,1,123.499994346619,0|8,0:0|0:0,0:0:0:0:
97,108,78095,2,0,L|102:132,1,14.2499995651245
0,159,78261,6,0,B|60:192|118:157|118:157|180:115|257:142,1,246.999988693238,6|8,0:0|0:0,0:0:0:0:
439,239,78758,2,0,P|371:248|327:190,1,123.499994346619,0|2,0:0|0:0,0:0:0:0:
512,115,79089,1,0,0:0:0:0:
512,115,79172,1,0,0:0:0:0:
512,115,79255,1,8,0:0:0:0:
83,21,79421,1,4,0:0:0:0:
465,47,79587,6,0,L|367:72,1,71.2500027179719,8|0,0:0|0:0,0:0:0:0:
163,121,79752,1,4,0:0:0:0:
387,93,79918,6,0,L|289:68,1,71.2500027179719,8|0,0:0|0:0,0:0:0:0:
83,21,80084,1,4,0:0:0:0:
292,57,80250,6,0,L|194:82,1,71.2500027179719,8|0,0:0|0:0,0:0:0:0:
0,128,80415,1,4,0:0:0:0:
197,50,80581,5,8,0:0:0:0:
201,103,80663,1,8,0:0:0:0:
206,156,80746,1,8,0:0:0:0:
210,209,80829,1,8,0:0:0:0:
215,262,80913,5,6,0:0:0:0:
321,181,81078,1,0,0:0:0:0:
108,238,81244,1,10,0:0:0:0:
328,354,81410,1,0,0:0:0:0:
201,103,81576,1,2,0:0:0:0:
14,274,81741,1,0,0:0:0:0:
210,209,81907,1,10,0:0:0:0:
0,132,82073,5,4,0:0:0:0:
99,363,82239,1,2,0:0:0:0:
181,94,82404,1,4,0:0:0:0:
212,316,82570,1,10,0:0:0:0:
342,128,82736,1,4,0:0:0:0:
320,301,82902,1,2,0:0:0:0:
467,204,83067,1,4,0:0:0:0:
414,333,83233,1,10,0:0:0:0:
413,89,83399,1,0,0:0:0:0:
413,89,83482,1,0,0:0:0:0:
413,89,83564,5,6,0:0:0:0:
276,39,83730,1,0,0:0:0:0:
153,174,83896,1,10,0:0:0:0:
322,149,84062,1,0,0:0:0:0:
322,149,84145,1,0,0:0:0:0:
322,149,84227,1,2,0:0:0:0:
120,16,84393,1,0,0:0:0:0:
237,260,84559,1,10,0:0:0:0:
425,62,84725,5,4,0:0:0:0:
143,96,84890,1,2,0:0:0:0:
401,171,85056,1,4,0:0:0:0:
189,196,85222,1,10,0:0:0:0:
371,260,85388,1,4,0:0:0:0:
231,282,85553,1,2,0:0:0:0:
331,339,85719,1,4,0:0:0:0:
0,143,85885,1,8,0:0:0:0:
61,136,85967,1,8,0:0:0:0:
122,129,86050,1,8,0:0:0:0:
184,122,86133,1,8,0:0:0:0:
245,115,86216,5,14,0:0:0:0:
410,210,86382,1,0,0:0:0:0:
178,215,86548,1,10,0:0:0:0:
474,108,86714,1,0,0:0:0:0:
148,44,86879,1,2,0:0:0:0:
504,266,87045,1,0,0:0:0:0:
318,155,87211,1,10,0:0:0:0:
507,15,87377,5,4,0:0:0:0:
413,300,87542,1,2,0:0:0:0:
343,27,87708,1,4,0:0:0:0:
329,266,87873,1,10,0:0:0:0:
194,102,88040,1,4,0:0:0:0:
224,288,88205,1,2,0:0:0:0:
95,207,88371,1,4,0:0:0:0:
161,344,88537,1,10,0:0:0:0:
161,344,88620,1,8,0:0:0:0:
161,344,88703,1,8,0:0:0:0:
161,344,88785,1,8,0:0:0:0:
161,344,88868,6,0,P|83:314|0:369,1,185.249991519928,14|0,0:0|0:0,0:0:0:0:
2,364,89200,1,8,0:0:0:0:
192,224,89366,2,0,P|276:194|350:244,1,185.249991519928,2|0,0:0|0:0,0:0:0:0:
350,244,89697,1,8,0:0:0:0:
84,57,89863,2,0,L|98:188,1,123.499994346619
134,258,90111,5,8,0:3:0:0:
134,258,90194,2,8,P|157:232|192:224,1,71.2500027179719,8|8,0:3|0:3,0:3:0:0:
257,119,90360,2,8,P|213:103|194:70,1,71.2500027179719,8|8,0:3|0:3,0:3:0:0:
362,226,90526,6,8,L|359:190,1,35.625001358986,8|8,0:3|0:3,0:3:0:0:
432,69,90692,2,8,L|429:104,1,35.625001358986,8|8,0:3|0:3,0:3:0:0:
483,209,90857,6,0,B|404:267|296:174|296:174|183:112|101:193|101:193|164:156|226:207,1,534.375020384789,4|0,0:0|0:0,0:0:0:0:
352,320,92183,6,0,L|331:52,1,249.375009512902,4|0,0:0|0:0,0:0:0:0:
238,15,92846,6,0,L|257:264,1,249.375009512902,4|0,0:0|0:0,0:0:0:0:
209,334,93509,6,0,B|171:344|141:365|141:365|60:314|4:215|83:116|238:217|76:370|76:370|44:345|-22:340,2,570.000021743775,4|0|0,0:0|0:0|0:0,0:0:0:0:
