osu file format v14

[General]
AudioFilename: audio.mp3
AudioLeadIn: 0
PreviewTime: 47660
Countdown: 0
SampleSet: Soft
StackLeniency: 0.7
Mode: 2
LetterboxInBreaks: 0
WidescreenStoryboard: 1

[Editor]
Bookmarks: 66049
DistanceSpacing: 0.9
BeatDivisor: 4
GridSize: 4
TimelineZoom: 2.799999

[Metadata]
Title:Guren no Yumiya
TitleUnicode:紅蓮の弓矢
Artist:Roselia
ArtistUnicode:Roselia
Creator:Xinely
Version:Shingeki no Nely
Source:バンドリ! ガールズバンドパーティ!
Tags:BanG Dream! Girls Band Party Mbomb Deif Ascendance ロゼリア 湊 友希那 Yukina Minato 相羽 あいな Aiba Aina 氷川 紗夜 Sayo Hikawa 工藤晴香 Kudou Haruka 今井 リサ Nakashima Yuki 遠藤ゆりか Endou Yurika 今井 リサ Lisa Imai 宇田川 あこ Ako Udagawa 桜川 めぐ Sakuragawa Megu 白金 燐子 Rinko Shirokane 明坂聡美 Akesaka Satomi 進撃の巨人 Shingeki no Kyojin Attack on Titan Linked Horizon video game japanese
BeatmapID:2167209
BeatmapSetID:1035584

[Difficulty]
HPDrainRate:7
CircleSize:4
OverallDifficulty:9.2
ApproachRate:9.2
SliderMultiplier:1.9
SliderTickRate:1

[Events]
//Background and Video events
0,0,"yukinyaan.jpg",0,0
//Break Periods
//Storyboard Layer 0 (Background)
//Storyboard Layer 1 (Fail)
//Storyboard Layer 2 (Pass)
//Storyboard Layer 3 (Foreground)
//Storyboard Layer 4 (Overlay)
//Storyboard Sound Samples

[TimingPoints]
-1317,331.491712707182,4,2,1,70,1,0
1334,-133.333333333333,4,2,1,60,0,0
3986,-90.9090909090909,4,2,1,80,0,0
11942,-90.9090909090909,4,2,0,80,0,0
12025,-90.9090909090909,4,2,1,80,0,0
15920,-133.333333333333,4,2,2,50,0,0
26031,-100,4,2,1,75,0,0
41776,-100,4,2,1,80,0,0
42274,-100,4,2,1,75,0,0
44263,-76.9230769230769,4,2,1,75,0,0
44926,-100,4,2,1,75,0,0
47578,-76.9230769230769,4,2,1,75,0,0
47743,-86.9565217391304,4,2,1,90,0,1
52218,-66.6666666666667,4,2,1,90,0,1
52716,-86.9565217391304,4,2,1,90,0,1
57191,-62.5,4,2,1,90,0,1
58351,-86.9565217391304,4,2,1,90,0,1
62826,-66.6666666666667,4,2,1,90,0,1
63323,-86.9565217391304,4,2,1,90,0,1
66307,-90.9090909090909,4,2,1,75,0,0
67136,-133.333333333333,4,2,1,75,0,0
67633,-90.9090909090909,4,2,1,75,0,0
78241,-86.9565217391304,4,2,1,75,0,1
81555,-86.9565217391304,4,2,2,75,0,1
81887,-86.9565217391304,4,2,1,75,0,1
82218,-86.9565217391304,4,2,2,75,0,1
82550,-86.9565217391304,4,2,1,75,0,1
82633,-86.9565217391304,4,2,2,75,0,1
82881,-86.9565217391304,4,2,1,75,0,1
87522,-86.9565217391304,4,2,1,60,0,1
88185,331.491712707182,4,2,1,75,1,0
88185,-133.333333333333,4,2,1,75,0,0
89510,-100,4,2,1,75,0,0
93488,-100,4,2,1,5,0,0

[Colours]
Combo1 : 129,129,192
Combo2 : 128,64,64
Combo3 : 255,128,128
Combo4 : 128,128,128

[HitObjects]
208,290,1334,5,4,0:0:0:0:
134,253,1500,1,0,0:0:0:0:
62,207,1666,1,0,0:0:0:0:
220,191,1832,2,0,L|362:191,1,142.500005435944,2|2,0:0|0:0,0:0:0:0:
480,196,2329,1,0,0:0:0:0:
176,232,2495,6,0,P|129:236|84:270,1,71.2500027179719,2|0,0:0|0:0,0:0:0:0:
198,320,2826,1,2,0:0:0:0:
61,316,2992,1,0,0:0:0:0:
288,232,3158,2,0,L|386:222,1,71.2500027179719,2|0,0:0|0:0,0:0:0:0:
273,233,3489,2,0,B|220:242|220:242|205:234,2,71.2500027179719,2|0|0,0:0|0:0|0:0,0:0:0:0:
39,215,3986,6,0,L|32:110,1,104.500003189087,4|0,1:0|0:0,0:0:0:0:
183,211,4318,1,8,0:0:0:0:
79,215,4484,2,0,L|213:210,1,104.500003189087,2|0,0:0|0:0,0:0:0:0:
416,211,4815,1,2,0:0:0:0:
412,116,4981,1,8,0:0:0:0:
152,114,5147,1,2,0:0:0:0:
50,113,5312,5,0,0:0:0:0:
292,187,5478,1,2,0:0:0:0:
194,190,5644,1,8,0:0:0:0:
456,189,5810,1,2,0:0:0:0:
457,272,5975,1,0,0:0:0:0:
176,191,6141,1,2,0:0:0:0:
82,185,6307,1,8,0:0:0:0:
228,191,6473,2,0,L|229:122,1,52.2500015945435
381,109,6638,6,0,L|513:93,2,104.500003189087,2|0|8,0:0|0:0|0:0,0:0:0:0:
93,132,7136,1,2,0:0:0:0:
197,121,7301,1,0,0:0:0:0:
471,255,7467,1,2,0:0:0:0:
469,170,7633,1,8,0:0:0:0:
109,238,7799,1,2,0:0:0:0:
207,238,7964,5,0,0:0:0:0:
477,238,8130,1,2,0:0:0:0:
389,234,8296,1,8,0:0:0:0:
76,152,8462,1,2,0:0:0:0:
175,152,8627,1,0,0:0:0:0:
419,167,8793,1,2,0:0:0:0:
290,197,8959,1,8,0:0:0:0:
391,287,9125,2,0,L|398:353,1,52.2500015945435
191,243,9290,6,0,P|259:287|307:299,1,104.500003189087,4|0,1:0|0:0,0:0:0:0:
433,278,9622,1,8,0:0:0:0:
94,145,9788,1,2,0:0:0:0:
190,144,9953,1,0,0:0:0:0:
429,182,10119,2,0,L|433:70,1,104.500003189087,2|8,0:0|0:0,0:0:0:0:
252,136,10450,2,0,L|386:132,1,104.500003189087,2|0,0:0|0:0,0:0:0:0:
59,154,10782,6,0,L|63:38,1,104.500003189087,2|8,0:0|0:0,0:0:0:0:
216,148,11113,2,0,L|71:146,1,104.500003189087,2|0,0:0|0:0,0:0:0:0:
352,214,11445,2,0,L|230:241,1,104.500003189087,2|8,0:0|0:0,0:0:0:0:
420,272,11776,2,0,L|485:273,1,52.2500015945435
281,308,11942,6,0,P|201:310|133:296,2,104.500003189087,2|0|8,0:0|0:0|0:0,0:0:0:0:
464,268,12439,1,2,0:0:0:0:
462,179,12605,1,0,0:0:0:0:
181,263,12771,1,2,0:0:0:0:
185,166,12937,1,8,0:0:0:0:
462,179,13102,1,2,0:0:0:0:
368,178,13268,5,0,0:0:0:0:
87,232,13434,1,2,0:0:0:0:
89,148,13600,1,8,0:0:0:0:
423,173,13765,1,2,0:0:0:0:
275,96,13931,5,0,0:0:0:0:
318,97,14014,1,0,0:0:0:0:
401,106,14097,2,0,L|400:160,1,52.2500015945435,2|0,0:0|0:0,0:0:0:0:
248,176,14263,2,0,L|195:173,1,52.2500015945435,8|0,0:0|0:0,0:0:0:0:
32,156,14428,1,0,0:0:0:0:
68,168,14511,1,0,0:0:0:0:
369,226,14594,5,4,1:0:0:0:
140,226,14760,1,8,0:0:0:0:
388,278,14926,1,8,0:0:0:0:
113,282,15091,1,2,0:3:0:0:
286,336,15257,1,8,0:0:0:0:
162,340,15423,1,8,0:0:0:0:
332,276,15589,6,0,L|279:278,1,52.2500015945435,8|8,0:0|0:0,0:0:0:0:
121,280,15754,2,0,L|173:282,1,52.2500015945435,8|8,0:0|0:0,0:0:0:0:
361,310,15920,6,0,P|421:294|514:339,2,142.500005435944,4|0|0,1:0|0:0|0:0,0:0:0:0:
226,310,16915,1,0,0:0:0:0:
393,230,17246,6,0,L|321:230,1,71.2500027179719
216,229,17578,2,0,L|308:229,1,71.2500027179719
19,118,17909,2,0,L|90:118,1,71.2500027179719,2|0,0:0|0:0,0:0:0:0:
207,188,18241,2,0,L|115:188,1,71.2500027179719
397,276,18572,6,0,P|422:210|398:145,1,142.500005435944,2|0,0:0|0:0,0:0:0:0:
232,166,19069,1,0,0:0:0:0:
336,185,19235,2,0,L|348:93,1,71.2500027179719
214,168,19567,2,0,L|226:76,1,71.2500027179719
411,100,19898,6,0,L|420:170,1,71.2500027179719
305,113,20230,2,0,L|314:183,1,71.2500027179719
50,140,20561,2,0,P|85:142|120:152,1,71.2500027179719,2|0,0:0|0:0,0:0:0:0:
123,230,20892,2,0,P|88:240|53:241,1,71.2500027179719
316,267,21224,6,0,P|347:204|313:136,1,142.500005435944,2|0,0:0|0:0,0:0:0:0:
194,135,21721,1,0,0:0:0:0:
291,116,21887,2,0,L|200:118,1,71.2500027179719
392,196,22218,2,0,L|300:193,1,71.2500027179719
219,117,22550,6,0,L|217:208,1,71.2500027179719
392,110,22881,2,0,L|387:207,1,71.2500027179719
38,110,23213,2,0,L|30:203,1,71.2500027179719,2|0,0:0|0:0,0:0:0:0:
146,246,23544,2,0,L|62:251,1,71.2500027179719
313,246,23876,6,0,L|409:242,1,71.2500027179719,2|0,0:0|0:0,0:0:0:0:
218,243,24207,2,0,L|147:246,1,71.2500027179719
19,168,24539,2,0,L|115:164,2,71.2500027179719
297,161,25036,6,0,L|369:151,1,71.2500027179719,2|0,0:0|0:0,0:0:0:0:
255,93,25368,1,0,0:0:0:0:
156,83,25533,1,0,0:0:0:0:
391,205,25699,2,0,L|492:189,1,71.2500027179719,2|0,0:0|0:0,0:0:0:0:
97,198,26031,1,8,0:0:0:0:
246,193,26196,1,0,0:0:0:0:
197,181,26279,1,0,0:0:0:0:
147,185,26362,1,0,0:0:0:0:
97,198,26445,1,0,0:0:0:0:
259,244,26528,6,0,P|309:224|379:203,1,95,4|0,1:0|0:0,0:0:0:0:
223,183,26859,2,0,L|222:310,1,95,2|0,0:3|0:0,0:0:0:0:
72,232,27191,1,2,0:3:0:0:
200,292,27357,1,0,0:0:0:0:
349,259,27522,1,2,0:3:0:0:
124,166,27688,2,0,L|196:162,1,47.5
344,169,27854,6,0,P|360:222|341:268,1,95,2|0,0:3|0:0,0:0:0:0:
194,261,28185,2,0,L|97:262,2,95,2|0|0,0:3|0:0|0:0,0:0:0:0:
439,232,28683,2,0,L|486:231,2,47.5,2|0|0,0:0|0:0|0:0,0:0:0:0:
292,267,29014,1,2,0:0:0:0:
292,235,29097,1,0,0:0:0:0:
130,235,29180,6,0,L|32:215,1,95,2|0,0:3|0:0,0:0:0:0:
140,151,29511,1,2,0:3:0:0:
237,115,29677,1,0,0:0:0:0:
343,83,29843,1,2,0:3:0:0:
40,62,30008,2,0,L|134:72,2,95,0|2|0,0:0|0:3|0:0,0:0:0:0:
324,154,30506,6,0,P|332:106|308:58,1,95,2|0,0:3|0:0,0:0:0:0:
186,72,30837,2,0,P|169:115|176:161,1,95,2|0,0:3|0:0,0:0:0:0:
324,154,31169,1,2,0:3:0:0:
93,237,31334,2,0,L|-21:200,2,95,2|0|2,0:0|0:0|0:0,0:0:0:0:
326,114,31832,6,0,P|370:138|438:138,1,95,2|0,0:3|0:0,0:0:0:0:
498,100,32163,1,2,0:3:0:0:
408,61,32329,1,0,0:0:0:0:
222,88,32495,2,0,L|220:188,1,95,2|0,0:3|0:0,0:0:0:0:
294,154,32826,1,2,0:3:0:0:
173,80,32992,1,0,0:0:0:0:
436,190,33158,6,0,L|428:290,1,95,2|0,0:3|0:0,0:0:0:0:
251,104,33489,2,0,L|243:198,1,95,2|0,0:3|0:0,0:0:0:0:
428,42,33821,2,0,L|420:136,1,95,2|0,0:3|0:0,0:0:0:0:
259,248,34152,1,2,0:2:0:0:
303,243,34235,1,0,0:0:0:0:
347,243,34318,2,0,P|372:242|406:253,1,47.5
225,298,34484,6,0,P|148:296|115:279,1,95,2|0,0:3|0:0,0:0:0:0:
225,230,34815,1,2,0:3:0:0:
26,219,34981,1,0,0:0:0:0:
147,209,35147,1,2,0:3:0:0:
406,177,35312,2,0,L|398:82,1,95,0|2,0:0|0:3,0:0:0:0:
106,77,35644,2,0,L|99:172,1,95,0|2,0:0|0:3,0:0:0:0:
386,212,35975,5,8,0:0:0:0:
390,263,36058,1,8,0:0:0:0:
221,147,36141,2,0,L|213:67,1,47.5,8|0,0:0|0:0,0:0:0:0:
431,202,36307,2,0,L|423:266,1,47.5,8|0,0:0|0:0,0:0:0:0:
159,230,36473,2,0,L|143:154,1,47.5,8|0,0:0|0:0,0:0:0:0:
326,321,36638,2,0,L|178:341,1,142.5,4|0,0:0|0:0,0:0:0:0:
124,347,36970,1,0,0:0:0:0:
372,142,37136,6,0,P|444:138|524:158,1,142.5,4|0,0:0|0:0,0:0:0:0:
372,142,37467,2,0,L|296:207,1,95,8|0,0:0|0:0,0:0:0:0:
124,200,37799,2,0,L|237:212,1,95,2|2,0:3|0:3,0:0:0:0:
462,304,38130,1,8,0:0:0:0:
340,312,38296,1,0,0:0:0:0:
212,264,38462,5,10,3:2:0:0:
349,227,38627,1,2,0:3:0:0:
65,279,38793,2,0,L|113:187,1,95,8|0,0:0|0:0,0:0:0:0:
260,81,39125,2,0,L|336:76,1,47.5,8|0,0:2|0:0,0:0:0:0:
454,100,39291,2,0,L|440:170,1,47.5,2|0,0:3|0:0,0:0:0:0:
276,216,39457,5,2,0:3:0:0:
203,215,39539,1,2,0:3:0:0:
126,215,39622,1,2,0:3:0:0:
43,214,39705,1,2,0:3:0:0:
357,278,39788,6,0,P|381:218|349:150,1,142.5,4|0,0:0|0:0,0:0:0:0:
102,122,40119,2,0,L|115:174,1,47.5,8|2,0:0|0:3,0:0:0:0:
284,223,40285,1,2,0:3:0:0:
355,224,40368,1,2,0:3:0:0:
512,203,40450,6,0,P|444:243|372:227,1,142.5,4|0,0:0|0:0,0:0:0:0:
119,130,40782,2,0,L|47:127,1,47.5,2|2,0:3|0:3,0:0:0:0:
269,127,40948,2,0,L|316:129,1,47.5,2|2,0:3|0:3,0:0:0:0:
113,301,41113,6,0,P|58:269|128:190,1,190,4|0,0:0|0:0,0:0:0:0:
293,280,41528,1,2,0:3:0:0:
378,282,41611,1,2,0:3:0:0:
461,280,41694,1,2,0:3:0:0:
163,187,41776,6,0,L|164:116,1,47.5,4|0,0:0|0:0,0:0:0:0:
365,102,41942,2,0,L|422:99,1,47.5,10|0,0:3|0:3,0:0:0:0:
220,122,42108,2,0,L|166:112,1,47.5,10|0,0:3|0:3,0:0:0:0:
406,227,42274,6,0,P|458:264|375:340,1,190,4|0,0:0|0:0,0:0:0:0:
121,327,42771,2,0,P|109:293|126:233,1,95,8|0,0:0|0:0,0:0:0:0:
281,222,43102,2,0,P|313:185|280:171,1,95,2|0,0:3|0:0,0:0:0:0:
144,167,43434,2,0,L|143:293,1,95,8|0,0:0|0:0,0:0:0:0:
440,153,43765,6,0,P|411:144|388:141,1,47.5,4|0,0:0|0:0,0:0:0:0:
203,113,43931,2,0,L|142:130,1,47.5,8|0,0:0|0:0,0:0:0:0:
418,252,44097,2,0,L|496:269,1,47.5,8|0,0:0|0:0,0:0:0:0:
202,285,44263,6,0,P|122:273|129:171,1,185.249991519928,2|0,0:0|0:0,0:0:0:0:
306,206,44594,2,0,P|367:205|421:275,1,123.499994346619,2|0,0:0|0:0,0:0:0:0:
24,182,44926,6,0,L|119:182,2,95,4|0|0,0:0|0:0|0:0,0:0:0:0:
298,198,45423,2,0,P|314:241|299:285,1,95,8|0,0:0|0:0,0:0:0:0:
126,285,45754,2,0,P|111:240|127:197,1,95,2|0,0:3|0:0,0:0:0:0:
416,99,46086,1,8,0:0:0:0:
311,104,46252,1,0,0:0:0:0:
76,194,46417,5,10,0:0:0:0:
249,202,46583,1,2,0:3:0:0:
76,194,46749,1,8,0:0:0:0:
249,202,46915,1,2,0:3:0:0:
19,258,47080,5,8,0:0:0:0:
76,257,47163,1,8,0:0:0:0:
251,259,47246,1,8,0:0:0:0:
303,269,47329,1,8,0:0:0:0:
31,149,47412,2,0,L|78:148,1,47.5,8|8,0:0|0:0,0:0:0:0:
242,152,47578,2,0,L|329:160,1,61.7499971733095,8|8,0:0|0:0,0:0:0:0:
512,214,47743,6,0,L|402:221,1,109.250002083778,4|0,1:0|0:0,0:0:0:0:
262,223,48075,1,8,0:0:0:0:
446,216,48241,2,0,P|462:160|426:100,1,109.250002083778
143,68,48572,1,2,0:3:0:0:
279,67,48738,1,8,0:0:0:0:
10,115,48904,6,0,L|13:224,1,109.250002083778
187,214,49235,1,2,0:3:0:0:
412,214,49401,1,8,0:0:0:0:
284,320,49567,2,0,P|224:332|160:308,1,109.250002083778,0|2,0:0|0:3,0:0:0:0:
33,292,49898,1,2,0:3:0:0:
341,190,50064,1,8,0:0:0:0:
458,197,50229,1,0,0:0:0:0:
104,302,50395,6,0,P|154:323|208:319,1,109.250002083778,6|0,0:2|0:0,0:0:0:0:
361,281,50727,1,8,0:0:0:0:
112,221,50892,1,0,0:0:0:0:
228,223,51058,1,2,0:3:0:0:
25,181,51224,2,0,L|169:183,1,109.250002083778,2|8,0:3|0:0,0:0:0:0:
438,191,51555,6,0,P|505:151|424:57,1,218.500004167557,4|2,0:0|0:3,0:0:0:0:
364,54,52053,1,8,0:0:0:0:
132,62,52218,6,0,P|72:134|134:224,1,213.750008153916,2|0,0:0|0:0,0:0:0:0:
327,196,52550,2,0,P|298:176|255:168,1,71.2500027179719,2|0,0:0|0:0,0:0:0:0:
69,163,52716,1,8,0:0:0:0:
62,242,52799,1,8,0:0:0:0:
280,166,52881,1,8,0:0:0:0:
296,242,52964,1,8,0:0:0:0:
115,49,53047,6,0,L|-37:49,1,109.250002083778,4|0,1:0|0:0,0:0:0:0:
308,112,53379,1,8,0:0:0:0:
134,154,53544,2,0,B|146:284,1,109.250002083778,0|2,0:0|0:3,0:0:0:0:
265,230,53876,1,2,0:3:0:0:
367,191,54042,1,8,0:0:0:0:
21,270,54207,6,0,P|129:298|169:190,1,218.500004167557,2|2,0:3|0:3,0:0:0:0:
15,153,54705,1,8,0:0:0:0:
338,158,54870,1,0,0:0:0:0:
447,152,55036,1,2,0:3:0:0:
333,89,55202,1,2,0:3:0:0:
38,143,55368,1,8,0:0:0:0:
160,194,55533,1,0,0:0:0:0:
414,131,55699,6,0,L|278:135,1,109.250002083778,6|2,0:2|0:3,0:0:0:0:
182,127,56031,1,8,0:0:0:0:
418,202,56196,2,0,L|282:206,1,109.250002083778,2|2,0:0|0:3,0:0:0:0:
80,192,56528,1,2,0:3:0:0:
413,291,56694,1,8,0:0:0:0:
59,315,56859,2,0,L|60:189,1,109.250002083778,8|2,0:0|0:3,0:0:0:0:
337,42,57191,6,0,L|504:51,2,152,8|0|0,0:0|0:0|0:0,0:0:0:0:
60,154,57688,1,8,0:0:0:0:
27,152,57771,1,0,0:0:0:0:
25,113,57854,1,2,0:3:0:0:
66,121,57937,1,0,0:0:0:0:
306,153,58020,1,8,0:0:0:0:
307,116,58102,1,0,0:0:0:0:
99,156,58185,1,0,0:0:0:0:
48,154,58268,1,0,0:0:0:0:
360,146,58351,6,0,L|491:144,2,109.250002083778,4|0|8,1:0|0:0|0:0,0:0:0:0:
246,275,58848,2,0,P|330:267|394:279,1,109.250002083778,0|2,0:0|0:3,0:0:0:0:
232,128,59180,2,0,P|148:120|84:132,1,109.250002083778,2|8,0:3|0:0,0:0:0:0:
368,274,59511,6,0,P|436:254|366:155,1,218.500004167557,2|2,0:3|0:3,0:0:0:0:
123,122,60008,1,8,0:0:0:0:
292,128,60174,2,0,L|164:136,1,109.250002083778,0|2,0:0|0:3,0:0:0:0:
60,160,60506,1,2,0:3:0:0:
322,108,60671,1,8,0:0:0:0:
411,133,60837,1,0,0:0:0:0:
48,136,61003,5,4,0:0:0:0:
174,179,61169,1,2,0:3:0:0:
3,231,61334,1,8,0:0:0:0:
226,278,61500,2,0,P|286:274|352:268,1,109.250002083778,0|2,0:0|0:3,0:0:0:0:
190,198,61832,2,0,L|61:190,1,109.250002083778,2|8,0:3|0:0,0:0:0:0:
360,284,62163,6,0,P|428:220|344:136,1,218.500004167557,4|0,0:0|0:0,0:0:0:0:
39,132,62660,1,8,0:0:0:0:
263,240,62826,6,0,B|315:264|379:232|379:232|349:198|308:125,1,213.750008153916,2|0,0:0|0:0,0:0:0:0:
137,174,63158,2,0,L|131:96,1,71.2500027179719,2|0,0:0|0:0,0:0:0:0:
292,163,63323,2,0,P|314:178|331:199,1,54.6250010418892,8|8,0:0|0:0,0:0:0:0:
171,216,63489,2,0,P|148:200|131:179,1,54.6250010418892,8|8,0:0|0:0,0:0:0:0:
366,264,63655,6,0,L|457:199,1,109.250002083778,4|0,1:0|0:0,0:0:0:0:
221,178,63986,1,8,0:0:0:0:
377,209,64152,2,0,P|392:260|371:310,1,109.250002083778,0|2,0:0|0:3,0:0:0:0:
223,280,64484,1,2,0:3:0:0:
418,229,64649,1,8,0:0:0:0:
148,174,64815,6,0,B|29:214|29:214|147:238,1,218.500004167557,2|2,0:3|0:3,0:0:0:0:
397,203,65312,1,8,0:0:0:0:
396,115,65478,1,2,0:3:0:0:
130,124,65644,6,0,L|136:40,1,54.6250010418892,8|0,0:0|0:0,0:0:0:0:
326,232,65810,2,0,L|322:286,1,54.6250010418892,2|0,0:3|0:0,0:0:0:0:
115,272,65975,2,0,L|55:272,1,54.6250010418892,8|2,0:0|0:3,0:0:0:0:
266,212,66141,2,0,L|334:216,1,54.6250010418892,2|2,0:3|0:3,0:0:0:0:
60,272,66307,5,4,0:0:0:0:
378,107,67301,2,0,P|405:145|354:205,1,106.875004076958
146,202,67633,6,0,L|277:203,1,104.500003189087,4|0,0:0|0:0,0:0:0:0:
382,195,67964,1,8,0:0:0:0:
145,121,68130,1,2,0:0:0:0:
249,119,68296,1,0,0:0:0:0:
437,116,68462,1,2,0:0:0:0:
438,194,68627,1,8,0:0:0:0:
245,208,68793,5,2,0:0:0:0:
336,212,68958,1,0,0:0:0:0:
68,175,69125,1,2,0:0:0:0:
185,176,69290,1,8,0:0:0:0:
447,246,69456,1,2,0:0:0:0:
333,249,69621,1,0,0:0:0:0:
68,175,69788,1,2,0:0:0:0:
157,112,69953,1,8,0:0:0:0:
15,96,70119,2,0,L|67:96,1,52.2500015945435
323,141,70285,6,0,P|262:186|189:167,1,156.750004783631,2|0,0:0|0:0,0:0:0:0:
65,132,70616,2,0,L|140:213,1,104.500003189087,8|2,0:0|0:0,0:0:0:0:
384,208,70948,1,0,0:0:0:0:
131,158,71113,2,0,L|-11:168,1,104.500003189087,2|8,0:0|0:0,0:0:0:0:
289,229,71445,6,0,L|147:239,1,104.500003189087,2|0,0:0|0:0,0:0:0:0:
428,293,71776,2,0,L|286:303,1,104.500003189087,2|8,0:0|0:0,0:0:0:0:
41,260,72108,1,2,0:0:0:0:
147,263,72274,1,0,0:0:0:0:
402,126,72439,2,0,L|280:124,1,104.500003189087,2|0,0:0|0:0,0:0:0:0:
132,181,72771,2,0,L|64:157,1,52.2500015945435,8|0,0:0|0:0,0:0:0:0:
254,272,72937,6,0,L|359:287,2,104.500003189087,4|0|8,1:0|0:0|0:0,0:0:0:0:
485,213,73434,1,2,0:0:0:0:
481,120,73600,1,0,0:0:0:0:
164,128,73765,2,0,L|32:108,1,104.500003189087,2|8,0:0|0:0,0:0:0:0:
352,232,74097,2,0,L|484:212,1,104.500003189087,2|0,0:0|0:0,0:0:0:0:
86,242,74428,6,0,L|110:370,1,104.500003189087,2|8,0:0|0:0,0:0:0:0:
411,128,74760,2,0,L|391:25,1,104.500003189087,2|0,0:0|0:0,0:0:0:0:
112,74,75091,1,2,0:0:0:0:
285,77,75257,1,8,0:0:0:0:
111,208,75423,2,0,L|56:200,1,52.2500015945435
212,279,75589,6,0,P|277:317|349:293,1,156.750004783631,2|0,0:0|0:0,0:0:0:0:
422,256,75920,1,8,0:0:0:0:
153,132,76086,2,0,P|106:110|55:118,1,104.500003189087,2|0,0:0|0:0,0:0:0:0:
464,252,76417,2,0,P|408:260|360:232,1,104.500003189087,2|8,0:0|0:0,0:0:0:0:
58,256,76749,6,0,P|109:264|156:243,1,104.500003189087,2|0,0:0|0:0,0:0:0:0:
470,106,77080,2,0,P|414:114|366:86,1,104.500003189087,2|8,0:0|0:0,0:0:0:0:
125,76,77412,1,2,0:0:0:0:
288,153,77578,5,8,0:0:0:0:
332,153,77660,1,2,0:3:0:0:
191,149,77743,2,0,L|139:149,1,52.2500015945435,2|2,0:3|0:3,0:0:0:0:
336,254,77909,1,8,0:0:0:0:
296,256,77992,1,2,0:3:0:0:
79,253,78075,2,0,L|132:253,1,52.2500015945435,2|2,0:3|0:3,0:0:0:0:
390,228,78241,5,4,1:0:0:0:
220,214,78406,1,2,0:3:0:0:
445,114,78572,1,8,0:0:0:0:
127,96,78738,1,2,0:3:0:0:
272,104,78904,1,8,0:0:0:0:
24,160,79069,1,2,0:3:0:0:
266,161,79235,1,8,0:0:0:0:
510,156,79401,1,2,0:3:0:0:
364,184,79567,5,8,0:0:0:0:
53,180,79732,1,2,0:3:0:0:
230,186,79898,1,8,0:0:0:0:
498,195,80064,1,2,0:3:0:0:
240,290,80229,1,8,0:0:0:0:
397,269,80395,1,2,0:3:0:0:
83,243,80561,1,8,0:0:0:0:
240,290,80727,1,2,0:3:0:0:
278,286,80810,1,0,0:0:0:0:
450,238,80892,5,4,1:0:0:0:
294,195,81058,1,2,0:3:0:0:
449,194,81224,1,8,0:0:0:0:
158,149,81390,1,0,0:0:0:0:
383,135,81555,2,0,L|395:207,1,72.833334722519,2|0,0:0|0:0,0:0:0:0:
147,319,81776,2,0,L|136:248,1,72.833334722519,2|8,0:0|0:0,0:0:0:0:
261,211,81997,2,0,L|272:282,1,72.833334722519
75,320,82218,6,0,L|8:294,2,72.833334722519,2|0|0,0:0|0:0|0:0,0:0:0:0:
298,283,82550,2,0,L|368:265,2,72.833334722519,8|2|0,0:0|0:0|0:0,0:0:0:0:
74,252,82881,2,0,L|195:233,1,109.250002083778,8|2,0:0|0:3,0:0:0:0:
445,40,83213,1,8,0:0:0:0:
481,58,83296,1,0,0:0:0:0:
483,92,83379,1,0,0:0:0:0:
445,115,83462,1,0,0:0:0:0:
297,90,83544,6,0,L|167:92,1,109.250002083778,2|0,3:0|0:0,0:0:0:0:
0,133,83876,1,8,0:0:0:0:
159,135,84042,1,2,0:3:0:0:
450,178,84207,1,8,0:0:0:0:
296,179,84373,1,2,0:3:0:0:
31,199,84539,1,8,0:0:0:0:
161,201,84705,1,2,0:3:0:0:
479,230,84870,5,8,0:0:0:0:
252,225,85036,1,2,0:3:0:0:
20,229,85202,1,8,0:0:0:0:
172,230,85368,1,2,0:3:0:0:
37,311,85533,6,0,P|65:319|109:315,1,54.6250010418892,8|0,0:0|0:0,0:0:0:0:
262,320,85699,1,2,0:3:0:0:
302,295,85782,1,0,0:0:0:0:
302,240,85865,1,2,0:3:0:0:
260,213,85948,1,0,0:0:0:0:
54,205,86031,2,0,B|43:218|47:258,1,54.6250010418892
281,303,86196,6,0,P|362:298|443:309,1,163.875003125668,4|0,1:0|0:0,0:0:0:0:
486,335,86528,1,8,0:0:0:0:
199,314,86694,2,0,P|118:320|50:277,1,163.875003125668,8|0,0:0|0:0,0:0:0:0:
3,242,87025,1,0,0:0:0:0:
321,67,87191,2,0,P|344:125|329:183,1,109.250002083778,8|0,0:0|0:0,0:0:0:0:
260,193,87439,1,0,0:0:0:0:
87,220,87522,6,0,L|98:145,1,54.6250010418892,8|8,0:0|0:0,0:0:0:0:
373,192,87688,2,0,L|344:116,1,54.6250010418892,8|8,0:0|0:0,0:0:0:0:
149,211,87854,2,0,L|155:266,1,54.6250010418892,2|2,0:3|0:3,0:0:0:0:
392,324,88020,1,2,0:3:0:0:
428,326,88102,1,2,0:3:0:0:
111,297,88185,6,0,B|55:241|-39:257|-39:257|-1:165|143:181|143:181|50:122|67:63|133:87,1,534.375020384789,4|0,0:0|0:0,0:0:0:0:
365,164,89510,6,0,B|523:196|523:196|349:269,1,332.5,4|0,1:0|0:0,0:0:0:0:
126,170,90173,2,0,B|-32:200|-32:200|142:275,1,332.5,4|0,1:0|0:0,0:0:0:0:
432,248,90836,5,4,1:0:0:0:
256,192,91002,12,0,93488,0:0:0:0:
