osu file format v14

[General]
AudioFilename: audio.mp3
AudioLeadIn: 0
PreviewTime: 50267
Countdown: 0
SampleSet: None
StackLeniency: 0.5
Mode: 0
LetterboxInBreaks: 0
WidescreenStoryboard: 1

[Editor]
DistanceSpacing: 1
BeatDivisor: 4
GridSize: 32
TimelineZoom: 1.6

[Metadata]
Title:Guren no Yumiya
TitleUnicode:紅蓮の弓矢
Artist:Roselia
ArtistUnicode:Roselia
Creator:Mirash
Version:Extra
Source:BanG Dream! ガールズバンドパーティ!
Tags:バンドリ! Girls Band Party! ロゼリア 湊 友希那 Yukina Minato 相羽 あいな Aiba Aina 氷川 紗夜 Sayo Hikawa 工藤晴香 Kudou Haruka 今井 リサ Lisa Imai 遠藤ゆりか Endou Yurika 中島 由貴 Nakashima Yuki 宇田川 あこ Ako Udagawa 桜川 めぐ Sakuragawa Megu 白金 燐子 Rinko Shirokane 明坂聡美 Akesaka Satomi 進撃の巨人 Shingeki no Kyojin Attack on Titan Linked Horizon
BeatmapID:1738945
BeatmapSetID:829925

[Difficulty]
HPDrainRate:5
CircleSize:4
OverallDifficulty:9
ApproachRate:9.7
SliderMultiplier:2.79999990463257
SliderTickRate:1

[Events]
//Background and Video events
0,0,"misakasa.jpg",0,0
//Break Periods
//Storyboard Layer 0 (Background)
//Storyboard Layer 1 (Fail)
//Storyboard Layer 2 (Pass)
//Storyboard Layer 3 (Foreground)
//Storyboard Sound Samples

[TimingPoints]
1538,331.491712707182,4,2,1,40,1,0
4189,-138.888888888889,4,2,1,40,0,0
6841,-98.0392156862745,4,2,1,60,0,0
17449,-98.0392156862745,4,2,1,70,0,0
18775,-121.951219512195,4,2,1,60,0,0
19107,-121.951219512195,4,2,1,50,0,0
19272,-200,4,2,1,50,0,0
20930,-50,4,2,1,50,0,0
21261,-200,4,2,1,50,0,0
22753,-66.6666666666667,4,2,1,50,0,0
23084,-200,4,2,1,50,0,0
24079,-66.6666666666667,4,2,1,50,0,0
27228,-200,4,2,1,50,0,0
27891,-100,4,2,1,50,0,0
29383,-50,4,2,1,50,0,0
29714,-100,4,2,1,50,0,0
32035,-50,4,2,1,50,0,0
32366,-100,4,2,1,50,0,0
34687,-50,4,2,1,50,0,0
35018,-100,4,2,1,50,0,0
37339,-50,4,2,1,50,0,0
37670,-100,4,2,1,50,0,0
39493,-333.333333333333,4,2,1,40,0,0
39991,-100,4,2,1,50,0,0
41317,-50,4,2,1,60,0,0
42642,-50,4,2,1,75,0,0
43305,-41.6666666666667,4,2,1,75,0,0
43968,-35.7142857142857,4,2,1,75,0,0
45129,-333.333333333333,4,2,1,50,0,0
45626,-66.6666666666667,4,2,1,60,0,0
46620,-66.6666666666667,4,2,1,70,0,0
47118,-40,4,2,1,70,0,0
47781,-40,4,2,1,60,0,0
49272,-40,4,2,1,75,0,0
49935,-40,4,2,1,80,0,0
50598,-57.1428571428571,4,2,1,70,0,1
50930,-40,4,2,1,70,0,1
51178,-57.1428571428571,4,2,1,70,0,1
54410,-57.1428571428571,4,2,1,75,0,1
55073,-33.3333333333333,4,2,1,75,0,1
55571,-57.1428571428571,4,2,1,75,0,1
56234,-40,4,2,1,70,0,1
56565,-57.1428571428571,4,2,1,70,0,1
59383,-57.1428571428571,4,2,1,80,0,1
59549,-36.3636363636364,4,2,1,80,0,1
59714,-26.6666666666667,4,2,1,80,0,1
60046,-333.333333333333,4,2,1,60,0,1
60543,-33.3333333333333,4,2,1,70,0,1
60875,-26.6666666666667,4,2,1,80,0,1
61206,-57.1428571428571,4,2,1,70,0,1
61537,-40,4,2,1,70,0,1
61869,-57.1428571428571,4,2,1,70,0,1
65018,-57.1428571428571,4,2,1,75,0,1
65681,-33.3333333333333,4,2,1,75,0,1
66510,-40,4,2,1,75,0,1
66841,-40,4,2,1,70,0,1
67173,-57.1428571428571,4,2,1,70,0,1
68333,-40,4,2,1,70,0,1
68830,-40,4,2,1,75,0,1
70488,-89.2857142857143,4,2,1,70,0,0
81096,-45.4545454545455,4,2,1,70,0,0
86399,-35.7142857142857,4,2,1,70,0,0
89051,-35.7142857142857,4,2,1,80,0,0
90709,-35.7142857142857,4,2,1,75,0,0
91040,-35.7142857142857,4,2,1,70,0,0
93858,-35.7142857142857,4,2,1,60,0,0
95681,-35.7142857142857,4,2,1,55,0,0
96013,-35.7142857142857,4,2,1,50,0,0
96344,-35.7142857142857,4,2,1,45,0,0

[Colours]
Combo1 : 150,90,91
Combo2 : 187,38,43
Combo3 : 241,120,120
Combo4 : 231,219,211

[HitObjects]
468,114,4189,5,0,0:0:0:0:
447,44,4355,1,0,0:0:0:0:
378,66,4521,1,0,1:0:0:0:
399,136,4687,1,0,1:0:0:0:
407,141,5018,5,0,0:0:0:0:
476,119,5184,1,0,1:0:0:0:
455,49,5350,1,0,1:0:0:0:
439,40,5681,5,0,0:0:0:0:
370,62,5847,1,0,1:0:0:0:
391,132,6013,1,0,1:0:0:0:
137,337,6344,5,0,0:0:0:0:
66,321,6510,1,0,1:0:0:0:
137,314,6676,1,0,1:0:0:0:
281,49,6841,6,0,B|295:133|295:133|230:214|230:214|258:320,1,285.599992015686,8|0,3:0|3:0,0:0:0:0:
254,307,7339,1,4,3:0:0:0:
396,352,7504,6,0,B|426:286|426:286|400:216,1,142.799996007843,4|0,1:3|3:0,0:0:0:0:
151,76,7836,2,0,B|121:142|121:142|147:212,1,142.799996007843,0|0,3:0|0:0,0:0:0:0:
410,349,8167,6,0,B|454:295|454:295|414:213,1,142.799996007843,4|0,1:3|3:0,0:0:0:0:
137,80,8499,2,0,B|93:134|93:134|133:216,1,142.799996007843,0|4,3:0|3:0,0:0:0:0:
366,170,8830,5,4,3:0:0:0:
174,268,8996,1,0,1:0:0:0:
207,188,9162,5,0,3:0:0:0:
332,243,9328,1,0,3:0:0:0:
281,335,9493,6,0,B|295:251|295:251|230:170|230:170|258:64,1,285.599992015686,8|0,3:0|3:0,0:0:0:0:
357,174,9991,2,0,L|514:191,1,142.799996007843,4|4,3:0|1:3,0:0:0:0:
161,244,10322,2,0,L|19:228,1,142.799996007843,0|0,3:0|3:0,0:0:0:0:
257,10,10654,5,0,0:0:0:0:
211,100,10819,5,4,1:3:0:0:
315,137,10985,1,0,3:0:0:0:
340,253,11151,5,0,3:0:0:0:
160,296,11317,1,4,3:0:0:0:
264,375,11482,6,0,L|257:294,1,71.3999980039215,4|0,3:0|0:0,0:0:0:0:
274,379,11648,2,0,L|245:49,1,285.599992015686,0|0,3:0|0:0,0:0:0:0:
40,10,12145,6,0,L|15:294,1,285.599992015686,8|0,3:0|3:0,0:0:0:0:
15,294,12642,1,4,3:0:0:0:
247,204,12808,2,0,B|205:145|205:145|131:130,1,142.799996007843,4|0,1:3|3:0,0:0:0:0:
124,357,13140,2,0,B|195:350|195:350|245:294,1,142.799996007843,0|0,3:0|0:0,0:0:0:0:
473,257,13471,5,4,1:3:0:0:
412,159,13637,1,0,3:0:0:0:
316,220,13803,1,0,3:0:0:0:
377,318,13969,1,4,3:0:0:0:
473,188,14134,5,4,3:0:0:0:
342,158,14300,1,0,1:0:0:0:
314,288,14466,1,0,3:0:0:0:
445,318,14632,1,0,3:0:0:0:
191,193,14797,5,8,3:0:0:0:
191,193,15129,5,0,3:0:0:0:
214,37,15294,2,0,P|124:37|38:202,1,285.599992015686,4|0,3:0|3:0,0:0:0:0:
225,261,15792,2,0,L|244:115,1,142.799996007843,0|0,3:0|0:0,0:0:0:0:
111,335,16123,5,4,3:3:0:0:
102,249,16289,1,0,3:0:0:0:
125,318,16455,1,12,3:0:0:0:
343,342,16620,5,4,3:0:0:0:
414,104,16786,5,4,3:0:0:0:
397,113,16869,1,0,0:0:0:0:
380,113,16952,5,0,3:0:0:0:
335,84,17035,5,0,1:0:0:0:
268,78,17118,5,8,1:0:0:0:
207,132,17200,5,8,1:0:0:0:
229,222,17283,5,8,1:0:0:0:
324,248,17366,5,8,1:0:0:0:
393,187,17449,5,10,1:3:0:0:
199,56,17615,1,0,1:0:0:0:
65,245,17781,5,0,1:0:0:0:
260,347,17946,1,2,0:3:0:0:
329,77,18112,5,0,0:0:0:0:
99,122,18278,1,2,1:2:0:0:
138,350,18444,5,8,1:0:0:0:
194,296,18526,5,8,1:0:0:0:
276,288,18609,5,8,1:0:0:0:
359,322,18692,5,8,1:0:0:0:
443,284,18775,5,8,1:3:0:0:
10,192,19107,5,0,0:0:0:0:
10,192,19272,2,0,L|165:180,1,139.999995231629,4|0,3:0|0:0,0:0:0:0:
219,146,19770,2,0,L|221:222,1,69.9999976158143,0|4,3:0|0:3,0:0:0:0:
508,147,20101,2,0,L|353:135,1,139.999995231629,0|0,3:0|0:0,0:0:0:0:
299,101,20598,2,0,L|297:177,1,69.9999976158143,4|2,3:3|0:3,0:0:0:0:
226,19,20930,6,0,P|127:31|51:192,1,279.999990463257,8|4,1:3|0:0,0:0:0:0:
217,336,21261,6,0,P|254:337|278:340,1,34.9999988079071,0|0,3:0|0:0,0:0:0:0:
347,325,21427,2,0,P|277:324|208:329,1,139.999995231629,4|0,3:0|3:0,0:0:0:0:
138,296,21924,1,4,3:0:0:0:
264,146,22090,2,0,B|255:182|255:182|269:227,1,69.9999976158143,0|0,0:0|0:0,0:0:0:0:
373,147,22421,2,0,L|361:70,1,69.9999976158143,0|4,3:0|0:3,0:0:0:0:
104,81,22753,6,0,B|59:177|59:177|110:275,1,210.000000858307,0|0,1:3|0:0,0:0:0:0:
257,376,23084,1,0,3:0:0:0:
264,383,23333,1,0,0:0:0:0:
264,383,23416,1,2,3:0:0:0:
300,315,23582,1,2,0:0:0:0:
223,310,23747,1,4,3:2:0:0:
438,62,23913,6,0,L|443:128,1,34.9999988079071,0|0,3:0|0:0,0:0:0:0:
430,58,24079,6,0,L|443:277,1,210.000000858307,12|0,1:3|0:0,0:0:0:0:
258,194,24410,5,0,3:0:0:0:
263,182,24576,1,4,3:0:0:0:
244,177,24742,1,0,0:0:0:0:
237,199,24908,1,0,3:0:0:0:
257,207,25073,1,0,3:0:0:0:
268,186,25239,1,4,0:3:0:0:
25,205,25405,6,0,L|137:199,1,105.000000429154,8|0,3:0|0:0,0:0:0:0:
200,95,25571,2,0,L|95:100,1,105.000000429154,2|0,3:0|0:0,0:0:0:0:
181,286,25736,5,0,3:0:0:0:
185,300,25902,1,4,3:0:0:0:
354,384,26068,6,0,L|242:378,1,105.000000429154,8|0,3:0|0:0,0:0:0:0:
179,274,26234,2,0,L|283:279,1,105.000000429154,2|0,3:0|0:0,0:0:0:0:
453,293,26399,5,0,3:0:0:0:
440,290,26482,1,0,0:0:0:0:
439,303,26565,1,0,3:0:0:0:
451,311,26648,1,0,0:0:0:0:
462,305,26731,2,0,P|455:196|450:76,1,210.000000858307,12|0,3:0|0:0,0:0:0:0:
211,93,27062,5,0,3:0:0:0:
134,87,27228,2,0,P|136:141|140:182,1,69.9999976158143,4|0,3:0|0:0,0:0:0:0:
306,275,27560,5,0,3:0:0:0:
367,322,27725,1,0,3:0:0:0:
298,351,27891,2,0,P|337:243|494:230,1,279.999990463257,6|6,3:0|3:0,0:0:0:0:
464,377,28388,1,0,0:0:0:0:
202,81,28554,6,0,P|211:196|214:363,1,279.999990463257,6|8,3:0|1:3,0:0:0:0:
214,360,29051,1,4,3:0:0:0:
350,90,29217,5,0,1:0:0:0:
323,47,29300,1,0,1:0:0:0:
271,32,29383,2,2,B|116:3|157:117|-3:88,1,279.999990463257,8|2,1:3|0:1,1:1:0:0:
43,293,29714,5,0,1:0:0:0:
117,342,29880,2,0,P|142:250|134:189,2,139.999995231629,0|2|0,3:0|0:0|0:0,0:0:0:0:
310,242,30377,1,0,1:0:0:0:
488,136,30543,2,0,P|395:134|192:157,2,279.999990463257,0|2|0,3:0|0:0|3:0,0:0:0:0:
488,136,31372,1,0,0:0:0:0:
298,64,31537,5,0,3:0:0:0:
275,45,31620,1,2,3:0:0:0:
214,320,31786,1,0,0:0:0:0:
237,339,31869,1,2,3:0:0:0:
24,248,32035,6,2,P|117:250|320:227,1,279.999990463257,2|0,1:0|0:0,1:1:0:0:
473,314,32366,5,0,1:0:0:0:
397,314,32532,2,0,P|316:313|249:323,1,139.999995231629,0|2,3:0|0:0,0:0:0:0:
60,80,32863,6,0,P|145:68|349:88,2,279.999990463257,0|0|0,3:0|3:0|3:0,0:0:0:0:
407,221,33692,2,0,P|422:139|420:65,2,139.999995231629,0|0|2,1:0|3:0|0:0,0:0:0:0:
47,241,34189,5,0,3:0:0:0:
73,233,34272,1,2,3:0:0:0:
266,325,34438,1,0,0:0:0:0:
293,331,34521,1,2,3:0:0:0:
73,347,34687,6,2,P|143:322|182:135,1,279.999990463257,8|2,1:3|0:1,1:1:0:0:
357,144,35018,5,0,1:0:0:0:
282,167,35184,2,0,P|285:246|291:324,1,139.999995231629,0|2,3:0|0:0,0:0:0:0:
247,88,35515,5,0,3:0:0:0:
163,36,35681,1,0,1:0:0:0:
87,98,35847,1,0,0:0:0:0:
265,296,36013,5,0,3:0:0:0:
349,348,36179,1,0,0:0:0:0:
425,286,36344,1,0,1:0:0:0:
328,171,36510,5,0,3:0:0:0:
180,209,36676,1,2,0:0:0:0:
324,245,36841,5,0,3:0:0:0:
192,135,37007,1,0,1:0:0:0:
324,26,37173,1,0,3:0:0:0:
510,191,37339,6,2,P|436:348|325:340,1,279.999990463257,2|0,1:0|0:0,1:1:0:0:
177,370,37670,1,0,1:3:0:0:
246,192,37836,6,0,L|266:362,1,139.999995231629,0|2,3:0|0:0,0:0:0:0:
378,183,38167,2,0,L|361:43,1,139.999995231629,0|0,3:0|1:3,0:0:0:0:
255,3,38499,5,0,3:0:0:0:
2,195,38665,5,8,3:0:0:0:
210,337,38830,5,8,1:0:0:0:
161,286,38913,1,8,1:0:0:0:
140,353,38996,1,8,1:0:0:0:
303,235,39162,5,8,1:0:0:0:
437,361,39328,1,8,1:0:0:0:
510,334,39493,6,0,L|419:325,1,83.9999945755007,8|0,1:3|0:0,0:0:0:0:
416,328,39991,6,0,P|426:247|421:32,1,279.999990463257,12|8,1:3|1:0,0:0:0:0:
320,2,40488,5,4,3:0:0:0:
222,57,40654,1,2,3:2:0:0:
89,336,40819,5,4,3:0:0:0:
192,382,40985,1,0,1:0:0:0:
290,327,41150,5,0,1:0:0:0:
290,327,41234,1,0,1:0:0:0:
290,327,41317,2,0,P|270:251|76:200,1,279.999990463257,8|4,1:0|3:0,0:0:0:0:
315,255,41565,5,8,1:0:0:0:
315,255,41648,2,0,P|335:179|529:128,1,279.999990463257,4|8,3:0|1:0,0:0:0:0:
259,148,41897,5,4,1:3:0:0:
259,148,41979,1,8,1:0:0:0:
233,114,42062,1,0,0:0:0:0:
229,72,42145,1,8,1:0:0:0:
249,35,42228,1,0,3:0:0:0:
275,67,42311,1,0,3:0:0:0:
281,108,42394,1,0,1:3:0:0:
259,148,42477,5,0,1:3:0:0:
245,224,42560,5,0,3:0:0:0:
323,196,42642,6,0,B|225:222|225:222|144:192|144:192|36:212,1,279.999990463257,8|0,1:3|3:0,0:0:0:0:
257,344,42891,5,8,1:0:0:0:
238,322,42974,1,0,3:0:0:0:
269,318,43057,1,0,3:0:0:0:
257,344,43140,1,8,1:0:0:0:
238,322,43223,1,0,3:0:0:0:
364,345,43305,6,0,P|374:163|387:4,1,335.999978302003,8|0,1:3|3:0,0:0:0:0:
256,20,43554,1,8,1:0:0:0:
262,78,43637,1,8,1:0:0:0:
251,28,43720,1,0,3:0:0:0:
257,86,43803,1,8,1:0:0:0:
246,36,43886,1,8,1:0:0:0:
167,23,43968,6,0,P|58:43|30:301,1,391.99997468567,8|8,1:3|1:0,0:0:0:0:
121,365,44217,5,0,3:0:0:0:
179,317,44300,1,0,3:0:0:0:
260,319,44383,1,8,1:0:0:0:
344,338,44466,1,8,1:0:0:0:
426,305,44549,1,0,3:0:0:0:
450,207,44631,5,8,1:3:0:0:
238,34,44797,5,8,1:0:0:0:
93,285,44963,5,8,1:0:0:0:
257,222,45129,6,0,L|263:122,1,83.9999945755007,8|4,1:3|3:0,0:0:0:0:
256,129,45626,6,0,L|244:351,1,210.000000858307,8|0,1:0|0:0,0:0:0:0:
390,198,45957,1,4,3:0:0:0:
246,40,46123,1,0,3:0:0:0:
109,197,46289,1,12,1:3:0:0:
82,197,46620,5,8,1:3:0:0:
165,189,46703,5,0,1:0:0:0:
249,192,46786,5,8,1:0:0:0:
333,195,46869,5,8,1:0:0:0:
417,193,46952,5,8,1:0:0:0:
182,3,47118,6,0,B|161:74|122:177|194:351,1,349.999988079071,6|0,3:0|0:0,0:0:0:0:
330,381,47449,2,0,B|351:310|390:207|318:33,1,349.999988079071,6|0,3:0|0:0,0:0:0:0:
3,196,47781,5,8,1:3:0:0:
3,196,48112,5,4,3:0:0:0:
90,139,48278,1,8,1:0:0:0:
299,277,48444,1,4,3:0:0:0:
212,334,48610,1,10,1:0:0:0:
267,273,48775,1,4,3:0:0:0:
441,368,48941,5,10,1:0:0:0:
424,55,49107,5,0,1:0:0:0:
424,55,49189,1,0,1:0:0:0:
424,55,49272,2,0,P|429:148|434:234,1,174.999994039536,10|0,1:0|0:0,1:1:0:0:
310,46,49438,2,0,P|316:139|321:224,1,174.999994039536,10|0,1:0|0:0,1:1:0:0:
199,50,49604,2,0,P|193:143|188:228,1,174.999994039536,2|0,3:1|0:0,1:1:0:0:
85,59,49770,2,0,P|80:152|75:238,1,174.999994039536,10|0,1:0|0:0,1:1:0:0:
252,369,49935,5,8,1:3:0:0:
317,313,50018,5,8,1:0:0:0:
314,215,50101,5,8,1:0:0:0:
233,138,50184,5,10,1:0:0:0:
251,25,50267,5,8,1:0:0:0:
259,131,50350,1,8,1:0:0:0:
148,198,50433,1,10,1:0:0:0:
46,133,50515,1,8,1:0:0:0:
223,19,50598,6,0,P|352:17|378:21,1,122.499996995926,8|0,1:3|0:0,1:1:0:0:
481,80,50764,5,0,1:0:0:0:
488,63,50847,1,0,1:0:0:0:
496,45,50930,2,0,P|356:37|141:48,1,349.999988079071,10|2,1:0|0:1,0:0:0:0:
62,21,51261,5,0,3:1:0:0:
67,106,51427,2,0,P|73:199|67:354,1,244.999993991852,2|8,1:0|1:0,0:0:0:0:
326,356,51758,2,0,P|312:283|142:216,1,244.999993991852,2|0,3:1|0:0,0:0:0:0:
504,191,52090,1,0,1:0:0:0:
504,191,52173,1,0,1:0:0:0:
504,191,52256,2,0,P|419:187|367:189,1,122.499996995926,8|0,1:0|0:0,0:0:0:0:
243,114,52421,2,0,P|313:109|506:117,1,244.999993991852,2|0,3:1|0:0,0:0:0:0:
178,62,52753,5,2,1:0:0:0:
180,384,52919,2,0,B|178:261|165:138,1,244.999993991852,8|0,1:0|0:0,0:0:0:0:
319,11,53250,6,0,P|306:173|302:387,1,367.499990987778,8|2,1:3|3:0,0:0:0:0:
314,371,53582,2,0,P|315:310|319:229,1,122.499996995926,10|0,1:0|0:0,0:0:0:0:
425,79,53747,5,2,3:0:0:0:
440,196,53913,1,2,3:1:0:0:
72,196,54079,1,2,3:0:0:0:
87,79,54245,1,10,1:0:0:0:
193,11,54410,6,0,P|206:173|210:387,1,367.499990987778,8|0,1:3|0:0,0:0:0:0:
218,142,54742,2,0,P|219:82|209:0,1,122.499996995926,2|0,3:0|0:0,0:0:0:0:
188,250,54908,2,0,P|187:310|197:392,1,122.499996995926,8|0,1:0|0:0,0:0:0:0:
500,284,55073,6,0,B|403:238|403:238|307:273,1,210.000000858307,8|0,3:0|0:0,0:0:0:0:
304,262,55405,6,0,B|400:227|400:227|497:273,1,210.000000858307,8|0,1:0|0:0,0:0:0:0:
499,190,55571,5,8,1:0:0:0:
398,192,55654,5,8,1:0:0:0:
297,188,55737,5,8,1:0:0:0:
196,185,55820,5,8,1:0:0:0:
97,194,55903,5,8,1:3:0:0:
1,192,56234,6,0,P|195:181|372:188,1,349.999988079071,10|2,1:0|0:1,0:0:0:0:
413,257,56565,5,0,3:0:0:0:
502,245,56731,2,0,P|497:131|499:-33,1,244.999993991852,2|8,3:1|1:0,0:0:0:0:
336,233,57062,2,0,P|244:243|179:390,1,244.999993991852,2|0,3:1|0:0,0:0:0:0:
420,368,57394,1,2,1:1:0:0:
420,368,57477,1,0,1:0:0:0:
420,368,57560,2,0,P|421:293|416:234,1,122.499996995926,8|0,1:0|0:0,0:0:0:0:
181,28,57725,2,0,P|168:164|172:297,1,244.999993991852,2|0,3:1|0:0,0:0:0:0:
95,37,58057,5,2,3:1:0:0:
44,102,58223,2,0,P|57:238|53:371,1,244.999993991852,8|0,1:0|0:0,0:0:0:0:
470,276,58554,5,8,1:3:0:0:
353,161,58720,1,2,0:1:0:0:
325,317,58886,1,8,1:0:0:0:
389,248,59051,2,0,L|401:107,2,122.499996995926,2|0|0,3:0|0:0|0:0,0:0:0:0:
299,246,59300,5,2,3:0:0:0:
219,189,59383,6,0,L|229:311,1,122.499996995926,2|0,1:0|0:0,0:0:0:0:
127,239,59549,6,2,L|149:-22,1,192.499995279312,10|0,1:0|0:0,1:1:0:0:
26,90,59714,6,2,L|49:360,1,262.499997317791,8|0,1:3|0:0,1:1:0:0:
48,351,60046,6,2,P|95:348|141:348,1,83.9999945755007,0|0,1:0|0:0,1:1:0:0:
479,257,60543,6,2,B|233:242|48:263,1,420.000001716614,2|2,1:0|3:0,1:1:0:0:
0,172,60875,6,2,B|261:148|527:165,1,524.999994635582,10|0,1:0|3:0,1:1:0:0:
512,155,61206,6,0,P|430:148|374:151,1,122.499996995926,8|0,1:3|0:0,0:0:0:0:
32,142,61372,1,0,1:0:0:0:
46,108,61455,1,0,1:0:0:0:
60,74,61537,2,0,B|200:54|411:69,1,349.999988079071,10|2,1:0|0:1,0:0:0:0:
487,30,61869,5,0,3:1:0:0:
510,115,62035,2,0,P|503:197|503:376,1,244.999993991852,2|8,1:0|1:0,0:0:0:0:
282,368,62366,2,0,P|278:291|426:208,1,244.999993991852,2|0,3:1|0:0,0:0:0:0:
121,141,62698,1,0,1:0:0:0:
121,141,62781,1,0,1:0:0:0:
121,141,62863,2,0,P|126:207|122:283,1,122.499996995926,8|0,1:0|0:0,0:0:0:0:
346,73,63029,2,0,P|217:79|76:67,1,244.999993991852,2|0,3:1|0:0,0:0:0:0:
22,234,63361,5,2,1:0:0:0:
54,316,63526,2,0,P|183:310|324:322,1,244.999993991852,8|0,1:0|0:0,0:0:0:0:
423,47,63858,6,0,P|301:68|244:306,1,367.499990987778,8|2,1:3|3:0,0:0:0:0:
245,282,64189,2,0,P|231:211|252:141,1,122.499996995926,10|0,1:0|0:0,0:0:0:0:
484,103,64355,2,0,P|503:172|449:347,1,244.999993991852,2|2,3:0|3:1,0:0:0:0:
2,191,64687,5,2,3:0:0:0:
119,148,64852,1,10,1:0:0:0:
145,359,65018,6,0,P|96:234|162:19,1,367.499990987778,8|0,1:3|0:0,0:0:0:0:
254,42,65350,2,0,P|256:103|243:163,1,122.499996995926,2|0,3:0|0:0,0:0:0:0:
14,211,65515,2,0,P|2:165|9:61,1,122.499996995926,8|0,1:0|0:0,0:0:0:0:
271,303,65681,6,0,B|356:251|356:251|483:278,1,210.000000858307,8|0,3:0|0:0,0:0:0:0:
458,261,66013,6,0,B|351:239|351:239|266:291,1,210.000000858307,8|0,1:0|0:0,0:0:0:0:
204,343,66178,5,8,1:0:0:0:
124,323,66261,5,8,1:0:0:0:
113,238,66344,5,8,1:0:0:0:
190,178,66427,5,8,1:0:0:0:
273,212,66510,5,8,1:3:0:0:
342,161,66841,6,0,P|218:153|-9:164,1,349.999988079071,10|2,1:0|0:1,0:0:0:0:
14,76,67173,5,0,3:0:0:0:
109,67,67339,2,0,P|175:66|375:82,1,244.999993991852,2|8,3:1|1:0,0:0:0:0:
512,238,67670,2,0,P|386:228|124:233,1,367.499990987778,2|0,3:1|0:0,0:0:0:0:
64,159,68002,2,0,P|124:150|198:152,1,122.499996995926,2|0,1:1|1:0,0:0:0:0:
326,303,68167,2,0,P|266:312|192:310,1,122.499996995926,8|0,1:0|0:0,0:0:0:0:
325,10,68333,6,0,P|309:79|301:211,1,174.999994039536,2|0,3:1|0:0,0:0:0:0:
120,352,68499,5,8,1:0:0:0:
113,344,68582,1,0,1:0:0:0:
132,357,68665,1,2,3:1:0:0:
132,346,68747,1,8,1:0:0:0:
162,235,68830,5,8,1:0:0:0:
243,247,68913,5,8,1:0:0:0:
323,228,68996,5,8,1:0:0:0:
415,257,69079,5,8,1:0:0:0:
512,225,69162,5,8,1:3:0:0:
256,192,69328,12,8,70488,3:0:0:0:
256,13,70819,5,0,3:0:0:0:
256,95,70985,2,0,P|247:181|243:357,1,235.19999486023,4|0,3:0|0:0,0:0:0:0:
242,329,71317,2,0,P|163:332|73:339,1,156.799996573486,4|0,3:0|3:0,0:0:0:0:
10,73,71648,2,0,P|101:81|142:220,1,235.19999486023,4|0,3:0|0:0,0:0:0:0:
148,202,71979,2,0,P|79:226|-9:184,1,156.799996573486,4|0,3:0|3:0,0:0:0:0:
256,124,72311,5,4,3:0:0:0:
372,139,72477,1,0,3:0:0:0:
322,39,72642,1,4,1:3:0:0:
257,369,72808,5,0,3:0:0:0:
257,369,73140,6,0,P|264:267|260:113,1,235.19999486023,8|0,3:0|0:0,0:0:0:0:
261,134,73471,1,4,3:0:0:0:
403,42,73637,2,0,P|400:159|409:294,1,235.19999486023,4|0,3:0|0:0,0:0:0:0:
407,276,73968,5,4,3:0:0:0:
313,255,74134,1,0,3:0:0:0:
179,154,74300,5,4,3:0:0:0:
86,182,74466,1,0,1:3:0:0:
215,291,74631,5,4,3:0:0:0:
274,118,74797,1,0,3:0:0:0:
201,78,74963,5,4,3:0:0:0:
284,333,75129,1,4,3:0:0:0:
410,215,75294,5,0,3:0:0:0:
95,187,75460,1,8,1:0:0:0:
249,204,75626,5,8,1:0:0:0:
276,83,75792,6,0,P|266:218|271:332,1,235.19999486023,8|0,3:0|0:0,0:0:0:0:
291,332,76123,2,0,P|290:268|291:229,1,78.3999982867432,4|0,3:0|0:0,0:0:0:0:
19,155,76289,2,0,P|170:223|164:358,1,313.599993146973,4|4,3:0|3:0,0:0:0:0:
409,276,76786,5,0,3:0:0:0:
437,163,76952,1,4,3:0:0:0:
256,19,77118,5,4,1:3:0:0:
289,152,77284,1,0,3:0:0:0:
155,185,77449,1,0,3:0:0:0:
106,50,77615,2,0,L|112:145,1,78.3999982867432,4|0,3:0|0:0,0:0:0:0:
93,49,77781,2,0,L|106:260,1,156.799996573486,4|0,3:0|1:0,0:0:0:0:
361,365,78112,2,0,L|370:198,1,156.799996573486,0|0,3:0|0:0,0:0:0:0:
16,221,78444,6,0,P|126:211|225:374,1,313.599993146973,8|0,3:0|3:0,0:0:0:0:
295,8,78941,1,4,3:0:0:0:
212,19,79107,2,0,P|162:46|108:131,1,156.799996573486,0|0,0:0|3:0,0:0:0:0:
282,236,79438,5,0,3:0:0:0:
317,121,79604,1,4,3:0:0:0:
94,229,79770,5,4,3:3:0:0:
176,316,79936,1,0,3:0:0:0:
506,195,80101,5,12,3:0:0:0:
506,195,80433,5,4,3:0:0:0:
452,201,80515,1,0,3:0:0:0:
414,241,80598,1,0,3:0:0:0:
408,295,80681,1,0,3:0:0:0:
270,144,80764,5,8,1:0:0:0:
297,146,80846,1,8,1:0:0:0:
315,166,80929,1,8,1:0:0:0:
319,194,81012,1,8,1:0:0:0:
425,80,81096,6,0,P|329:74|98:78,1,307.999998908997,10|0,1:3|0:0,0:0:0:0:
57,124,81344,1,2,1:3:0:0:
86,195,81427,2,0,P|87:251|86:366,1,153.999999454498,8|0,1:0|0:0,0:0:0:0:
164,357,81593,6,0,P|270:347|312:150,1,307.999998908997,2|0,1:3|1:0,0:0:0:0:
273,120,81841,1,0,1:0:0:0:
206,158,81924,2,0,P|206:207|297:290,1,153.999999454498,0|2,1:0|0:3,0:0:0:0:
430,208,82090,2,0,P|430:159|339:76,1,153.999999454498,8|0,1:0|0:0,0:0:0:0:
17,70,82256,6,0,B|123:75|123:75|282:19|282:19|478:68,1,461.999998363495,2|0,1:3|1:0,0:0:0:0:
494,137,82587,2,0,L|469:298,1,153.999999454498,0|2,1:0|0:3,0:0:0:0:
475,147,82753,2,0,L|450:308,1,153.999999454498,8|0,1:0|0:3,0:0:0:0:
384,338,82919,5,2,1:3:0:0:
291,341,83002,1,0,0:3:0:0:
236,267,83084,1,8,1:0:0:0:
276,183,83167,1,0,0:0:0:0:
245,95,83250,1,0,1:0:0:0:
152,104,83333,1,2,0:3:0:0:
121,191,83416,1,8,1:0:0:0:
195,246,83499,5,8,1:0:0:0:
292,195,83582,5,0,1:3:0:0:
266,85,83665,5,8,1:0:0:0:
144,83,83747,6,0,B|236:80|236:80|292:48|292:48|457:68,1,307.999998908997,10|0,1:3|0:0,0:0:0:0:
486,130,83996,1,2,1:3:0:0:
411,148,84079,2,0,P|368:89|387:-4,1,153.999999454498,8|0,1:0|0:0,0:0:0:0:
165,295,84245,2,0,P|237:287|308:350,1,153.999999454498,2|0,0:3|0:0,0:0:0:0:
160,8,84410,5,2,3:0:0:0:
160,8,84659,5,2,3:0:0:0:
160,8,84908,5,2,3:0:0:0:
229,58,85073,5,2,3:0:0:0:
211,135,85156,1,0,3:0:0:0:
139,168,85239,1,0,3:0:0:0:
74,122,85322,1,0,3:0:0:0:
236,136,85405,5,2,3:0:0:0:
252,192,85488,1,0,1:0:0:0:
218,241,85571,1,0,3:0:0:0:
158,234,85654,1,0,3:0:0:0:
276,193,85736,5,2,1:3:0:0:
308,224,85819,1,0,0:0:0:0:
304,268,85902,1,0,1:0:0:0:
262,286,85985,1,0,0:0:0:0:
228,272,86068,5,8,1:0:0:0:
225,196,86151,5,8,1:0:0:0:
311,137,86234,5,8,1:0:0:0:
398,206,86317,5,8,1:0:0:0:
364,320,86399,6,2,P|230:306|-42:309,1,391.99997468567,8|2,1:3|3:1,1:1:0:0:
27,224,86648,1,0,1:0:0:0:
125,225,86731,2,0,P|107:147|98:19,1,195.999987342835,10|0,1:0|3:0,0:0:0:0:
197,26,86897,6,2,P|332:32|398:255,1,391.99997468567,2|0,1:0|3:0,1:0:0:0:
318,196,87145,1,0,1:0:0:0:
227,234,87228,2,0,P|206:165|297:94,1,195.999987342835,2|0,1:0|3:0,0:0:0:0:
303,298,87394,2,0,P|210:327|128:283,1,195.999987342835,8|0,1:0|0:0,0:0:0:0:
25,111,87560,6,0,P|27:181|27:325,1,195.999987342835,2|0,1:0|0:0,0:0:0:0:
74,36,87725,2,0,P|196:32|491:47,1,391.99997468567,8|0,1:0|3:0,0:0:0:0:
506,134,87974,1,2,1:0:0:0:
481,228,88057,2,0,P|419:222|281:220,1,195.999987342835,8|0,1:0|3:0,0:0:0:0:
93,353,88223,2,0,P|155:359|293:361,1,195.999987342835,2|0,1:0|0:0,0:0:0:0:
346,125,88388,5,0,1:0:0:0:
258,81,88471,5,0,3:0:0:0:
172,138,88554,5,2,3:1:0:0:
201,242,88637,5,0,3:0:0:0:
311,234,88720,5,8,1:0:0:0:
285,143,88803,5,0,1:0:0:0:
213,184,88886,5,0,3:0:0:0:
285,219,88968,5,0,1:0:0:0:
261,177,89051,5,10,1:3:0:0:
0,187,89217,1,2,3:1:0:0:
0,214,89383,5,10,1:3:0:0:
512,214,89549,1,2,1:0:0:0:
512,170,89880,5,10,1:3:0:0:
0,170,90046,1,10,1:0:0:0:
285,10,90294,5,8,1:0:0:0:
235,79,90377,5,8,1:0:0:0:
285,158,90460,5,8,1:0:0:0:
321,249,90543,5,8,1:0:0:0:
275,343,90626,5,8,1:0:0:0:
166,325,90709,5,8,3:1:0:0:
213,258,90792,1,0,3:1:0:0:
294,231,90875,1,8,3:1:0:0:
374,251,90957,1,8,3:1:0:0:
430,320,91040,5,8,1:3:0:0:
430,320,92366,5,8,0:3:0:0:
430,320,93029,5,8,0:3:0:0:
430,320,93692,5,8,0:3:0:0:
256,192,93858,12,2,96344,0:0:0:0:
