osu file format v14

[General]
AudioFilename: audio.mp3
AudioLeadIn: 0
PreviewTime: 47899
Countdown: 0
SampleSet: Soft
StackLeniency: 0.7
Mode: 3
LetterboxInBreaks: 0
SpecialStyle: 0
WidescreenStoryboard: 0

[Editor]
DistanceSpacing: 1
BeatDivisor: 4
GridSize: 4
TimelineZoom: 2.3

[Metadata]
Title:Guren no Yumiya
TitleUnicode:紅蓮の弓矢
Artist:Roselia
ArtistUnicode:Roselia
Creator:- Aries -
Version:Hard
Source:バンドリ!ガールズバンドパーティ!
Tags:Ly0572 Cover Linked Horizon Attack on Titan Shingeki no Kyojin BanG Dream! Garupa Bandori ロゼリア ガルパ Girls Band Party! 湊友希那 Minato Yukina 相羽あいな Aiba Aina 宇田川あこ Udagawa Ako 櫻川めぐ Sakuragawa Megu 白金燐子 Shirokane Rinko 明坂聡美 Akesaka Satomi 氷川紗夜 Hikawa Sayo 工藤晴香 Kudou Haruka 今井リサ Imai Risa 遠藤ゆりか Endou Yurika
BeatmapID:1624641
BeatmapSetID:770829

[Difficulty]
HPDrainRate:8
CircleSize:4
OverallDifficulty:7.5
ApproachRate:5
SliderMultiplier:1.4
SliderTickRate:1

[Events]
//Background and Video events
0,0,"bg.jpg",0,0
//Break Periods
//Storyboard Layer 0 (Background)
//Storyboard Layer 1 (Fail)
//Storyboard Layer 2 (Pass)
//Storyboard Layer 3 (Foreground)
//Storyboard Sound Samples
Sample,15910,0,"snare.wav",50
Sample,27180,0,"kick low.wav",70
Sample,27512,0,"kick low.wav",70
Sample,27843,0,"kick low.wav",70
Sample,28175,0,"kick low.wav",70
Sample,28506,0,"kick low.wav",70
Sample,29832,0,"kick low.wav",70
Sample,30164,0,"kick low.wav",70
Sample,30495,0,"kick low.wav",70
Sample,30827,0,"kick low.wav",70
Sample,31158,0,"kick low.wav",70
Sample,32484,0,"kick low.wav",70
Sample,32816,0,"kick low.wav",70
Sample,33147,0,"kick low.wav",70
Sample,33479,0,"kick low.wav",70
Sample,33810,0,"kick low.wav",70
Sample,34142,0,"kick low.wav",70
Sample,34473,0,"kick low.wav",70
Sample,34805,0,"kick low.wav",70
Sample,35136,0,"kick low.wav",70
Sample,35468,0,"kick low.wav",70
Sample,35468,0,"hat.wav",50
Sample,35799,0,"kick low.wav",70
Sample,35799,0,"hat.wav",50
Sample,36131,0,"kick low.wav",70
Sample,36131,0,"hat.wav",50
Sample,38120,0,"kick low.wav",70
Sample,47733,0,"snare.wav",50
Sample,48727,0,"kick low.wav",70
Sample,50053,0,"kick low.wav",70
Sample,51379,0,"kick low.wav",70
Sample,54031,0,"kick low.wav",70
Sample,55357,0,"kick low.wav",70
Sample,56683,0,"kick low.wav",70
Sample,59335,0,"kick low.wav",70
Sample,60661,0,"kick low.wav",70
Sample,61987,0,"kick low.wav",70
Sample,64639,0,"kick low.wav",70

[TimingPoints]
1656,331.491712707182,4,2,2,30,1,0
48064,-100,4,2,2,30,0,1
66628,-100,4,2,2,30,0,0
67954,-100,4,2,2,30,0,1
86517,-100,4,2,2,30,0,0

[HitObjects]
64,192,1656,5,0,0:0:0:70:hat_finish.wav
448,192,1656,1,0,0:0:0:0:
192,192,1821,1,0,0:0:0:0:
448,192,1987,1,0,0:0:0:0:
320,192,2153,1,0,0:0:0:0:
320,192,2484,1,0,0:0:0:0:
64,192,2650,1,0,0:0:0:0:
192,192,2816,1,0,0:0:0:0:
192,192,3147,1,0,0:0:0:0:
448,192,3313,1,0,0:0:0:0:
64,192,3479,128,0,3810:0:0:0:0:
320,192,3810,128,0,4307:0:0:0:0:
64,192,4307,1,0,0:0:0:70:drum_finish.wav
448,192,4307,1,0,0:0:0:70:kick low.wav
192,192,4473,1,0,0:0:0:0:
320,192,4639,1,0,0:0:0:70:snare.wav
448,192,4639,128,0,4805:0:0:0:0:
64,192,4805,1,0,0:0:0:50:hat.wav
320,192,4970,1,0,0:0:0:70:kick low.wav
448,192,5136,1,0,0:0:0:50:hat.wav
64,192,5302,128,0,5468:0:0:0:70:snare.wav
192,192,5302,1,0,0:0:0:0:
320,192,5468,1,0,0:0:0:50:hat.wav
192,192,5633,1,0,0:0:0:70:kick low.wav
64,192,5799,1,0,0:0:0:50:hat.wav
320,192,5965,128,0,6131:0:0:0:70:snare.wav
448,192,5965,1,0,0:0:0:0:
192,192,6131,1,0,0:0:0:50:hat.wav
448,192,6296,1,0,0:0:0:70:kick low.wav
320,192,6462,1,0,0:0:0:50:hat.wav
64,192,6628,1,0,0:0:0:70:snare.wav
192,192,6628,128,0,6959:0:0:0:0:
448,192,6794,1,0,0:0:0:50:hat.wav
320,192,6959,1,0,0:0:0:70:kick low.wav
192,192,7125,1,0,0:0:0:50:hat.wav
64,192,7291,128,0,7457:0:0:0:70:snare.wav
320,192,7291,1,0,0:0:0:0:
448,192,7457,1,0,0:0:0:50:hat.wav
192,192,7622,1,0,0:0:0:70:kick low.wav
320,192,7788,128,0,7954:0:0:0:50:hat.wav
64,192,7954,1,0,0:0:0:70:snare.wav
448,192,7954,1,0,0:0:0:0:
192,192,8120,128,0,8285:0:0:0:50:hat.wav
64,192,8285,1,0,0:0:0:70:kick low.wav
448,192,8451,128,0,8617:0:0:0:50:hat.wav
192,192,8617,1,0,0:0:0:70:snare.wav
320,192,8617,1,0,0:0:0:0:
64,192,8783,128,0,8948:0:0:0:50:hat.wav
448,192,8948,1,0,0:0:0:70:kick low.wav
320,192,9114,128,0,9446:0:0:0:50:hat.wav
64,192,9280,1,0,0:0:0:70:snare.wav
448,192,9280,1,0,0:0:0:0:
192,192,9446,1,0,0:0:0:50:hat.wav
64,192,9611,1,0,0:0:0:50:drum_finish.wav
448,192,9611,1,0,0:0:0:70:kick low.wav
320,192,9777,1,0,0:0:0:50:hat.wav
64,192,9943,128,0,10109:0:0:0:70:snare.wav
192,192,9943,1,0,0:0:0:0:
448,192,10109,1,0,0:0:0:50:hat.wav
192,192,10274,1,0,0:0:0:70:kick low.wav
64,192,10440,1,0,0:0:0:50:hat.wav
320,192,10606,1,0,0:0:0:70:snare.wav
448,192,10606,128,0,10772:0:0:0:0:
64,192,10772,1,0,0:0:0:50:hat.wav
192,192,10937,1,0,0:0:0:70:kick low.wav
448,192,11103,1,0,0:0:0:50:hat.wav
64,192,11269,1,0,0:0:0:70:snare.wav
192,192,11269,128,0,11435:0:0:0:0:
320,192,11435,1,0,0:0:0:50:hat.wav
64,192,11600,1,0,0:0:0:70:kick low.wav
192,192,11766,1,0,0:0:0:50:hat.wav
320,192,11932,1,0,0:0:0:70:snare.wav
448,192,11932,128,0,12097:0:0:0:0:
192,192,12097,1,0,0:0:0:50:hat.wav
64,192,12263,1,0,0:0:0:50:drum_finish.wav
320,192,12263,1,0,0:0:0:70:kick low.wav
448,192,12429,1,0,0:0:0:50:hat.wav
64,192,12595,128,0,12760:0:0:0:70:snare.wav
192,192,12595,1,0,0:0:0:0:
320,192,12760,1,0,0:0:0:50:hat.wav
192,192,12926,1,0,0:0:0:70:kick low.wav
320,192,13092,128,0,13258:0:0:0:50:hat.wav
64,192,13258,1,0,0:0:0:70:snare.wav
448,192,13258,1,0,0:0:0:0:
192,192,13423,128,0,13589:0:0:0:50:hat.wav
320,192,13589,1,0,0:0:0:70:kick low.wav
64,192,13755,128,0,13921:0:0:0:50:hat.wav
192,192,13921,1,0,0:0:0:70:snare.wav
320,192,13921,1,0,0:0:0:0:
448,192,14086,128,0,14252:0:0:0:50:hat.wav
192,192,14252,1,0,0:0:0:70:kick low.wav
64,192,14418,128,0,14749:0:0:0:50:kick low.wav
448,192,14418,1,0,0:0:0:0:
320,192,14501,1,0,0:0:0:50:kick low.wav
192,192,14584,1,0,0:0:0:50:kick low.wav
448,192,14667,1,0,0:0:0:50:kick low.wav
320,192,14749,1,0,0:0:0:50:kick low.wav
192,192,14832,1,0,0:0:0:50:snare.wav
64,192,14915,1,0,0:0:0:70:drum_finish.wav
448,192,14915,128,0,15081:0:0:0:0:
192,192,15081,128,0,15247:0:0:0:0:
320,192,15247,128,0,15412:0:0:0:0:
64,192,15412,128,0,15578:0:0:0:0:
192,192,15578,128,0,15744:0:0:0:0:
448,192,15744,128,0,15910:0:0:0:0:
64,192,15910,1,0,0:0:0:70:hat.wav
192,192,15993,1,0,0:0:0:50:snare.wav
448,192,16075,1,0,0:0:0:50:snare.wav
320,192,16158,1,0,0:0:0:50:snare.wav
64,192,16241,1,0,0:0:0:70:drum_finish.wav
192,192,16241,1,0,0:0:0:70:kick low.wav
448,192,16241,1,0,0:0:0:0:
64,192,16573,1,0,0:0:0:70:kick low.wav
192,192,16573,1,0,0:0:0:0:
448,192,16738,1,0,0:0:0:0:
192,192,16904,1,0,0:0:0:70:kick low.wav
320,192,16904,1,0,0:0:0:0:
64,192,17070,1,0,0:0:0:0:
320,192,17236,1,0,0:0:0:70:kick low.wav
448,192,17236,1,0,0:0:0:0:
192,192,17401,1,0,0:0:0:0:
64,192,17567,1,0,0:0:0:70:kick low.wav
448,192,17567,1,0,0:0:0:0:
320,192,17733,1,0,0:0:0:0:
64,192,17899,1,0,0:0:0:70:kick low.wav
192,192,17899,1,0,0:0:0:0:
448,192,18064,1,0,0:0:0:0:
192,192,18230,1,0,0:0:0:70:kick low.wav
320,192,18230,1,0,0:0:0:0:
64,192,18396,1,0,0:0:0:0:
320,192,18562,1,0,0:0:0:70:kick low.wav
448,192,18562,1,0,0:0:0:0:
192,192,18727,1,0,0:0:0:0:
64,192,18893,1,0,0:0:0:70:kick low.wav
448,192,18893,1,0,0:0:0:0:
192,192,19059,1,0,0:0:0:0:
320,192,19225,1,0,0:0:0:70:kick low.wav
448,192,19225,1,0,0:0:0:0:
64,192,19390,1,0,0:0:0:0:
192,192,19556,1,0,0:0:0:70:kick low.wav
320,192,19556,1,0,0:0:0:0:
448,192,19722,1,0,0:0:0:0:
64,192,19888,1,0,0:0:0:70:kick low.wav
192,192,19888,1,0,0:0:0:0:
320,192,20053,1,0,0:0:0:0:
64,192,20219,1,0,0:0:0:70:kick low.wav
448,192,20219,1,0,0:0:0:0:
192,192,20385,1,0,0:0:0:0:
320,192,20551,1,0,0:0:0:70:kick low.wav
448,192,20551,1,0,0:0:0:0:
192,192,20661,1,0,0:0:0:0:
320,192,20772,1,0,0:0:0:0:
64,192,20882,1,0,0:0:0:70:kick low.wav
448,192,20882,1,0,0:0:0:0:
320,192,21048,1,0,0:0:0:0:
64,192,21214,1,0,0:0:0:70:kick low.wav
192,192,21214,1,0,0:0:0:0:
320,192,21379,1,0,0:0:0:0:
64,192,21545,1,0,0:0:0:100:ride.wav
448,192,21545,128,0,21711:0:0:0:70:kick low.wav
320,192,21711,128,0,21876:0:0:0:0:
64,192,21876,128,0,22042:0:0:0:70:kick low.wav
192,192,21876,1,0,0:0:0:0:
448,192,22042,128,0,22208:0:0:0:0:
192,192,22208,1,0,0:0:0:70:kick low.wav
320,192,22208,128,0,22374:0:0:0:0:
64,192,22374,128,0,22539:0:0:0:0:
192,192,22539,128,0,22705:0:0:0:70:kick low.wav
448,192,22539,1,0,0:0:0:0:
320,192,22705,128,0,22871:0:0:0:0:
64,192,22871,1,0,0:0:0:70:kick low.wav
448,192,22871,128,0,23037:0:0:0:0:
192,192,23037,128,0,23202:0:0:0:0:
64,192,23202,128,0,23368:0:0:0:70:kick low.wav
320,192,23202,1,0,0:0:0:0:
448,192,23368,128,0,23534:0:0:0:0:
192,192,23534,128,0,23700:0:0:0:70:kick low.wav
320,192,23534,1,0,0:0:0:0:
64,192,23700,128,0,23865:0:0:0:0:
320,192,23865,128,0,24031:0:0:0:70:kick low.wav
448,192,23865,1,0,0:0:0:0:
192,192,24031,128,0,24197:0:0:0:0:
64,192,24197,128,0,24363:0:0:0:70:kick low.wav
448,192,24197,1,0,0:0:0:0:
320,192,24363,128,0,24528:0:0:0:0:
192,192,24528,128,0,24694:0:0:0:70:kick low.wav
448,192,24528,1,0,0:0:0:0:
320,192,24694,128,0,24860:0:0:0:0:
64,192,24860,1,0,0:0:0:70:kick low.wav
448,192,24860,128,0,25026:0:0:0:0:
192,192,25026,128,0,25191:0:0:0:0:
64,192,25191,1,0,0:0:0:70:kick low.wav
320,192,25191,128,0,25357:0:0:0:0:
448,192,25357,128,0,25523:0:0:0:0:
64,192,25523,128,0,25689:0:0:0:70:kick low.wav
192,192,25523,1,0,0:0:0:0:
320,192,25689,128,0,25854:0:0:0:0:
192,192,25854,1,0,0:0:0:70:kick low.wav
448,192,25854,128,0,26020:0:0:0:0:
64,192,26020,128,0,26186:0:0:0:0:
192,192,26186,1,0,0:0:0:70:kick low.wav
320,192,26352,1,0,0:0:0:70:hat_finish.wav
448,192,26352,1,0,0:0:0:50:snare.wav
64,192,26517,1,0,0:0:0:70:kick low.wav
448,192,26683,1,0,0:0:0:50:snare.wav
320,192,26766,1,0,0:0:0:50:snare.wav
64,192,26849,1,0,0:0:0:70:drum_finish.wav
192,192,26849,1,0,0:0:0:50:snare.wav
448,192,27015,1,0,0:0:0:0:
320,192,27097,1,0,0:0:0:0:
192,192,27180,1,0,0:0:0:50:hat.wav
64,192,27346,1,0,0:0:0:0:
192,192,27429,1,0,0:0:0:0:
320,192,27512,1,0,0:0:0:50:hat.wav
64,192,27678,1,0,0:0:0:0:
192,192,27760,1,0,0:0:0:0:
320,192,27843,1,0,0:0:0:50:hat.wav
448,192,28009,1,0,0:0:0:0:
320,192,28092,1,0,0:0:0:0:
192,192,28175,1,0,0:0:0:50:hat.wav
448,192,28341,1,0,0:0:0:0:
320,192,28423,1,0,0:0:0:0:
192,192,28506,1,0,0:0:0:50:hat.wav
64,192,28672,1,0,0:0:0:0:
192,192,28755,1,0,0:0:0:0:
320,192,28838,1,0,0:0:0:70:kick low.wav
64,192,29004,1,0,0:0:0:70:hat_finish.wav
448,192,29004,1,0,0:0:0:0:
192,192,29169,1,0,0:0:0:70:kick low.wav
64,192,29335,1,0,0:0:0:70:hat_finish.wav
448,192,29335,1,0,0:0:0:0:
320,192,29501,1,0,0:0:0:70:kick low.wav
64,192,29667,1,0,0:0:0:0:
192,192,29749,1,0,0:0:0:0:
320,192,29832,1,0,0:0:0:50:hat.wav
448,192,29998,1,0,0:0:0:0:
320,192,30081,1,0,0:0:0:0:
192,192,30164,1,0,0:0:0:50:hat.wav
448,192,30330,1,0,0:0:0:0:
320,192,30412,1,0,0:0:0:0:
192,192,30495,1,0,0:0:0:50:hat.wav
64,192,30661,1,0,0:0:0:0:
192,192,30744,1,0,0:0:0:0:
320,192,30827,1,0,0:0:0:50:hat.wav
64,192,30993,1,0,0:0:0:0:
192,192,31075,1,0,0:0:0:0:
320,192,31158,1,0,0:0:0:50:hat.wav
448,192,31324,1,0,0:0:0:0:
320,192,31407,1,0,0:0:0:0:
192,192,31490,1,0,0:0:0:70:kick low.wav
64,192,31655,1,0,0:0:0:70:hat_finish.wav
448,192,31655,1,0,0:0:0:0:
320,192,31821,1,0,0:0:0:70:kick low.wav
64,192,31987,1,0,0:0:0:70:hat_finish.wav
448,192,31987,1,0,0:0:0:0:
192,192,32153,1,0,0:0:0:70:kick low.wav
448,192,32318,1,0,0:0:0:0:
320,192,32401,1,0,0:0:0:0:
192,192,32484,1,0,0:0:0:50:hat.wav
64,192,32650,1,0,0:0:0:0:
192,192,32733,1,0,0:0:0:0:
320,192,32816,1,0,0:0:0:50:hat.wav
448,192,32981,1,0,0:0:0:0:
320,192,33064,1,0,0:0:0:0:
192,192,33147,1,0,0:0:0:50:hat.wav
64,192,33313,1,0,0:0:0:0:
192,192,33396,1,0,0:0:0:0:
320,192,33479,1,0,0:0:0:50:hat.wav
448,192,33644,1,0,0:0:0:0:
320,192,33727,1,0,0:0:0:0:
192,192,33810,1,0,0:0:0:50:hat.wav
64,192,33976,1,0,0:0:0:0:
192,192,34059,1,0,0:0:0:0:
320,192,34142,1,0,0:0:0:50:hat.wav
448,192,34307,1,0,0:0:0:0:
320,192,34390,1,0,0:0:0:0:
192,192,34473,1,0,0:0:0:50:hat.wav
64,192,34639,1,0,0:0:0:0:
192,192,34722,1,0,0:0:0:0:
320,192,34805,1,0,0:0:0:50:hat.wav
448,192,34970,1,0,0:0:0:0:
320,192,35053,1,0,0:0:0:0:
192,192,35136,1,0,0:0:0:50:hat.wav
320,192,35302,1,0,0:0:0:0:
192,192,35385,1,0,0:0:0:0:
64,192,35468,1,0,0:0:0:50:hat_finish.wav
192,192,35633,1,0,0:0:0:0:
320,192,35716,1,0,0:0:0:0:
448,192,35799,1,0,0:0:0:50:hat_finish.wav
64,192,35965,1,0,0:0:0:0:
192,192,36048,1,0,0:0:0:0:
320,192,36131,1,0,0:0:0:50:hat_finish.wav
64,192,36296,1,0,0:0:0:50:snare.wav
448,192,36296,1,0,0:0:0:0:
192,192,36379,1,0,0:0:0:50:snare.wav
320,192,36379,1,0,0:0:0:0:
64,192,36462,1,0,0:0:0:50:snare.wav
448,192,36462,1,0,0:0:0:0:
64,192,36628,1,0,0:0:0:50:snare.wav
192,192,36628,1,0,0:0:0:0:
320,192,36794,1,0,0:0:0:50:snare.wav
448,192,36794,1,0,0:0:0:0:
64,192,36959,1,0,0:0:0:70:drum_finish.wav
192,192,36959,1,0,0:0:0:40:snare.wav
448,192,36959,1,0,0:0:0:0:
320,192,37291,1,0,0:0:0:50:kick low.wav
64,192,37457,1,0,0:0:0:70:drum_finish.wav
192,192,37457,1,0,0:0:0:70:kick low.wav
448,192,37457,1,0,0:0:0:0:
320,192,37622,1,0,0:0:0:0:
64,192,37788,1,0,0:0:0:70:snare.wav
192,192,37788,1,0,0:0:0:0:
448,192,37954,1,0,0:0:0:0:
192,192,38120,1,0,0:0:0:70:hat_finish.wav
192,192,38285,1,0,0:0:0:70:kick low.wav
320,192,38451,1,0,0:0:0:70:snare.wav
448,192,38451,1,0,0:0:0:0:
192,192,38617,1,0,0:0:0:0:
320,192,38700,1,0,0:0:0:0:
64,192,38783,1,0,0:0:0:70:drum_finish.wav
448,192,38783,1,0,0:0:0:70:kick low.wav
192,192,38948,1,0,0:0:0:0:
320,192,39114,1,0,0:0:0:70:snare.wav
448,192,39114,1,0,0:0:0:0:
64,192,39280,1,0,0:0:0:0:
320,192,39446,1,0,0:0:0:70:snare.wav
448,192,39446,1,0,0:0:0:0:
192,192,39528,1,0,0:0:0:50:kick low.wav
64,192,39611,1,0,0:0:0:50:kick low.wav
320,192,39694,1,0,0:0:0:0:
192,192,39777,1,0,0:0:0:50:kick low.wav
448,192,39860,1,0,0:0:0:50:kick low.wav
64,192,39943,1,0,0:0:0:50:kick low.wav
192,192,40026,1,0,0:0:0:50:kick low.wav
320,192,40109,1,0,0:0:0:50:cymbal.wav
448,192,40109,128,0,40440:0:0:0:0:
64,192,40440,1,0,0:0:0:50:kick low.wav
192,192,40523,1,0,0:0:0:50:kick low.wav
320,192,40606,1,0,0:0:0:50:kick low.wav
448,192,40689,1,0,0:0:0:50:kick low.wav
64,192,40772,128,0,41103:0:0:0:50:cymbal.wav
192,192,40772,1,0,0:0:0:0:
448,192,41103,1,0,0:0:0:50:kick low.wav
320,192,41186,1,0,0:0:0:50:kick low.wav
192,192,41269,1,0,0:0:0:50:kick low.wav
64,192,41352,1,0,0:0:0:50:kick low.wav
320,192,41435,1,0,0:0:0:50:cymbal.wav
448,192,41435,128,0,41766:0:0:0:0:
64,192,41766,1,0,0:0:0:50:kick low.wav
192,192,41849,1,0,0:0:0:50:kick low.wav
448,192,41932,1,0,0:0:0:50:kick low.wav
320,192,42015,1,0,0:0:0:50:kick low.wav
64,192,42097,1,0,0:0:0:50:cymbal.wav
192,192,42097,1,0,0:0:0:0:
320,192,42263,1,0,0:0:0:70:kick low.wav
192,192,42429,1,0,0:0:0:70:snare.wav
448,192,42429,1,0,0:0:0:0:
64,192,42595,1,0,0:0:0:50:cymbal.wav
320,192,42595,1,0,0:0:0:0:
448,192,42595,1,0,0:0:0:0:
320,192,42926,1,0,0:0:0:70:kick low.wav
64,192,43092,1,0,0:0:0:40:snare.wav
448,192,43092,1,0,0:0:0:0:
192,192,43258,1,0,0:0:0:0:
320,192,43423,1,0,0:0:0:70:kick low.wav
320,192,43589,1,0,0:0:0:70:kick low.wav
64,192,43755,1,0,0:0:0:40:snare.wav
192,192,43755,1,0,0:0:0:0:
448,192,43921,1,0,0:0:0:0:
320,192,44086,1,0,0:0:0:70:kick low.wav
64,192,44252,1,0,0:0:0:50:snare.wav
192,192,44335,1,0,0:0:0:50:snare.wav
320,192,44418,1,0,0:0:0:50:snare.wav
64,192,44584,1,0,0:0:0:70:hat.wav
192,192,44584,1,0,0:0:0:50:kick low.wav
320,192,44915,1,0,0:0:0:70:hat.wav
448,192,44915,1,0,0:0:0:50:kick low.wav
64,192,45247,1,0,0:0:0:50:drum_finish.wav
192,192,45247,1,0,0:0:0:50:kick low.wav
448,192,45247,1,0,0:0:0:0:
320,192,45578,1,0,0:0:0:70:kick low.wav
64,192,45744,1,0,0:0:0:70:snare.wav
448,192,45744,1,0,0:0:0:0:
192,192,45910,1,0,0:0:0:70:kick low.wav
320,192,46075,1,0,0:0:0:70:snare.wav
448,192,46075,1,0,0:0:0:0:
64,192,46241,1,0,0:0:0:70:kick low.wav
192,192,46407,1,0,0:0:0:70:snare.wav
320,192,46407,1,0,0:0:0:0:
448,192,46573,1,0,0:0:0:70:kick low.wav
64,192,46738,1,0,0:0:0:70:snare.wav
192,192,46738,1,0,0:0:0:0:
320,192,46904,1,0,0:0:0:70:kick low.wav
64,192,47070,1,0,0:0:0:70:hat_finish.wav
448,192,47070,1,0,0:0:0:70:snare.wav
192,192,47236,1,0,0:0:0:70:kick low.wav
448,192,47401,1,0,0:0:0:50:snare.wav
320,192,47484,1,0,0:0:0:50:snare.wav
64,192,47567,1,0,0:0:0:50:snare.wav
192,192,47650,1,0,0:0:0:50:snare.wav
448,192,47733,1,0,0:0:0:50:kick low.wav
320,192,47816,1,0,0:0:0:50:snare.wav
64,192,47899,1,0,0:0:0:50:snare.wav
192,192,47981,1,0,0:0:0:50:snare.wav
64,192,48064,1,0,0:0:0:70:drum_finish.wav
320,192,48064,1,0,0:0:0:50:snare.wav
448,192,48064,1,0,0:0:0:0:
64,192,48396,1,0,0:0:0:50:hat_finish.wav
448,192,48396,1,0,0:0:0:70:snare.wav
192,192,48727,1,0,0:0:0:50:hat_finish.wav
192,192,48893,1,0,0:0:0:70:kick low.wav
320,192,49059,1,0,0:0:0:50:hat_finish.wav
448,192,49059,1,0,0:0:0:70:snare.wav
64,192,49225,1,0,0:0:0:70:kick low.wav
192,192,49390,1,0,0:0:0:50:hat_finish.wav
320,192,49556,1,0,0:0:0:70:kick low.wav
64,192,49722,1,0,0:0:0:50:hat_finish.wav
192,192,49722,1,0,0:0:0:70:snare.wav
320,192,50053,1,0,0:0:0:50:hat_finish.wav
320,192,50219,1,0,0:0:0:70:kick low.wav
64,192,50385,1,0,0:0:0:50:hat_finish.wav
448,192,50385,1,0,0:0:0:70:snare.wav
64,192,50716,1,0,0:0:0:70:kick low.wav
192,192,50716,1,0,0:0:0:0:
64,192,51048,1,0,0:0:0:50:hat_finish.wav
448,192,51048,1,0,0:0:0:70:snare.wav
320,192,51379,1,0,0:0:0:50:hat_finish.wav
320,192,51545,1,0,0:0:0:70:kick low.wav
64,192,51711,1,0,0:0:0:70:snare.wav
192,192,51711,1,0,0:0:0:0:
320,192,51876,1,0,0:0:0:50:hat_finish.wav
448,192,51876,1,0,0:0:0:70:kick low.wav
320,192,52208,1,0,0:0:0:70:kick low.wav
448,192,52208,1,0,0:0:0:0:
64,192,52374,1,0,0:0:0:50:hat_finish.wav
192,192,52374,1,0,0:0:0:70:snare.wav
320,192,52539,128,0,52705:0:0:0:50:hat_finish.wav
448,192,52539,128,0,52705:0:0:0:70:kick low.wav
320,192,52871,1,0,0:0:0:50:hat_finish.wav
448,192,52871,1,0,0:0:0:70:snare.wav
192,192,53037,1,0,0:0:0:50:snare.wav
448,192,53120,1,0,0:0:0:50:snare.wav
192,192,53202,1,0,0:0:0:50:snare.wav
448,192,53285,1,0,0:0:0:50:snare.wav
64,192,53368,1,0,0:0:0:70:drum_finish.wav
192,192,53368,1,0,0:0:0:70:kick low.wav
64,192,53700,1,0,0:0:0:50:hat_finish.wav
448,192,53700,1,0,0:0:0:70:snare.wav
320,192,54031,1,0,0:0:0:50:hat_finish.wav
320,192,54197,1,0,0:0:0:70:kick low.wav
64,192,54363,1,0,0:0:0:50:hat_finish.wav
192,192,54363,1,0,0:0:0:70:snare.wav
448,192,54528,1,0,0:0:0:70:kick low.wav
320,192,54694,1,0,0:0:0:50:hat_finish.wav
192,192,54860,1,0,0:0:0:70:kick low.wav
320,192,55026,1,0,0:0:0:50:hat_finish.wav
448,192,55026,1,0,0:0:0:70:snare.wav
192,192,55357,1,0,0:0:0:50:hat_finish.wav
192,192,55523,1,0,0:0:0:70:kick low.wav
64,192,55689,1,0,0:0:0:50:hat_finish.wav
448,192,55689,1,0,0:0:0:70:snare.wav
320,192,56020,1,0,0:0:0:70:drum_finish.wav
448,192,56020,1,0,0:0:0:70:kick low.wav
64,192,56352,1,0,0:0:0:50:hat_finish.wav
448,192,56352,1,0,0:0:0:70:snare.wav
192,192,56683,1,0,0:0:0:50:hat_finish.wav
192,192,56849,1,0,0:0:0:70:kick low.wav
320,192,57015,1,0,0:0:0:50:hat_finish.wav
448,192,57015,1,0,0:0:0:70:snare.wav
320,192,57180,128,0,57346:0:0:0:50:hat_finish.wav
448,192,57180,128,0,57346:0:0:0:70:snare.wav
64,192,57512,1,0,0:0:0:50:hat_finish.wav
192,192,57512,1,0,0:0:0:70:snare.wav
320,192,57678,1,0,0:0:0:70:kick low.wav
192,192,57843,1,0,0:0:0:70:kick low.wav
320,192,58009,1,0,0:0:0:50:hat_finish.wav
448,192,58009,1,0,0:0:0:70:snare.wav
64,192,58175,1,0,0:0:0:70:kick low.wav
192,192,58341,128,0,58589:0:0:0:50:hat_finish.wav
320,192,58341,128,0,58589:0:0:0:70:snare.wav
64,192,58672,1,0,0:0:0:70:drum_finish.wav
192,192,58672,1,0,0:0:0:70:kick low.wav
448,192,58672,1,0,0:0:0:0:
64,192,59004,1,0,0:0:0:50:hat_finish.wav
448,192,59004,1,0,0:0:0:70:snare.wav
320,192,59335,1,0,0:0:0:50:hat_finish.wav
320,192,59501,1,0,0:0:0:70:kick low.wav
64,192,59667,1,0,0:0:0:50:hat_finish.wav
192,192,59667,1,0,0:0:0:70:snare.wav
448,192,59832,1,0,0:0:0:70:kick low.wav
192,192,59998,1,0,0:0:0:50:hat_finish.wav
64,192,60164,1,0,0:0:0:70:kick low.wav
320,192,60330,1,0,0:0:0:50:hat_finish.wav
448,192,60330,1,0,0:0:0:70:snare.wav
192,192,60661,1,0,0:0:0:50:hat_finish.wav
192,192,60827,1,0,0:0:0:70:kick low.wav
64,192,60993,1,0,0:0:0:50:hat_finish.wav
448,192,60993,1,0,0:0:0:70:snare.wav
320,192,61324,1,0,0:0:0:70:kick low.wav
448,192,61324,1,0,0:0:0:0:
64,192,61655,1,0,0:0:0:50:hat_finish.wav
448,192,61655,1,0,0:0:0:70:snare.wav
192,192,61987,1,0,0:0:0:50:hat_finish.wav
192,192,62153,1,0,0:0:0:70:kick low.wav
64,192,62318,1,0,0:0:0:70:snare.wav
448,192,62318,1,0,0:0:0:0:
192,192,62484,1,0,0:0:0:50:hat_finish.wav
320,192,62484,1,0,0:0:0:70:snare.wav
192,192,62816,1,0,0:0:0:70:kick low.wav
320,192,62816,1,0,0:0:0:0:
64,192,62981,1,0,0:0:0:50:hat_finish.wav
448,192,62981,1,0,0:0:0:70:snare.wav
192,192,63147,128,0,63313:0:0:0:50:hat_finish.wav
320,192,63147,128,0,63313:0:0:0:70:kick low.wav
192,192,63479,1,0,0:0:0:50:hat_finish.wav
320,192,63479,1,0,0:0:0:70:snare.wav
64,192,63644,1,0,0:0:0:50:snare.wav
192,192,63727,1,0,0:0:0:50:snare.wav
448,192,63810,1,0,0:0:0:50:snare.wav
320,192,63893,1,0,0:0:0:50:snare.wav
64,192,63976,1,0,0:0:0:70:drum_finish.wav
192,192,63976,1,0,0:0:0:70:kick low.wav
448,192,63976,1,0,0:0:0:0:
64,192,64307,1,0,0:0:0:50:hat_finish.wav
448,192,64307,1,0,0:0:0:70:snare.wav
192,192,64639,1,0,0:0:0:50:hat_finish.wav
192,192,64805,1,0,0:0:0:70:kick low.wav
320,192,64970,1,0,0:0:0:50:hat_finish.wav
448,192,64970,1,0,0:0:0:70:snare.wav
64,192,65136,1,0,0:0:0:70:kick low.wav
320,192,65302,1,0,0:0:0:50:hat_finish.wav
448,192,65468,1,0,0:0:0:70:kick low.wav
64,192,65633,1,0,0:0:0:50:hat_finish.wav
192,192,65633,1,0,0:0:0:70:snare.wav
320,192,65799,1,0,0:0:0:0:
64,192,65965,1,0,0:0:0:70:snare.wav
448,192,65965,1,0,0:0:0:50:kick low.wav
192,192,66048,1,0,0:0:0:50:kick low.wav
320,192,66131,1,0,0:0:0:50:kick low.wav
448,192,66214,1,0,0:0:0:50:kick low.wav
64,192,66296,1,0,0:0:0:50:kick low.wav
192,192,66379,1,0,0:0:0:50:kick low.wav
448,192,66462,1,0,0:0:0:50:kick low.wav
320,192,66545,1,0,0:0:0:50:kick low.wav
64,192,66628,1,0,0:0:0:70:drum_finish.wav
192,192,66628,1,0,0:0:0:70:snare.wav
448,192,66628,1,0,0:0:0:0:
64,192,67954,1,0,0:0:0:70:drum_finish.wav
320,192,67954,1,0,0:0:0:70:kick low.wav
320,192,68120,1,0,0:0:0:0:
64,192,68285,128,0,68451:0:0:0:70:snare.wav
192,192,68285,1,0,0:0:0:0:
448,192,68451,1,0,0:0:0:50:hat.wav
192,192,68617,1,0,0:0:0:70:kick low.wav
320,192,68617,1,0,0:0:0:0:
192,192,68783,1,0,0:0:0:50:hat.wav
320,192,68948,1,0,0:0:0:70:snare.wav
448,192,68948,128,0,69114:0:0:0:0:
64,192,69114,1,0,0:0:0:50:hat.wav
192,192,69280,1,0,0:0:0:70:kick low.wav
320,192,69280,1,0,0:0:0:0:
320,192,69446,1,0,0:0:0:50:hat.wav
64,192,69611,1,0,0:0:0:70:snare.wav
192,192,69611,128,0,69777:0:0:0:0:
448,192,69777,1,0,0:0:0:50:hat.wav
64,192,69943,1,0,0:0:0:70:kick low.wav
320,192,69943,1,0,0:0:0:0:
64,192,70109,1,0,0:0:0:50:hat.wav
320,192,70274,128,0,70440:0:0:0:70:snare.wav
448,192,70274,1,0,0:0:0:0:
64,192,70440,1,0,0:0:0:50:hat.wav
192,192,70606,1,0,0:0:0:70:kick low.wav
448,192,70606,1,0,0:0:0:0:
448,192,70772,1,0,0:0:0:50:hat.wav
192,192,70937,1,0,0:0:0:70:snare.wav
320,192,70937,128,0,71103:0:0:0:0:
64,192,71103,1,0,0:0:0:50:hat.wav
320,192,71269,1,0,0:0:0:70:kick low.wav
448,192,71269,1,0,0:0:0:0:
192,192,71435,128,0,71600:0:0:0:50:hat.wav
320,192,71435,1,0,0:0:0:0:
64,192,71600,1,0,0:0:0:70:snare.wav
448,192,71600,1,0,0:0:0:0:
192,192,71766,1,0,0:0:0:50:hat.wav
320,192,71766,128,0,71932:0:0:0:0:
448,192,71932,1,0,0:0:0:70:kick low.wav
64,192,72097,128,0,72263:0:0:0:50:hat.wav
448,192,72097,1,0,0:0:0:0:
192,192,72263,1,0,0:0:0:70:snare.wav
320,192,72263,1,0,0:0:0:0:
64,192,72429,1,0,0:0:0:50:hat.wav
448,192,72429,128,0,72595:0:0:0:0:
320,192,72595,1,0,0:0:0:70:kick low.wav
192,192,72760,128,0,73092:0:0:0:50:hat.wav
320,192,72760,1,0,0:0:0:0:
448,192,72926,1,0,0:0:0:70:kick low.wav
64,192,73092,1,0,0:0:0:70:snare.wav
320,192,73092,1,0,0:0:0:0:
192,192,73258,1,0,0:0:0:70:kick low.wav
448,192,73258,1,0,0:0:0:0:
192,192,73423,1,0,0:0:0:50:hat.wav
64,192,73589,1,0,0:0:0:70:snare.wav
448,192,73589,128,0,73755:0:0:0:0:
192,192,73755,1,0,0:0:0:50:hat.wav
320,192,73921,1,0,0:0:0:70:kick low.wav
448,192,73921,1,0,0:0:0:0:
320,192,74086,1,0,0:0:0:50:hat.wav
64,192,74252,128,0,74418:0:0:0:70:snare.wav
192,192,74252,1,0,0:0:0:0:
448,192,74418,1,0,0:0:0:50:hat.wav
192,192,74584,1,0,0:0:0:70:kick low.wav
320,192,74584,1,0,0:0:0:0:
192,192,74749,1,0,0:0:0:50:hat.wav
320,192,74915,128,0,75081:0:0:0:70:snare.wav
448,192,74915,1,0,0:0:0:0:
64,192,75081,1,0,0:0:0:50:hat.wav
192,192,75247,1,0,0:0:0:70:kick low.wav
448,192,75247,1,0,0:0:0:0:
448,192,75412,1,0,0:0:0:50:hat.wav
64,192,75578,128,0,75744:0:0:0:70:snare.wav
192,192,75578,1,0,0:0:0:0:
320,192,75744,1,0,0:0:0:50:hat.wav
192,192,75910,1,0,0:0:0:70:kick low.wav
448,192,75910,1,0,0:0:0:0:
192,192,76075,1,0,0:0:0:50:hat.wav
320,192,76241,1,0,0:0:0:70:snare.wav
448,192,76241,128,0,76407:0:0:0:0:
64,192,76407,1,0,0:0:0:50:hat.wav
192,192,76573,1,0,0:0:0:70:kick low.wav
320,192,76573,1,0,0:0:0:0:
64,192,76738,128,0,76904:0:0:0:50:hat.wav
320,192,76738,1,0,0:0:0:0:
192,192,76904,1,0,0:0:0:70:snare.wav
448,192,76904,1,0,0:0:0:0:
320,192,77070,128,0,77236:0:0:0:50:hat.wav
448,192,77070,1,0,0:0:0:0:
64,192,77236,1,0,0:0:0:70:kick low.wav
192,192,77236,1,0,0:0:0:0:
320,192,77401,1,0,0:0:0:70:kick low.wav
448,192,77401,128,0,77567:0:0:0:50:hat.wav
64,192,77567,1,0,0:0:0:70:snare.wav
192,192,77567,1,0,0:0:0:0:
320,192,77733,128,0,77899:0:0:0:70:kick low.wav
448,192,77733,1,0,0:0:0:50:hat.wav
64,192,77899,1,0,0:0:0:70:snare.wav
192,192,77981,1,0,0:0:0:50:kick low.wav
448,192,78064,1,0,0:0:0:50:kick low.wav
320,192,78147,1,0,0:0:0:50:kick low.wav
192,192,78230,1,0,0:0:0:50:kick low.wav
320,192,78313,1,0,0:0:0:50:kick low.wav
192,192,78396,1,0,0:0:0:50:kick low.wav
320,192,78479,1,0,0:0:0:50:kick low.wav
64,192,78562,1,0,0:0:0:70:drum_finish.wav
192,192,78562,1,0,0:0:0:70:snare.wav
448,192,78562,1,0,0:0:0:0:
320,192,78727,1,0,0:0:0:70:kick low.wav
64,192,78893,1,0,0:0:0:70:snare.wav
320,192,78893,1,0,0:0:0:0:
448,192,79059,1,0,0:0:0:70:kick low.wav
64,192,79225,1,0,0:0:0:70:snare.wav
448,192,79225,1,0,0:0:0:0:
192,192,79390,1,0,0:0:0:70:kick low.wav
192,192,79556,1,0,0:0:0:70:snare.wav
448,192,79556,1,0,0:0:0:0:
64,192,79722,1,0,0:0:0:70:kick low.wav
64,192,79888,1,0,0:0:0:70:snare.wav
320,192,79888,1,0,0:0:0:0:
192,192,80053,1,0,0:0:0:70:kick low.wav
192,192,80219,1,0,0:0:0:70:snare.wav
448,192,80219,1,0,0:0:0:0:
320,192,80385,1,0,0:0:0:70:kick low.wav
64,192,80551,1,0,0:0:0:70:snare.wav
320,192,80551,1,0,0:0:0:0:
448,192,80716,1,0,0:0:0:70:kick low.wav
64,192,80882,1,0,0:0:0:70:snare.wav
448,192,80882,1,0,0:0:0:0:
192,192,81048,1,0,0:0:0:70:kick low.wav
320,192,81131,1,0,0:0:0:70:kick low.wav
192,192,81214,1,0,0:0:0:70:snare.wav
448,192,81214,1,0,0:0:0:0:
64,192,81379,1,0,0:0:0:70:kick low.wav
64,192,81545,1,0,0:0:0:70:snare.wav
448,192,81545,1,0,0:0:0:0:
192,192,81711,1,0,0:0:0:70:kick low.wav
192,192,81876,1,0,0:0:0:70:snare.wav
448,192,81876,1,0,0:0:0:0:
320,192,82042,1,0,0:0:0:70:kick low.wav
64,192,82208,1,0,0:0:0:70:snare.wav
320,192,82208,1,0,0:0:0:0:
448,192,82374,1,0,0:0:0:70:kick low.wav
192,192,82539,1,0,0:0:0:70:snare.wav
448,192,82539,1,0,0:0:0:0:
320,192,82705,1,0,0:0:0:70:kick low.wav
64,192,82871,1,0,0:0:0:70:snare.wav
320,192,82871,1,0,0:0:0:0:
192,192,83037,1,0,0:0:0:70:kick low.wav
320,192,83120,1,0,0:0:0:70:kick low.wav
64,192,83202,1,0,0:0:0:70:snare.wav
192,192,83202,1,0,0:0:0:0:
448,192,83368,1,0,0:0:0:70:kick low.wav
64,192,83534,1,0,0:0:0:70:snare.wav
448,192,83534,1,0,0:0:0:0:
192,192,83617,1,0,0:0:0:0:
320,192,83700,1,0,0:0:0:70:kick low.wav
192,192,83783,1,0,0:0:0:0:
64,192,83865,1,0,0:0:0:70:snare.wav
448,192,83865,1,0,0:0:0:0:
320,192,84031,1,0,0:0:0:70:kick low.wav
64,192,84197,1,0,0:0:0:70:snare.wav
320,192,84197,1,0,0:0:0:0:
192,192,84363,1,0,0:0:0:70:kick low.wav
192,192,84528,1,0,0:0:0:70:snare.wav
448,192,84528,1,0,0:0:0:0:
64,192,84694,1,0,0:0:0:70:kick low.wav
64,192,84860,1,0,0:0:0:70:snare.wav
320,192,84860,1,0,0:0:0:0:
192,192,85026,1,0,0:0:0:70:kick low.wav
192,192,85191,1,0,0:0:0:70:snare.wav
448,192,85191,1,0,0:0:0:0:
320,192,85357,1,0,0:0:0:70:kick low.wav
64,192,85523,1,0,0:0:0:70:snare.wav
320,192,85523,1,0,0:0:0:0:
448,192,85689,1,0,0:0:0:70:kick low.wav
64,192,85854,1,0,0:0:0:70:snare.wav
192,192,85937,1,0,0:0:0:50:kick low.wav
448,192,86020,1,0,0:0:0:50:kick low.wav
320,192,86103,1,0,0:0:0:50:kick low.wav
64,192,86186,1,0,0:0:0:50:kick low.wav
192,192,86269,1,0,0:0:0:50:kick low.wav
448,192,86352,1,0,0:0:0:50:kick low.wav
320,192,86435,1,0,0:0:0:50:kick low.wav
64,192,86517,128,0,86683:0:0:0:70:snare.wav
192,192,86517,1,0,0:0:0:0:
320,192,86683,1,0,0:0:0:0:
448,192,86683,128,0,86849:0:0:0:0:
64,192,86849,128,0,87015:0:0:0:70:snare.wav
192,192,86849,128,0,87015:0:0:0:0:
320,192,87015,128,0,87180:0:0:0:70:snare.wav
448,192,87015,128,0,87180:0:0:0:0:
64,192,87180,1,0,0:0:0:70:kick low.wav
320,192,87346,128,0,87512:0:0:0:70:snare.wav
448,192,87346,128,0,87512:0:0:0:0:
64,192,87512,128,0,87678:0:0:0:70:snare.wav
192,192,87512,128,0,87678:0:0:0:0:
320,192,87760,1,0,0:0:0:50:snare.wav
448,192,87843,1,0,0:0:0:70:snare.wav
64,192,87926,1,0,0:0:0:50:snare.wav
192,192,88009,1,0,0:0:0:50:snare.wav
320,192,88092,1,0,0:0:0:50:snare.wav
64,192,88175,1,0,0:0:0:50:kick low.wav
192,192,88258,1,0,0:0:0:50:kick low.wav
448,192,88341,1,0,0:0:0:50:kick low.wav
320,192,88423,1,0,0:0:0:50:kick low.wav
64,192,88506,128,0,89832:0:0:0:70:drum_finish.wav
192,192,88506,128,0,89832:0:0:0:50:snare.wav
320,192,89832,128,0,90495:0:0:0:70:drum_finish.wav
448,192,89832,128,0,90495:0:0:0:100:LR_Tom Hit.wav
64,192,90495,128,0,91075:0:0:0:70:drum_finish.wav
192,192,90495,128,0,91075:0:0:0:100:LR_Tom Hit 2.wav
64,192,91158,128,0,94142:0:0:0:70:drum_finish.wav
320,192,91158,128,0,93810:0:0:0:100:LR_Tom Hit 3.wav
448,192,91158,128,0,93810:0:0:0:0:
192,192,93810,128,0,94142:0:0:0:0:
