osu file format v14

[General]
AudioFilename: audio.mp3
AudioLeadIn: 0
PreviewTime: 63039
Countdown: 0
SampleSet: Soft
StackLeniency: 0.4
Mode: 0
LetterboxInBreaks: 0
WidescreenStoryboard: 0

[Editor]
DistanceSpacing: 1.3
BeatDivisor: 4
GridSize: 32
TimelineZoom: 1.4

[Metadata]
Title:Fatima
TitleUnicode:ファティマ
Artist:Roselia
ArtistUnicode:Roselia
Creator:-Aqua
Version:Zeitgeist
Source:バンドリ! ガールズバンドパーティ!
Tags:BanG Dream! Bandori! Girls Band Party! ガルパ Garupa insert cover original song single album Bandori project Girl Party Garupa! Fries Fried Potato Anfang ロゼリア Rozeria 湊友希那 Minato Yukina 氷川紗夜 Hikawa Sayo 今井リサ Imai Lisa 宇田川あこ Udagawa Ako 白金燐子 Shirokane Rinko 相羽あいな Aiba Aina Aiai 工藤晴香 Kudō Haruka Kudo Kudou Kudoharu Kdhr 遠藤ゆりか Endō Yurika Endo Endou Yurishii 桜川めぐ Sakuragawa Megu Meguchii 明坂聡美 Akesaka Satomi Akeko 中島由貴 Nakashima Yuki Shimayuki 志崎樺音 Shizaki Kanon Nonchan Non-chan Anime Japanese Video Game Mocaotic evaotic PaRaDogi steins;gate steins gate 0 zero シュタインズ・ゲート ゼロ シュタインズ・ゲート・ゼロ いとうかなこ itou kanako
BeatmapID:2173398
BeatmapSetID:1039778

[Difficulty]
HPDrainRate:6
CircleSize:4
OverallDifficulty:8.7
ApproachRate:9.2
SliderMultiplier:1.6
SliderTickRate:1

[Events]
//Background and Video events
0,0,"1255Sayo-Hikawa-Power-Jc4wh4_waifu2x_art_noise3_scale_tta_1.jpg",0,0
//Break Periods
//Storyboard Layer 0 (Background)
//Storyboard Layer 1 (Fail)
//Storyboard Layer 2 (Pass)
//Storyboard Layer 3 (Foreground)
//Storyboard Layer 4 (Overlay)
//Storyboard Sound Samples

[TimingPoints]
2704,335.195530726257,4,2,1,40,1,0
2871,-100,4,2,1,60,0,0
3039,-100,4,2,1,40,0,0
3206,-100,4,2,1,60,0,0
3375,-100,4,2,1,40,0,0
5552,-100,4,2,1,60,0,0
5720,-100,4,2,1,40,0,0
5887,-100,4,2,1,60,0,0
6055,-100,4,2,1,40,0,0
6892,-100,4,2,1,60,0,0
7061,-100,4,2,1,40,0,0
8067,-83.3333333333333,4,2,1,70,0,0
8318,-83.3333333333333,4,2,1,5,0,0
8402,-83.3333333333333,4,2,1,70,0,0
10161,-83.3333333333333,4,2,1,5,0,0
10245,-83.3333333333333,4,2,1,70,0,0
10999,-83.3333333333333,4,2,1,5,0,0
11083,-83.3333333333333,4,2,1,70,0,0
12843,-83.3333333333333,4,2,1,5,0,0
12927,-83.3333333333333,4,2,1,70,0,0
13681,-83.3333333333333,4,2,1,5,0,0
13765,-83.3333333333333,4,2,1,70,0,0
15524,-83.3333333333333,4,2,1,5,0,0
15609,-83.3333333333333,4,2,1,70,0,0
16111,-125,4,2,1,70,0,0
17535,-125,4,2,1,5,0,0
17955,-125,4,2,1,70,0,0
18038,-125,4,2,1,5,0,0
18122,-125,4,2,1,70,0,0
18793,-111.111111111111,4,2,1,55,0,0
24072,-111.111111111111,4,2,1,5,0,0
24156,-111.111111111111,4,2,1,55,0,0
28178,-71.4285714285714,4,2,1,55,0,0
28345,-71.4285714285714,4,2,1,60,0,0
28514,-71.4285714285714,4,2,1,55,0,0
28681,-71.4285714285714,4,2,1,60,0,0
28849,-71.4285714285714,4,2,1,55,0,0
29519,-142.857142857143,4,2,1,45,0,0
39407,-100,4,2,1,45,0,0
39574,-100,4,2,1,60,0,0
39743,-100,4,2,1,45,0,0
40161,-100,4,2,1,5,0,0
40245,-142.857142857143,4,2,1,45,0,0
44854,-142.857142857143,4,2,1,45,0,0
44938,-142.857142857143,4,2,1,45,0,0
50301,-142.857142857143,4,2,1,60,0,0
50469,-142.857142857143,4,2,1,45,0,0
50972,-100,4,2,1,60,0,0
51223,-100,4,2,1,5,0,0
51307,-100,4,2,1,60,0,0
53904,-100,4,2,1,5,0,0
53988,-100,4,2,1,60,0,0
64212,-66.6666666666667,4,2,1,80,0,1
64463,-66.6666666666667,4,2,1,5,0,1
64547,-66.6666666666667,4,2,1,80,0,1
64882,-66.6666666666667,4,2,1,60,0,1
65050,-66.6666666666667,4,2,1,80,0,1
65217,-200,4,2,1,80,0,1
65553,-66.6666666666667,4,2,1,80,0,1
65804,-66.6666666666667,4,2,1,5,0,1
65888,-66.6666666666667,4,2,1,80,0,1
67144,-66.6666666666667,4,2,1,5,0,1
67229,-66.6666666666667,4,2,1,80,0,1
67899,-200,4,2,1,80,0,1
68234,-66.6666666666667,4,2,1,80,0,1
68485,-66.6666666666667,4,2,1,5,0,1
68569,-66.6666666666667,4,2,1,80,0,1
71167,-66.6666666666667,4,2,1,5,0,1
71251,-66.6666666666667,4,2,1,80,0,1
71921,-200,4,2,1,80,0,1
74854,-200,4,2,1,80,0,0
74938,-66.6666666666667,4,2,1,80,0,1
75189,-66.6666666666667,4,2,1,5,0,1
75273,-66.6666666666667,4,2,1,80,0,1
76530,-66.6666666666667,4,2,1,5,0,1
76614,-66.6666666666667,4,2,1,80,0,1
77871,-66.6666666666667,4,2,1,5,0,1
77955,-66.6666666666667,4,2,1,80,0,1
79211,-66.6666666666667,4,2,1,5,0,1
79296,-66.6666666666667,4,2,1,80,0,1
81893,-66.6666666666667,4,2,1,5,0,1
81977,-66.6666666666667,4,2,1,80,0,1
85497,-200,4,2,1,80,0,1
85748,-200,4,2,1,5,0,1
85832,-153.846153846153,4,2,1,60,0,0
89770,-153.846153846153,4,2,1,5,0,0
89854,-153.846153846153,4,2,1,60,0,0

[Colours]
Combo1 : 170,240,233
Combo2 : 64,224,208
Combo3 : 162,168,249
Combo4 : 92,99,240

[HitObjects]
116,98,2704,6,0,P|79:85|24:72,1,80,0|0,0:0|2:0,2:0:0:0:
161,183,3039,2,0,P|198:170|253:157,1,80,2|0,0:0|2:0,2:0:0:0:
284,76,3375,1,2,0:0:0:0:
294,62,3541,1,2,0:0:0:0:
428,125,3709,1,2,0:0:0:0:
438,139,3877,1,2,0:0:0:0:
491,20,4044,6,0,P|478:79|456:190,1,160,0|2,0:0|0:0,2:0:0:0:
350,296,4715,2,0,P|336:262|320:230,2,40,2|2|2,0:0|0:0|0:0,2:0:0:0:
428,358,5050,1,2,0:0:0:0:
340,312,5217,1,2,0:0:0:0:
167,384,5385,6,0,P|129:370|90:362,1,80,0|0,0:0|2:0,2:0:0:0:
167,251,5720,2,0,P|206:243|243:229,1,80,2|0,0:0|2:0,2:0:0:0:
340,312,6055,1,2,0:0:0:0:
350,326,6223,1,2,0:0:0:0:
482,261,6392,1,2,0:0:0:0:
492,247,6558,1,2,0:0:0:0:
375,109,6726,5,2,0:0:0:0:
365,95,6892,1,0,2:0:0:0:
167,251,7061,5,2,0:0:0:0:
200,229,7144,1,2,0:0:0:0:
236,212,7228,1,2,0:0:0:0:
275,202,7312,1,2,0:0:0:0:
315,198,7396,5,10,0:0:0:0:
326,210,7564,1,8,0:0:0:0:
454,81,7899,5,2,0:0:0:0:
454,81,7983,1,2,0:0:0:0:
454,81,8067,6,0,P|400:75|340:-34,1,143.999995605469,4|0,0:0|2:0,2:0:0:0:
352,0,8402,1,10,0:2:0:0:
197,136,8569,2,0,P|245:133|283:105,1,95.9999970703126,2|0,3:0|1:0,2:0:0:0:
66,17,8905,2,0,P|103:45|151:48,1,95.9999970703126,2|8,3:0|0:0,2:0:0:0:
43,236,9240,6,0,P|34:189|11:147,1,95.9999970703126,2|0,3:0|1:0,2:0:0:0:
131,279,9575,1,2,3:0:0:0:
220,155,9743,1,8,0:0:0:0:
356,235,9910,2,0,P|387:286|408:374,1,143.999995605469,2|0,3:0|2:0,2:0:0:0:
401,384,10245,1,2,3:0:0:0:
467,231,10413,1,8,0:0:0:0:
309,357,10581,1,2,3:0:0:0:
204,170,10748,6,0,P|173:221|152:309,1,143.999995605469,0|0,1:0|2:0,2:0:0:0:
159,319,11083,1,8,0:0:0:0:
79,194,11251,2,0,P|51:136|31:106,1,95.9999970703126,2|0,3:0|1:0,2:0:0:0:
185,14,11586,2,0,P|159:55|140:99,1,95.9999970703126,2|8,3:0|0:0,2:0:0:0:
273,231,11921,6,0,P|317:266|373:263,1,95.9999970703126,2|0,3:0|1:0,2:0:0:0:
466,205,12257,1,2,3:0:0:0:
361,365,12424,1,8,0:0:0:0:
375,172,12592,2,0,P|359:100|335:15,1,143.999995605469,2|0,3:0|2:0,2:0:0:0:
330,19,12927,1,2,3:0:0:0:
473,193,13095,1,8,0:0:0:0:
345,285,13262,1,8,0:0:0:0:
345,285,13346,1,8,0:0:0:0:
345,285,13430,6,0,P|270:255|194:243,1,143.999995605469,4|0,0:2|2:0,2:0:0:0:
198,254,13765,1,8,0:0:0:0:
70,384,13933,2,0,B|66:340|66:340|88:291,1,95.9999970703126,2|0,3:0|1:0,2:0:0:0:
180,162,14268,2,0,B|201:209|201:209|197:253,1,95.9999970703126,2|8,3:0|0:0,2:0:0:0:
86,96,14603,6,0,P|134:55|190:52,1,95.9999970703126,2|0,3:0|1:0,2:0:0:0:
260,107,14938,1,2,3:0:0:0:
358,0,15106,1,8,0:0:0:0:
507,174,15273,2,0,P|442:118|364:131,1,143.999995605469,2|0,3:0|2:0,2:0:0:0:
376,132,15609,1,2,3:0:0:0:
329,242,15776,2,0,L|352:357,1,95.9999970703126,8|2,0:0|3:0,2:0:0:0:
242,199,16111,6,0,L|256:117,1,64,0|2,1:0|3:0,2:0:0:0:
424,202,16447,2,0,L|438:284,1,64,8|2,0:0|3:0,2:0:0:0:
355,369,16782,1,8,3:0:0:0:
160,288,16949,5,8,0:0:0:0:
157,267,17033,1,8,0:0:0:0:
153,246,17117,1,8,0:0:0:0:
149,225,17201,1,8,3:0:0:0:
147,204,17284,1,8,3:0:0:0:
114,0,17452,6,0,L|123:57,1,32,2|0,0:0|2:0,2:0:0:0:
37,252,17955,2,0,L|46:195,1,32,2|0,0:0|2:0,2:0:0:0:
133,238,18122,6,0,B|227:188|211:277|315:237,1,192,0|0,2:0|2:0,2:0:0:0:
392,109,18793,6,0,P|379:75|353:50,1,71.9999978027344,4|0,0:0|1:0,2:0:0:0:
331,215,19128,1,8,0:0:0:0:
284,135,19296,1,0,1:0:0:0:
284,135,19379,1,0,1:0:0:0:
284,135,19463,1,0,1:0:0:0:
425,239,19631,1,0,1:0:0:0:
333,314,19798,2,0,L|254:292,1,71.9999978027344,8|0,0:0|1:0,2:0:0:0:
109,363,20134,6,0,B|88:332|88:332|113:214,1,143.999995605469,0|8,1:0|0:0,2:0:0:0:
157,101,20636,1,0,1:0:0:0:
157,101,20720,1,0,1:0:0:0:
157,101,20804,1,0,1:0:0:0:
194,189,20972,1,0,1:0:0:0:
58,78,21139,1,8,0:0:0:0:
58,78,21307,1,0,1:0:0:0:
243,5,21474,6,0,B|332:-14|308:46|392:32,1,143.999995605469,0|8,1:0|0:0,2:0:0:0:
486,0,21977,1,0,1:0:0:0:
486,0,22061,1,0,1:0:0:0:
486,0,22145,1,0,1:0:0:0:
362,49,22312,1,0,1:0:0:0:
473,166,22480,1,8,0:0:0:0:
473,166,22648,1,0,1:0:0:0:
297,236,22815,6,0,L|323:158,1,71.9999978027344,0|0,1:0|1:0,2:0:0:0:
419,286,23150,2,0,L|445:364,1,71.9999978027344,8|0,0:0|1:0,2:0:0:0:
432,370,23402,1,0,1:0:0:0:
432,370,23486,1,0,1:0:0:0:
493,195,23653,1,0,1:0:0:0:
309,265,23821,2,0,P|257:234|202:218,1,107.999996704102,8|0,0:0|2:0,2:0:0:0:
200,239,24156,6,0,P|153:266|103:281,1,71.9999978027344,4|0,1:2|1:0,2:0:0:0:
32,382,24491,1,8,0:0:0:0:
39,278,24659,1,0,1:0:0:0:
39,278,24743,1,0,1:0:0:0:
39,278,24826,1,0,1:0:0:0:
184,373,24994,1,0,1:0:0:0:
200,239,25162,2,0,P|186:203|144:154,1,71.9999978027344,8|0,0:0|1:0,2:0:0:0:
66,34,25497,6,0,P|110:66|205:53,1,143.999995605469,0|8,1:0|0:0,2:0:0:0:
294,0,26000,1,0,1:0:0:0:
294,0,26083,1,0,1:0:0:0:
294,0,26167,1,0,1:0:0:0:
389,129,26335,1,0,1:0:0:0:
477,36,26502,1,8,0:0:0:0:
477,36,26670,1,0,1:0:0:0:
376,153,26838,6,0,L|411:306,1,143.999995605469,0|8,1:0|0:0,2:0:0:0:
498,370,27340,1,0,1:0:0:0:
498,370,27424,1,0,1:0:0:0:
498,370,27508,1,0,1:0:0:0:
320,280,27676,1,0,1:0:0:0:
320,280,27843,1,8,0:0:0:0:
481,131,28011,1,0,1:0:0:0:
481,131,28095,1,0,1:0:0:0:
481,131,28178,6,0,L|514:242,1,111.999996582031,4|0,0:0|2:0,2:0:0:0:
291,107,28514,2,0,L|324:-4,1,111.999996582031,4|0,0:0|2:0,2:0:0:0:
326,298,28849,5,8,0:0:0:0:
285,341,28960,5,8,0:0:0:0:
225,333,29072,5,8,0:0:0:0:
184,290,29184,5,8,3:0:0:0:
124,298,29296,5,8,3:0:0:0:
83,341,29407,5,8,3:0:0:0:
110,384,29519,6,0,P|95:332|33:220,1,167.999994873047,4|0,0:2|1:0,2:0:0:0:
27,225,30106,1,0,1:0:0:0:
27,225,30190,1,8,0:0:0:0:
9,343,30357,1,0,1:0:0:0:
148,210,30525,1,2,0:0:0:0:
148,210,30692,1,2,0:0:0:0:
3,55,30860,6,0,P|68:79|126:90,1,111.999996582031,0|2,1:0|0:0,2:0:0:0:
191,16,31364,2,0,P|216:5|244:0,1,55.9999982910157,0|8,1:0|0:0,2:0:0:0:
360,102,31698,2,0,P|375:148|312:173,1,111.999996582031,0|2,1:0|0:0,2:0:0:0:
470,32,32201,5,2,1:2:0:0:
345,200,32704,1,0,1:0:0:0:
345,200,32787,1,0,1:0:0:0:
345,200,32871,1,8,0:0:0:0:
441,237,33039,1,0,1:0:0:0:
354,88,33206,1,2,0:0:0:0:
354,88,33374,1,2,0:0:0:0:
246,281,33541,6,0,L|273:341,1,55.9999982910157,0|0,1:0|1:0,2:0:0:0:
268,332,34044,1,0,1:0:0:0:
168,384,34212,2,0,P|127:375|118:358,1,55.9999982910157,8|0,0:0|1:0,2:0:0:0:
52,278,34547,2,0,P|11:287|2:304,1,55.9999982910157,0|2,1:0|0:0,2:0:0:0:
121,198,34882,6,0,B|134:149|134:149|74:40,1,167.999994873047,4|0,0:2|1:0,2:0:0:0:
61,38,35469,1,0,1:0:0:0:
61,38,35553,1,8,0:0:0:0:
32,159,35720,1,0,1:0:0:0:
198,20,35888,1,2,0:0:0:0:
198,20,36055,1,2,0:0:0:0:
280,120,36223,6,0,B|349:104|324:153|404:136,1,111.999996582031,0|2,1:0|0:0,2:0:0:0:
463,75,36726,1,0,1:0:0:0:
416,232,36893,2,0,P|402:284|402:308,1,55.9999982910157,8|0,0:0|1:0,2:0:0:0:
311,151,37229,1,8,0:0:0:0:
454,364,37564,5,4,0:0:0:0:
261,301,37731,1,2,0:0:0:0:
432,208,37899,1,8,0:0:0:0:
270,384,38067,1,0,1:0:0:0:
444,189,38402,5,0,1:0:0:0:
245,294,38569,1,8,0:0:0:0:
463,373,38737,1,0,1:0:0:0:
474,378,39072,1,0,1:0:0:0:
252,199,39407,2,0,P|214:204|175:229,1,80,12|0,0:0|2:0,2:0:0:0:
149,320,39743,1,8,0:0:0:0:
231,111,39910,6,0,P|284:117|336:174,1,120,0|0,1:0|2:0,2:0:0:0:
333,194,40245,6,0,P|377:147|484:157,1,167.999994873047,4|0,0:0|1:0,2:0:0:0:
490,168,40832,1,0,1:0:0:0:
490,168,40916,1,8,0:0:0:0:
350,118,41083,1,0,1:0:0:0:
450,248,41251,2,0,B|467:280|482:320|482:320,1,55.9999982910157,2|2,0:0|0:0,2:0:0:0:
331,342,41586,6,0,B|269:339|281:391|213:382,1,111.999996582031,0|2,1:0|0:0,2:0:0:0:
131,312,42089,2,0,P|100:324|53:259,1,111.999996582031,0|0,1:0|1:0,2:0:0:0:
115,186,42592,1,0,1:0:0:0:
115,186,42759,1,2,0:0:0:0:
235,357,42927,5,2,1:2:0:0:
127,201,43430,1,0,1:0:0:0:
127,201,43514,1,0,1:0:0:0:
127,201,43597,1,8,0:0:0:0:
260,124,43765,1,0,1:0:0:0:
230,208,43933,2,0,P|222:235|214:280,1,55.9999982910157,2|2,0:0|0:0,2:0:0:0:
72,91,44268,5,0,1:0:0:0:
72,91,44435,1,0,1:0:0:0:
224,18,44771,1,0,1:0:0:0:
224,18,44854,1,0,1:0:0:0:
224,18,44938,2,0,P|266:46|295:53,1,55.9999982910157,8|0,0:0|1:0,2:0:0:0:
342,134,45273,2,0,P|384:106|413:99,1,55.9999982910157,0|2,1:0|0:0,2:0:0:0:
512,2,45609,6,0,L|482:180,1,167.999994873047,4|0,0:2|1:0,2:0:0:0:
472,183,46195,1,0,1:0:0:0:
472,183,46279,1,8,0:0:0:0:
369,82,46447,1,0,1:0:0:0:
350,242,46614,2,0,L|372:320,1,55.9999982910157,2|2,0:0|0:0,2:0:0:0:
187,138,46949,6,0,L|151:264,1,111.999996582031,0|2,1:0|0:0,2:0:0:0:
83,62,47452,1,0,1:0:0:0:
178,262,47620,1,8,0:0:0:0:
203,120,47787,1,0,1:0:0:0:
74,289,47955,1,8,0:0:0:0:
0,160,48122,1,8,0:0:0:0:
198,280,48290,5,4,0:0:0:0:
187,138,48458,1,2,0:0:0:0:
66,309,48625,1,8,0:0:0:0:
272,201,48793,1,4,0:0:0:0:
54,329,49128,5,0,1:0:0:0:
203,120,49296,1,8,0:0:0:0:
216,296,49463,1,4,1:2:0:0:
219,311,49798,1,0,1:0:0:0:
224,333,50134,1,12,0:0:0:0:
87,183,50301,1,0,2:0:0:0:
317,298,50469,5,8,3:0:0:0:
338,280,50552,1,8,3:0:0:0:
364,271,50636,1,8,3:0:0:0:
392,274,50720,1,8,3:0:0:0:
413,292,50804,1,8,3:0:0:0:
439,300,50888,1,8,3:0:0:0:
467,297,50972,6,0,P|492:257|464:165,1,120,4|0,0:0|2:0,2:0:0:0:
465,175,51307,2,0,L|472:95,1,80,8|0,0:0|2:0,2:0:0:0:
378,20,51642,1,0,1:0:0:0:
378,20,51810,1,0,1:0:0:0:
276,172,51977,1,10,0:0:0:0:
227,73,52145,1,2,0:0:0:0:
371,197,52312,6,0,P|416:178|457:171,1,80,0|0,1:0|1:0,2:0:0:0:
288,311,52648,2,0,P|243:292|202:285,1,80,8|0,0:0|2:0,2:0:0:0:
347,384,52983,1,0,1:0:0:0:
347,384,53150,1,0,1:0:0:0:
200,262,53318,1,10,0:0:0:0:
136,381,53486,1,2,0:0:0:0:
0,272,53653,6,0,P|-6:221|39:163,1,120,2|0,1:2|2:0,2:0:0:0:
54,156,53988,2,0,P|95:158|156:176,1,80,8|0,0:0|2:0,2:0:0:0:
200,262,54324,1,0,1:0:0:0:
200,262,54491,1,0,1:0:0:0:
295,96,54659,1,10,0:0:0:0:
340,193,54826,1,2,0:0:0:0:
194,99,54994,6,0,P|137:71|111:61,1,80,0|0,1:0|1:0,2:0:0:0:
269,212,55329,2,0,P|326:184|352:174,1,80,8|0,0:0|2:0,2:0:0:0:
379,74,55664,1,0,1:0:0:0:
379,74,55832,1,0,1:0:0:0:
276,239,56000,1,12,0:0:0:0:
194,117,56167,1,0,1:0:0:0:
420,274,56335,5,2,1:2:0:0:
189,374,56502,1,8,0:2:0:0:
361,165,56670,5,2,1:2:0:0:
105,137,56838,1,8,0:2:0:0:
121,155,57173,6,0,P|142:204|152:239,2,80,8|8|8,3:0|3:0|3:0,2:0:0:0:
293,32,57676,5,2,1:2:0:0:
211,290,57843,1,8,0:2:0:0:
370,138,58011,5,2,1:2:0:0:
443,371,58178,1,8,0:2:0:0:
507,116,58514,6,0,P|494:77|478:41,2,80,8|8|0,0:0|0:0|1:0,2:0:0:0:
320,364,59016,5,12,0:0:0:0:
387,120,59184,1,0,1:0:0:0:
175,214,59352,1,0,1:0:0:0:
448,299,59519,5,12,0:0:0:0:
270,68,59687,1,0,1:0:0:0:
224,302,59854,1,0,1:0:0:0:
365,360,60022,5,12,0:0:0:0:
161,193,60190,1,0,1:0:0:0:
409,103,60357,1,0,1:0:0:0:
209,328,60525,5,12,0:0:0:0:
256,22,60692,1,0,1:0:0:0:
452,282,60860,1,0,1:0:0:0:
133,177,61028,5,12,0:0:0:0:
393,94,61195,1,0,1:0:0:0:
179,341,61363,5,12,0:0:0:0:
474,257,61530,1,2,0:0:0:0:
100,269,61698,6,0,L|93:317,3,40,2|2|2|2,0:0|0:0|0:0|0:0,2:0:0:0:
170,195,62033,2,0,L|163:147,3,40,2|2|2|2,0:0|0:0|0:0|0:0,2:0:0:0:
47,78,62368,2,0,L|40:126,3,40,2|2|2|2,0:0|0:0|0:0|0:0,2:0:0:0:
209,39,62704,2,0,L|202:-9,3,40,2|2|2|2,0:0|0:0|0:0|0:0,2:0:0:0:
209,39,64212,6,0,B|307:-3|281:103|413:54,1,180.000006866455,4|0,0:0|2:0,2:0:0:0:
397,52,64547,1,0,1:0:0:0:
512,219,64715,2,0,P|440:194|363:181,1,120.000004577637,8|0,0:0|2:0,2:0:0:0:
251,275,65050,1,0,1:0:0:0:
383,174,65217,6,0,L|388:230,1,40,0|8,1:0|0:0,2:0:0:0:
300,371,65553,6,0,P|225:380|149:302,1,180.000006866455,2|0,0:0|2:0,2:0:0:0:
150,290,65888,1,0,1:0:0:0:
227,185,66055,1,8,0:0:0:0:
165,384,66223,1,2,0:0:0:0:
73,229,66391,2,0,P|48:160|11:89,1,120.000004577637,0|0,1:0|1:0,2:0:0:0:
57,248,66726,1,8,0:0:0:0:
228,13,66893,6,0,P|212:85|203:199,1,180.000006866455,4|0,0:0|2:0,2:0:0:0:
215,206,67229,1,0,1:0:0:0:
366,118,67396,2,0,P|392:66|372:4,1,120.000004577637,8|2,0:0|0:0,2:0:0:0:
444,200,67731,1,0,1:0:0:0:
509,106,67899,6,0,L|513:151,1,40,0|8,1:0|0:0,2:0:0:0:
440,315,68234,6,0,B|358:262|366:359|240:319,1,180.000006866455,2|0,0:0|2:0,2:0:0:0:
260,309,68569,1,0,1:0:0:0:
39,258,68737,2,0,P|96:226|151:213,1,120.000004577637,8|2,0:0|0:0,2:0:0:0:
95,365,69072,1,0,1:0:0:0:
243,210,69240,1,0,1:0:0:0:
64,142,69407,1,8,0:0:0:0:
216,68,69575,6,0,B|265:49|315:79|315:79|341:41|341:41|382:72|454:28,1,240.000009155274,4|2,0:0|3:2,2:0:0:0:
439,31,69994,1,2,3:2:0:0:
439,31,70078,1,10,3:2:0:0:
262,182,70245,1,2,3:2:0:0:
262,182,70329,1,2,3:2:0:0:
262,182,70413,1,2,3:2:0:0:
378,299,70581,1,2,1:2:0:0:
463,193,70748,1,8,0:0:0:0:
280,346,70916,6,0,B|192:310|197:416|94:379,1,180.000006866455,4|0,0:0|2:0,2:0:0:0:
96,368,71251,1,0,1:0:0:0:
14,188,71419,1,8,0:0:0:0:
136,252,71586,1,2,3:2:0:0:
136,252,71670,1,2,3:2:0:0:
136,252,71754,1,2,3:2:0:0:
36,287,71921,6,0,L|-9:268,2,40,2|10|2,1:2|0:0|1:2,2:0:0:0:
300,100,72424,5,12,0:0:0:0:
41,171,72592,1,0,1:0:0:0:
308,73,72759,1,0,1:0:0:0:
131,234,72927,5,12,0:0:0:0:
417,312,73095,1,0,1:0:0:0:
114,243,73262,1,0,1:0:0:0:
380,40,73430,5,12,0:0:0:0:
290,335,73597,1,0,1:0:0:0:
401,32,73765,1,0,1:0:0:0:
220,251,73933,5,12,0:0:0:0:
177,45,74101,1,0,1:0:0:0:
209,270,74268,1,0,1:0:0:0:
459,110,74435,5,12,0:0:0:0:
114,216,74603,1,0,1:0:0:0:
447,128,74938,6,0,B|407:240|512:201|441:342,1,180.000006866455,4|0,0:0|2:0,2:0:0:0:
448,318,75273,1,0,1:0:0:0:
488,204,75441,1,8,0:0:0:0:
333,348,75609,1,2,3:2:0:0:
333,348,75692,1,2,3:2:0:0:
333,348,75776,1,0,1:0:0:0:
259,251,75944,2,0,P|236:193|199:139,1,120.000004577637,0|8,1:0|0:0,2:0:0:0:
439,35,76279,6,0,P|409:113|393:218,1,180.000006866455,2|0,0:0|2:0,2:0:0:0:
403,226,76614,1,0,1:0:0:0:
295,43,76782,1,8,0:0:0:0:
193,166,76949,1,2,0:0:0:0:
19,84,77117,2,0,P|78:69|151:61,1,120.000004577637,0|0,1:0|1:0,2:0:0:0:
5,108,77452,1,8,0:0:0:0:
206,257,77620,6,0,B|109:230|125:309|1:306,1,180.000006866455,4|0,0:0|2:0,2:0:0:0:
21,291,77955,1,0,1:0:0:0:
176,368,78122,2,0,P|248:364|285:317,1,120.000004577637,8|2,0:0|3:2,2:0:0:0:
189,239,78458,1,0,1:0:0:0:
375,366,78625,1,2,1:2:0:0:
375,366,78709,1,2,3:2:0:0:
375,366,78793,1,10,0:0:0:0:
491,253,78960,6,0,P|457:195|352:201,1,180.000006866455,2|0,0:0|2:0,2:0:0:0:
350,215,79296,1,0,1:0:0:0:
489,369,79463,1,8,0:0:0:0:
456,155,79631,1,2,3:2:0:0:
456,155,79715,1,2,3:2:0:0:
456,155,79798,1,0,1:0:0:0:
277,305,79966,5,0,1:0:0:0:
246,279,80049,1,0,1:0:0:0:
208,267,80133,1,8,3:0:0:0:
168,269,80217,1,8,3:0:0:0:
137,294,80301,1,8,3:0:0:0:
99,306,80385,1,8,3:0:0:0:
59,304,80469,6,0,P|12:242|49:173,1,120.000004577637,4|2,0:0|3:2,2:0:0:0:
36,190,80720,1,2,3:2:0:0:
36,190,80804,1,10,3:2:0:0:
174,70,80972,1,2,3:2:0:0:
174,70,81055,1,2,3:2:0:0:
174,70,81139,1,0,1:0:0:0:
158,169,81307,1,0,1:0:0:0:
48,29,81474,1,8,0:0:0:0:
259,145,81642,6,0,P|318:109|434:87,1,180.000006866455,4|0,1:2|2:0,2:0:0:0:
434,103,81977,1,0,1:0:0:0:
323,20,82145,1,8,0:0:0:0:
415,211,82312,2,0,B|442:261|442:261|429:367,1,120.000004577637,2|0,0:0|1:0,2:0:0:0:
504,172,82648,1,8,3:0:0:0:
428,343,82815,1,4,3:0:0:0:
328,275,82983,1,2,1:2:0:0:
328,275,83067,1,2,0:0:0:0:
328,275,83150,5,12,0:0:0:0:
485,157,83318,1,0,1:0:0:0:
485,157,83486,1,0,1:0:0:0:
170,127,83653,5,12,0:0:0:0:
371,168,83821,1,0,1:0:0:0:
371,168,83988,1,0,1:0:0:0:
186,330,84156,5,12,0:0:0:0:
432,244,84324,1,0,1:0:0:0:
118,51,84491,5,12,0:0:0:0:
281,295,84659,1,0,1:0:0:0:
281,295,84826,1,0,1:0:0:0:
495,91,84994,5,12,0:0:0:0:
411,382,85162,1,0,1:0:0:0:
411,382,85329,1,0,1:0:0:0:
70,246,85497,6,0,L|94:310,1,60,12|0,0:0|2:0,2:0:0:0:
109,309,85832,6,0,L|68:197,1,103.999995239258,4|2,0:0|3:0,2:0:0:0:
163,134,86502,1,0,2:0:0:0:
246,264,86838,6,0,L|232:379,1,103.999995239258,2|0,3:0|1:0,2:0:0:0:
418,256,87508,2,0,P|445:164|366:82,1,207.999990478516,2|2,3:0|3:0,2:0:0:0:
289,32,88346,1,0,1:0:0:0:
289,32,88430,1,0,1:0:0:0:
289,32,88514,6,0,B|247:27|247:27|232:40|232:40|184:36,1,103.999995239258,4|2,1:2|3:0,2:0:0:0:
78,20,89184,1,0,2:0:0:0:
174,167,89519,2,0,P|242:142|267:135,1,77.9999964294435,2|0,3:0|2:0,2:0:0:0:
262,153,89854,5,4,1:2:0:0:
361,97,90190,1,2,3:0:0:0:
256,192,90273,12,0,91195,3:0:0:0:
256,192,91530,5,0,3:0:0:0:
256,192,91866,5,0,3:0:0:0:
256,192,92201,5,0,3:0:0:0:
256,192,92536,5,0,3:0:0:0:
256,192,92871,5,0,3:0:0:0:
256,192,93206,5,0,3:0:0:0:
199,271,93374,2,0,L|225:325,1,51.999997619629,2|8,3:0|0:0,2:0:0:0:
