osu file format v14

[General]
AudioFilename: audio.mp3
AudioLeadIn: 0
PreviewTime: 63039
Countdown: 0
SampleSet: Soft
StackLeniency: 0.4
Mode: 0
LetterboxInBreaks: 0
WidescreenStoryboard: 1

[Editor]
Bookmarks: 64212,93374
DistanceSpacing: 1.3
BeatDivisor: 4
GridSize: 32
TimelineZoom: 1.4

[Metadata]
Title:Fatima
TitleUnicode:ファティマ
Artist:Roselia
ArtistUnicode:Roselia
Creator:-Aqua
Version:PaRaDogi's Insane
Source:バンドリ! ガールズバンドパーティ!
Tags:BanG Dream! Bandori! Girls Band Party! ガルパ Garupa insert cover original song single album Bandori project Girl Party Garupa! Fries Fried Potato Anfang ロゼリア Rozeria 湊友希那 Minato Yukina 氷川紗夜 Hikawa Sayo 今井リサ Imai Lisa 宇田川あこ Udagawa Ako 白金燐子 Shirokane Rinko 相羽あいな Aiba Aina Aiai 工藤晴香 Kudō Haruka Kudo Kudou Kudoharu Kdhr 遠藤ゆりか Endō Yurika Endo Endou Yurishii 桜川めぐ Sakuragawa Megu Meguchii 明坂聡美 Akesaka Satomi Akeko 中島由貴 Nakashima Yuki Shimayuki 志崎樺音 Shizaki Kanon Nonchan Non-chan Anime Japanese Video Game Mocaotic evaotic PaRaDogi steins;gate steins gate 0 zero シュタインズ・ゲート ゼロ シュタインズ・ゲート・ゼロ いとうかなこ itou kanako
BeatmapID:2173631
BeatmapSetID:1039778

[Difficulty]
HPDrainRate:6
CircleSize:4.3
OverallDifficulty:8
ApproachRate:8.5
SliderMultiplier:1.8
SliderTickRate:1

[Events]
//Background and Video events
0,0,"1255Sayo-Hikawa-Power-Jc4wh4_waifu2x_art_noise3_scale_tta_1.jpg",0,0
//Break Periods
//Storyboard Layer 0 (Background)
//Storyboard Layer 1 (Fail)
//Storyboard Layer 2 (Pass)
//Storyboard Layer 3 (Foreground)
//Storyboard Layer 4 (Overlay)
//Storyboard Sound Samples

[TimingPoints]
2704,335.195530726257,4,2,1,40,1,0
2871,-100,4,2,1,60,0,0
3039,-100,4,2,1,40,0,0
3206,-100,4,2,1,60,0,0
3374,-100,4,2,1,40,0,0
3960,-100,4,2,1,60,0,0
4044,-100,4,2,1,40,0,0
4211,-100,4,2,1,60,0,0
4379,-100,4,2,1,40,0,0
4547,-100,4,2,1,60,0,0
4715,-100,4,2,1,40,0,0
4965,-100,4,2,1,60,0,0
5050,-100,4,2,1,40,0,0
5552,-100,4,2,1,60,0,0
5720,-100,4,2,1,40,0,0
5887,-100,4,2,1,60,0,0
6055,-100,4,2,1,40,0,0
6642,-100,4,2,1,60,0,0
6726,-100,4,2,1,40,0,0
6809,-100,4,2,1,60,0,0
7061,-100,4,2,1,40,0,0
7479,-100,4,2,1,60,0,0
7564,-100,4,2,1,40,0,0
7647,-100,4,2,1,60,0,0
7899,-100,4,2,1,40,0,0
8067,-100,4,2,1,70,0,0
8234,-100,4,2,1,60,0,0
8402,-100,4,2,1,70,0,0
13597,-100,4,2,1,60,0,0
13765,-100,4,2,1,70,0,0
17787,-100,4,2,1,60,0,0
17955,-100,4,2,1,70,0,0
18122,-133.333333333333,4,2,1,60,0,0
18793,-133.333333333333,4,2,1,55,0,0
19379,-105.263157894737,4,2,1,55,0,0
19798,-133.333333333333,4,2,1,55,0,0
20720,-105.263157894737,4,2,1,55,0,0
21139,-133.333333333333,4,2,1,55,0,0
22061,-105.263157894737,4,2,1,55,0,0
22480,-133.333333333333,4,2,1,55,0,0
23402,-105.263157894737,4,2,1,55,0,0
23821,-133.333333333333,4,2,1,55,0,0
23988,-133.333333333333,4,2,1,60,0,0
24156,-133.333333333333,4,2,1,55,0,0
24743,-105.263157894737,4,2,1,55,0,0
25162,-133.333333333333,4,2,1,55,0,0
26083,-105.263157894737,4,2,1,55,0,0
26502,-133.333333333333,4,2,1,55,0,0
27424,-105.263157894737,4,2,1,55,0,0
27843,-133.333333333333,4,2,1,55,0,0
28345,-133.333333333333,4,2,1,60,0,0
28514,-133.333333333333,4,2,1,55,0,0
28681,-133.333333333333,4,2,1,60,0,0
28849,-133.333333333333,4,2,1,55,0,0
28932,-133.333333333333,4,2,1,60,0,0
29184,-133.333333333333,4,2,1,55,0,0
29267,-133.333333333333,4,2,1,60,0,0
29519,-133.333333333333,4,2,1,45,0,0
29854,-133.333333333333,4,2,1,60,0,0
30022,-133.333333333333,4,2,1,45,0,0
31447,-133.333333333333,4,2,1,60,0,0
31530,-133.333333333333,4,2,1,45,0,0
32117,-133.333333333333,4,2,1,60,0,0
32201,-133.333333333333,4,2,1,45,0,0
32368,-133.333333333333,4,2,1,60,0,0
32704,-133.333333333333,4,2,1,45,0,0
34128,-133.333333333333,4,2,1,60,0,0
34212,-133.333333333333,4,2,1,45,0,0
35217,-133.333333333333,4,2,1,60,0,0
35385,-133.333333333333,4,2,1,45,0,0
37396,-133.333333333333,4,2,1,60,0,0
37564,-133.333333333333,4,2,1,45,0,0
38234,-133.333333333333,4,2,1,60,0,0
38402,-133.333333333333,4,2,1,45,0,0
38904,-133.333333333333,4,2,1,60,0,0
39072,-133.333333333333,4,2,1,45,0,0
39239,-133.333333333333,4,2,1,60,0,0
39407,-133.333333333333,4,2,1,45,0,0
39574,-133.333333333333,4,2,1,60,0,0
39743,-133.333333333333,4,2,1,45,0,0
40077,-133.333333333333,4,2,1,60,0,0
40245,-133.333333333333,4,2,1,45,0,0
40580,-133.333333333333,4,2,1,60,0,0
40748,-133.333333333333,4,2,1,45,0,0
41502,-133.333333333333,4,2,1,60,0,0
41586,-133.333333333333,4,2,1,45,0,0
42843,-133.333333333333,4,2,1,60,0,0
42927,-133.333333333333,4,2,1,45,0,0
43262,-133.333333333333,4,2,1,60,0,0
43430,-133.333333333333,4,2,1,45,0,0
45525,-133.333333333333,4,2,1,60,0,0
45609,-133.333333333333,4,2,1,45,0,0
45944,-133.333333333333,4,2,1,60,0,0
46111,-133.333333333333,4,2,1,45,0,0
47033,-133.333333333333,4,2,1,60,0,0
47117,-133.333333333333,4,2,1,45,0,0
48960,-133.333333333333,4,2,1,60,0,0
49128,-133.333333333333,4,2,1,45,0,0
49630,-133.333333333333,4,2,1,60,0,0
49798,-133.333333333333,4,2,1,45,0,0
49966,-133.333333333333,4,2,1,60,0,0
50134,-133.333333333333,4,2,1,45,0,0
50217,-133.333333333333,4,2,1,60,0,0
50469,-133.333333333333,4,2,1,45,0,0
50972,-133.333333333333,4,2,1,60,0,0
64212,-100,4,2,1,80,0,1
64882,-100,4,2,1,60,0,1
65050,-100,4,2,1,80,0,1
69742,-100,4,2,1,60,0,1
69910,-100,4,2,1,80,0,1
74183,-100,4,2,1,60,0,1
74268,-100,4,2,1,80,0,1
74351,-100,4,2,1,60,0,1
74435,-100,4,2,1,80,0,1
74771,-100,4,2,1,60,0,1
74938,-100,4,2,1,80,0,1
75105,-100,4,2,1,60,0,1
75273,-100,4,2,1,80,0,1
81809,-100,4,2,1,60,0,1
81977,-100,4,2,1,80,0,1
85664,-100,4,2,1,60,0,1
85832,-133.333333333333,4,2,1,60,0,0

[Colours]
Combo1 : 170,240,233
Combo2 : 64,224,208
Combo3 : 162,168,249
Combo4 : 92,99,240

[HitObjects]
433,103,2704,6,0,L|336:102,1,90,0|0,0:0|2:0,2:2:0:0:
261,10,3039,2,0,L|263:103,3,90,2|0|2|2,0:0|2:0|0:0|0:0,2:2:0:0:
211,182,3709,1,2,0:0:0:0:
137,116,3877,1,2,0:0:0:0:
137,116,3960,1,0,2:0:0:0:
137,116,4044,6,0,P|88:104|19:128,1,90,0|0,0:0|2:0,2:2:0:0:
211,182,4379,1,2,0:0:0:0:
133,242,4547,1,0,2:0:0:0:
222,271,4715,1,2,0:0:0:0:
222,271,4798,1,2,0:0:0:0:
222,271,4882,2,0,L|275:272,1,45,2|0,0:0|2:0,2:2:0:0:
328,310,5050,2,0,P|339:271|314:219,1,90,2|2,0:0|0:0,2:2:0:0:
297,147,5385,6,0,P|286:108|308:55,1,90,0|0,0:0|2:0,2:2:0:0:
441,7,5720,2,0,L|336:8,3,90,2|0|2|2,0:0|2:0|0:0|0:0,2:2:0:0:
216,37,6391,1,2,0:0:0:0:
166,117,6558,1,2,0:0:0:0:
166,117,6642,1,0,2:0:0:0:
166,117,6726,6,0,L|167:166,3,45,2|0|0|0,0:0|2:0|2:0|2:0,2:2:0:0:
121,221,7061,2,0,P|164:235|211:222,1,90,2|2,0:0|0:0,2:2:0:0:
346,149,7396,2,0,L|339:201,1,45,10|0,0:0|2:0,2:2:0:0:
415,182,7564,2,0,L|407:234,1,45,8|0,0:0|2:0,2:2:0:0:
371,364,7899,5,2,0:0:0:0:
371,364,7983,1,2,0:0:0:0:
371,364,8067,2,0,L|274:365,1,90,4|0,0:0|2:0,2:2:0:0:
134,298,8402,1,10,0:2:0:0:
283,184,8569,2,0,L|282:288,1,90,2|0,3:0|1:0,2:2:0:0:
134,298,8905,1,2,3:0:0:0:
61,196,9072,1,8,0:0:0:0:
61,196,9240,6,0,L|60:303,1,90,2|0,3:0|1:0,2:2:0:0:
139,125,9575,2,0,L|138:232,1,90,2|8,3:0|0:0,2:2:0:0:
76,66,9910,2,0,P|117:41|162:42,1,90,2|0,3:0|1:0,2:2:0:0:
297,116,10245,1,2,3:0:0:0:
297,116,10413,2,0,L|296:213,1,90,8|2,0:0|3:0,2:2:0:0:
423,318,10748,6,0,L|321:318,1,90,0|2,1:0|3:0,2:2:0:0:
489,255,11083,1,8,0:0:0:0:
489,255,11251,2,0,P|501:205|484:161,1,90,2|0,3:0|1:0,2:2:0:0:
411,67,11586,1,2,3:0:0:0:
293,106,11754,1,8,0:0:0:0:
293,106,11921,2,0,L|193:107,1,90,2|0,3:0|1:0,2:2:0:0:
100,179,12257,5,2,3:0:0:0:
220,233,12424,1,8,0:0:0:0:
97,353,12592,2,0,L|98:246,1,90,2|0,3:0|1:0,2:2:0:0:
220,233,12927,1,2,3:0:0:0:
334,290,13095,1,8,0:0:0:0:
320,162,13262,1,8,0:0:0:0:
320,162,13346,1,8,0:0:0:0:
320,162,13430,6,0,L|320:67,1,90,4|0,0:2|2:0,2:2:0:0:
446,228,13765,1,8,0:0:0:0:
229,286,13933,2,0,L|323:287,1,90,2|0,3:0|1:0,2:2:0:0:
446,228,14268,1,2,3:0:0:0:
324,167,14435,1,8,0:0:0:0:
319,376,14603,2,0,L|318:271,1,90,2|0,3:0|1:0,2:2:0:0:
242,146,14938,5,2,3:0:0:0:
170,287,15106,1,8,0:0:0:0:
242,146,15273,2,0,P|257:100|239:41,1,90,2|0,3:0|1:0,2:2:0:0:
89,159,15609,1,2,3:0:0:0:
170,287,15776,2,0,L|170:173,1,90,8|2,0:0|3:0,2:2:0:0:
249,59,16111,6,0,P|296:50|346:65,1,90,0|2,1:0|3:0,2:2:0:0:
473,190,16447,2,0,L|473:99,1,90,8|2,0:0|3:0,2:2:0:0:
361,213,16782,1,8,3:0:0:0:
437,303,16949,1,8,0:0:0:0:
437,303,17033,1,8,0:0:0:0:
437,303,17117,1,8,0:0:0:0:
473,190,17285,1,8,3:0:0:0:
361,213,17452,6,0,B|263:224|307:131|204:148,1,180,2|0,0:0|2:0,2:2:0:0:
78,292,17955,1,2,0:0:0:0:
78,292,18122,2,0,B|91:237|46:205|46:205|94:164|76:90,1,202.500007724762,0|0,2:0|2:0,2:2:0:0:
190,32,18793,5,4,0:0:0:0:
225,157,18960,1,0,1:0:0:0:
80,112,19128,2,0,L|156:111,1,67.5000025749208,8|0,0:0|1:0,2:2:0:0:
225,157,19379,2,0,P|275:180|354:145,1,128.249996575356,0|0,1:0|1:0,2:2:0:0:
425,87,19798,2,0,L|427:170,1,67.5000025749208,8|0,0:0|1:0,2:2:0:0:
373,275,20134,5,0,1:0:0:0:
345,163,20301,1,0,1:0:0:0:
345,163,20469,2,0,P|299:151|256:159,1,67.5000025749208,8|0,0:0|1:0,2:2:0:0:
193,187,20720,2,0,P|156:200|64:177,1,128.249996575356,0|0,1:0|1:0,2:2:0:0:
0,52,21139,2,0,L|1:134,1,67.5000025749208,8|0,0:0|1:0,2:2:0:0:
71,182,21474,5,0,1:0:0:0:
9,265,21642,1,0,1:0:0:0:
101,294,21810,2,0,L|175:295,1,67.5000025749208,8|0,0:0|1:0,2:2:0:0:
248,258,22061,2,0,L|394:258,1,128.249996575356,0|0,1:0|1:0,2:2:0:0:
497,178,22480,2,0,P|490:239|500:263,1,67.5000025749208,8|0,0:0|1:0,2:2:0:0:
435,364,22815,5,0,1:0:0:0:
376,258,22983,1,0,1:0:0:0:
450,129,23150,2,0,L|453:200,1,67.5000025749208,8|0,0:0|1:0,2:2:0:0:
376,258,23402,2,0,L|376:114,1,128.249996575356,0|0,1:0|1:0,2:2:0:0:
262,18,23821,2,0,L|345:17,1,67.5000025749208,8|0,0:0|2:0,2:2:0:0:
217,133,24156,5,4,1:2:0:0:
139,37,24324,1,0,1:0:0:0:
139,37,24491,2,0,P|100:27|64:35,1,67.5000025749208,8|0,0:0|1:0,2:2:0:0:
8,88,24743,2,0,L|8:226,1,128.249996575356,0|0,1:0|1:0,2:2:0:0:
90,281,25162,2,0,L|91:206,1,67.5000025749208,8|0,0:0|1:0,2:2:0:0:
217,133,25497,5,0,1:0:0:0:
223,265,25664,1,0,1:0:0:0:
217,133,25832,2,0,P|261:122|298:132,1,67.5000025749208,8|0,0:0|1:0,2:2:0:0:
360,163,26083,2,0,P|410:188|491:145,1,128.249996575356,0|0,1:0|1:0,2:2:0:0:
508,11,26502,2,0,L|512:78,1,67.5000025749208,8|0,0:0|1:0,2:2:0:0:
478,236,26838,5,0,1:0:0:0:
419,106,27005,1,0,1:0:0:0:
478,236,27173,2,0,P|488:280|479:322,1,67.5000025749208,8|0,0:0|1:0,2:2:0:0:
426,358,27424,2,0,L|285:358,1,128.249996575356,0|0,1:0|1:0,2:2:0:0:
172,313,27843,1,8,0:0:0:0:
296,220,28011,1,0,1:0:0:0:
296,220,28095,1,0,1:0:0:0:
296,220,28178,6,0,L|296:131,1,67.5000025749208,4|0,0:0|2:0,2:2:0:0:
184,67,28514,2,0,L|261:66,1,67.5000025749208,4|0,0:0|2:0,2:2:0:0:
105,109,28849,6,0,L|102:57,2,45.0000017166138,8|8|8,0:0|0:0|0:0,0:0:0:0:
164,204,29184,2,0,L|168:149,2,45.0000017166138,8|8|8,3:0|3:0|3:0,0:0:0:0:
94,255,29519,6,0,P|121:278|225:270,1,135.000005149842,4|0,0:2|2:0,2:2:0:0:
324,195,30022,1,0,1:0:0:0:
324,195,30106,1,0,1:0:0:0:
324,195,30190,2,0,L|325:123,1,67.5000025749208,8|0,0:0|1:0,2:2:0:0:
374,12,30525,1,2,0:0:0:0:
447,113,30692,1,2,0:0:0:0:
296,59,30860,6,0,B|221:61|255:-7|159:17,1,135.000005149842,0|2,1:0|0:0,2:2:0:0:
63,68,31363,1,0,1:0:0:0:
63,68,31447,1,0,1:0:0:0:
63,68,31530,2,0,P|41:107|41:147,1,67.5000025749208,8|0,0:0|1:0,2:2:0:0:
95,247,31866,1,0,1:0:0:0:
194,128,32033,1,2,0:0:0:0:
194,128,32117,1,2,2:0:0:0:
194,128,32201,6,0,L|115:128,1,67.5000025749208,2|0,1:2|2:0,2:2:0:0:
259,219,32536,1,0,2:0:0:0:
308,122,32704,1,0,1:0:0:0:
308,122,32871,2,0,L|307:43,1,67.5000025749208,8|0,0:0|1:0,2:2:0:0:
422,9,33206,1,2,0:0:0:0:
512,168,33374,1,2,0:0:0:0:
512,168,33541,6,0,B|460:170|460:170|437:164|437:164|370:166,1,135.000005149842,0|2,1:0|0:0,2:2:0:0:
268,248,34044,1,0,1:0:0:0:
268,248,34128,1,0,1:0:0:0:
268,248,34212,1,8,0:0:0:0:
390,311,34379,1,0,1:0:0:0:
299,168,34547,2,0,P|263:161|221:169,1,67.5000025749208,0|2,1:0|0:0,2:2:0:0:
141,283,34882,6,0,B|141:245|141:245|132:220|132:220|141:195|141:195|141:137,1,135.000005149842,4|0,0:2|2:0,2:2:0:0:
217,48,35385,1,0,1:0:0:0:
217,48,35469,1,0,1:0:0:0:
217,48,35553,2,0,L|294:48,1,67.5000025749208,8|0,0:0|1:0,2:2:0:0:
401,124,35888,1,2,0:0:0:0:
454,11,36055,1,2,0:0:0:0:
401,124,36223,6,0,B|401:174|401:174|395:211|395:211|396:270,1,135.000005149842,0|2,1:0|0:0,2:2:0:0:
311,361,36726,1,0,1:0:0:0:
202,296,36893,2,0,L|283:295,1,67.5000025749208,8|0,0:0|1:0,2:2:0:0:
395,258,37229,1,8,0:0:0:0:
292,173,37396,1,2,2:0:0:0:
292,173,37480,1,2,2:0:0:0:
292,173,37564,6,0,P|277:127|285:96,1,67.5000025749208,4|2,0:0|0:0,2:2:0:0:
395,258,37899,1,8,0:0:0:0:
266,252,38067,2,0,P|230:227|211:193,1,67.5000025749208,0|0,1:0|2:0,2:2:0:0:
395,258,38402,1,0,1:0:0:0:
326,368,38569,1,8,0:0:0:0:
352,191,38737,6,0,L|351:119,1,67.5000025749208,0|0,1:0|2:0,2:2:0:0:
424,98,39072,2,0,L|423:31,1,67.5000025749208,0|0,1:0|2:0,2:2:0:0:
254,7,39407,2,0,P|292:2|330:7,1,67.5000025749208,12|0,0:0|2:0,2:2:0:0:
170,105,39743,1,8,0:0:0:0:
170,105,39910,2,0,P|201:86|244:80,1,67.5000025749208,0|0,1:0|2:0,2:2:0:0:
233,177,40245,6,0,B|233:214|233:214|238:242|238:242|233:271|233:271|233:311,1,135.000005149842,4|0,0:0|2:0,2:2:0:0:
104,366,40748,1,0,1:0:0:0:
104,366,40916,2,0,L|180:367,1,67.5000025749208,8|0,0:0|1:0,2:2:0:0:
45,290,41251,1,2,0:0:0:0:
106,184,41419,1,2,0:0:0:0:
106,184,41502,1,2,2:0:0:0:
106,184,41586,6,0,P|138:167|234:184,1,135.000005149842,0|2,1:0|0:0,2:2:0:0:
333,264,42089,1,0,1:0:0:0:
362,146,42257,1,8,0:0:0:0:
362,146,42424,2,0,L|362:70,1,67.5000025749208,0|0,1:0|1:0,2:2:0:0:
262,6,42759,1,2,0:0:0:0:
262,6,42843,1,2,2:0:0:0:
262,6,42927,6,0,B|190:-9|191:27|120:6,1,135.000005149842,2|0,1:2|2:0,2:2:0:0:
21,81,43430,1,0,1:0:0:0:
129,174,43597,2,0,L|128:99,1,67.5000025749208,8|0,0:0|1:0,2:2:0:0:
25,239,43933,2,0,L|24:164,1,67.5000025749208,2|2,0:0|0:0,2:2:0:0:
86,324,44268,5,0,1:0:0:0:
192,252,44435,2,0,B|223:261|252:227|252:227|273:260|325:252,1,135.000005149842,0|0,1:0|1:0,2:2:0:0:
426,344,44938,2,0,L|426:197,1,135.000005149842,8|0,0:0|1:0,2:2:0:0:
372,90,45441,1,2,0:0:0:0:
372,90,45525,1,2,2:0:0:0:
372,90,45609,2,0,P|334:70|226:96,1,135.000005149842,4|0,0:2|2:0,2:2:0:0:
140,165,46111,1,0,1:0:0:0:
249,250,46279,2,0,L|248:172,1,67.5000025749208,8|0,0:0|1:0,2:2:0:0:
143,331,46614,2,0,L|142:253,1,67.5000025749208,2|2,0:0|0:0,2:2:0:0:
62,169,46949,5,0,1:0:0:0:
62,169,47033,1,0,1:0:0:0:
62,169,47117,2,0,L|-18:167,1,67.5000025749208,0|2,1:0|0:0,2:2:0:0:
133,88,47452,1,0,1:0:0:0:
133,88,47620,2,0,L|212:87,1,67.5000025749208,8|0,0:0|1:0,2:2:0:0:
285,37,47955,2,0,L|362:38,1,67.5000025749208,8|8,0:0|0:0,2:2:0:0:
465,97,48290,6,0,L|465:22,2,67.5000025749208,4|2|8,0:0|0:0|0:0,2:2:0:0:
413,207,48793,2,0,L|413:280,1,67.5000025749208,4|0,0:0|2:0,2:2:0:0:
304,359,49128,1,0,1:0:0:0:
264,209,49296,1,8,0:0:0:0:
264,209,49463,2,0,L|337:208,1,67.5000025749208,4|0,1:2|2:0,2:2:0:0:
189,314,49798,1,0,1:0:0:0:
137,198,49966,1,0,2:0:0:0:
137,198,50134,6,0,L|155:164,1,33.7500012874604,12|0,0:0|2:0,2:2:0:0:
82,143,50301,2,0,L|100:109,1,33.7500012874604,0|0,2:0|2:0,2:2:0:0:
141,54,50469,1,8,3:0:0:0:
141,54,50553,1,8,3:0:0:0:
141,54,50636,2,0,L|165:17,3,33.7500012874604,8|8|8|8,3:0|3:0|3:0|3:0,2:2:0:0:
234,10,50972,6,0,P|286:2|309:12,1,67.5000025749208,4|0,0:0|2:0,2:2:0:0:
411,85,51307,2,0,L|412:224,1,135.000005149842,8|0,0:0|1:0,2:2:0:0:
344,335,51810,1,0,1:0:0:0:
344,335,51977,2,0,L|427:336,1,67.5000025749208,10|2,0:0|0:0,2:2:0:0:
224,212,52312,6,0,B|306:197|267:272|368:253,2,135.000005149842,0|8|0,1:0|0:0|1:0,2:2:0:0:
102,265,53150,1,0,1:0:0:0:
102,265,53318,2,0,L|102:337,1,67.5000025749208,10|2,0:0|0:0,2:2:0:0:
17,190,53653,6,0,L|18:352,2,135.000005149842,2|8|0,1:2|0:0|1:0,2:2:0:0:
74,82,54491,1,0,1:0:0:0:
74,82,54659,2,0,L|-4:82,1,67.5000025749208,10|2,0:0|0:0,2:2:0:0:
170,43,54994,1,0,1:0:0:0:
175,159,55162,1,0,1:0:0:0:
175,159,55329,2,0,B|219:159|219:159|253:167|253:167|310:167,1,135.000005149842,8|0,0:0|1:0,2:2:0:0:
416,104,55832,1,0,1:0:0:0:
416,104,56000,2,0,L|415:181,1,67.5000025749208,12|0,0:0|1:0,2:2:0:0:
369,333,56335,5,2,1:2:0:0:
256,213,56502,1,8,0:2:0:0:
415,171,56670,1,2,1:2:0:0:
215,335,56838,2,0,L|290:335,1,67.5000025749208,8|0,0:2|2:0,2:2:0:0:
113,257,57173,2,0,L|188:257,1,67.5000025749208,8|8,3:0|3:0,2:2:0:0:
39,327,57508,1,8,3:0:0:0:
168,177,57676,5,2,1:2:0:0:
0,130,57843,1,8,0:2:0:0:
138,330,58011,1,2,1:2:0:0:
168,109,58178,2,0,L|167:191,1,67.5000025749208,8|0,0:2|2:0,2:2:0:0:
243,292,58514,2,0,L|244:366,2,67.5000025749208,8|8|0,0:0|0:0|1:0,2:2:0:0:
388,186,59016,6,0,B|323:208|323:149|240:184,1,135.000005149842,12|0,0:0|1:0,2:2:0:0:
94,283,59519,2,0,B|101:246|75:221|75:221|101:196|94:135,1,135.000005149842,12|0,0:0|1:0,2:2:0:0:
186,30,60022,2,0,P|224:14|315:36,1,135.000005149842,12|0,0:0|1:0,2:2:0:0:
388,186,60525,2,0,L|389:106,1,67.5000025749208,12|0,0:0|1:0,2:2:0:0:
291,252,60860,1,0,1:0:0:0:
291,252,61028,2,0,L|292:172,1,67.5000025749208,12|0,0:0|1:0,2:2:0:0:
222,120,61363,2,0,P|182:113|148:122,1,67.5000025749208,12|2,0:0|0:0,2:2:0:0:
77,177,61698,6,0,P|62:140|60:102,1,67.5000025749208,2|2,0:0|0:0,2:2:0:0:
157,197,62033,2,0,P|134:236|-1:204,1,202.500007724762,2|2,0:0|0:0,2:2:0:0:
0,74,62704,2,0,L|0:6,1,67.5000025749208,2|2,0:0|0:0,2:2:0:0:
107,86,63039,5,2,2:0:0:0:
107,86,63206,2,0,L|107:155,1,67.5000025749208,2|0,2:0|2:0,2:2:0:0:
54,230,63541,2,0,P|96:243|161:227,1,101.250003862381,2|0,2:0|2:0,2:2:0:0:
188,211,63877,2,0,P|223:199|285:215,1,101.250003862381,2|0,2:0|2:0,2:2:0:0:
317,240,64212,6,0,B|302:197|302:197|303:52,1,180,4|0,0:0|1:0,2:2:0:0:
456,213,64715,2,0,L|456:306,1,90,8|0,0:0|2:0,2:2:0:0:
297,360,65050,1,0,1:0:0:0:
297,360,65217,2,0,P|343:350|389:366,1,90,0|8,1:0|0:0,2:2:0:0:
456,213,65553,6,0,L|456:110,1,90,2|0,0:0|1:0,2:2:0:0:
329,21,65888,1,0,1:0:0:0:
304,180,66055,1,8,0:0:0:0:
456,123,66223,1,2,0:0:0:0:
329,21,66391,2,0,L|236:21,1,90,0|0,1:0|1:0,2:2:0:0:
95,94,66726,1,8,0:0:0:0:
212,270,66893,6,0,B|212:220|212:220|224:181|224:181|211:138|211:138|212:79,1,180,4|0,0:0|1:0,2:2:0:0:
107,8,67396,2,0,P|60:0|17:14,1,90,8|2,0:0|0:0,2:2:0:0:
211,93,67731,1,0,1:0:0:0:
51,150,67899,1,0,1:0:0:0:
175,248,68067,1,8,0:0:0:0:
131,94,68234,6,0,L|131:199,1,90,2|0,0:0|1:0,2:2:0:0:
216,324,68569,1,0,1:0:0:0:
216,324,68737,2,0,P|264:333|308:319,1,90,8|2,0:0|0:0,2:2:0:0:
386,229,69072,1,0,1:0:0:0:
267,203,69240,1,0,1:0:0:0:
405,149,69407,1,8,0:0:0:0:
405,149,69575,6,0,P|416:97|389:43,1,90,4|0,0:0|0:0,0:0:0:0:
248,103,69910,1,2,3:2:0:0:
248,103,69994,1,2,3:2:0:0:
248,103,70078,2,0,L|339:103,1,90,10|2,3:2|3:2,2:2:0:0:
172,205,70413,1,2,3:2:0:0:
124,59,70581,2,0,L|123:161,1,90,2|8,1:2|0:0,2:2:0:0:
11,248,70916,6,0,B|11:176|11:176|1:146|1:146|1:62,1,180,4|0,0:0|1:0,2:2:0:0:
179,3,71419,1,8,0:0:0:0:
179,3,71586,2,0,P|229:-3|276:8,1,90,2|2,3:2|3:2,2:2:0:0:
406,93,71921,1,2,1:2:0:0:
260,156,72089,1,10,0:0:0:0:
406,93,72257,1,2,1:2:0:0:
375,281,72424,2,0,L|376:173,1,90,12|0,0:0|1:0,2:2:0:0:
299,56,72759,1,0,1:0:0:0:
299,56,72927,6,0,B|210:27|213:100|114:57,1,180,12|0,0:0|1:0,2:2:0:0:
1,122,73430,2,0,B|-8:169|29:200|29:200|-11:226|0:293,1,180,12|0,0:0|1:0,2:2:0:0:
148,363,73933,1,12,0:0:0:0:
126,213,74100,2,0,L|127:281,1,45,0|0,1:0|2:0,2:2:0:0:
199,188,74268,2,0,L|200:256,1,45,0|0,1:0|2:0,2:2:0:0:
275,161,74435,1,12,0:0:0:0:
259,320,74603,1,0,1:0:0:0:
404,254,74771,1,2,2:0:0:0:
404,254,74854,1,2,2:0:0:0:
404,254,74938,6,0,L|306:254,1,90,4|0,0:0|2:0,2:2:0:0:
199,188,75273,1,0,1:0:0:0:
275,71,75441,2,0,L|274:168,1,90,8|2,0:0|3:2,2:2:0:0:
199,298,75776,2,0,P|154:307|99:293,1,90,0|0,1:0|1:0,2:2:0:0:
19,205,76111,1,8,0:0:0:0:
19,205,76279,2,0,L|18:303,1,90,2|0,0:0|1:0,2:2:0:0:
123,171,76614,5,0,1:0:0:0:
123,171,76782,2,0,L|124:73,1,90,8|2,0:0|0:0,2:2:0:0:
260,10,77117,1,0,1:0:0:0:
251,153,77285,1,0,1:0:0:0:
123,81,77452,1,8,0:0:0:0:
260,10,77620,6,0,B|319:10|319:10|352:17|352:17|381:9|381:9|446:9,1,180,4|0,0:0|1:0,2:2:0:0:
501,158,78122,2,0,B|511:114|511:114|500:67,1,90,8|2,0:0|3:2,2:2:0:0:
402,192,78458,1,0,1:0:0:0:
475,304,78625,1,2,1:2:0:0:
402,192,78793,1,10,0:0:0:0:
307,309,78960,6,0,L|402:308,1,90,2|0,0:0|1:0,2:2:0:0:
267,206,79296,1,0,1:0:0:0:
193,346,79463,2,0,P|210:303|195:252,1,90,8|2,0:0|3:2,2:2:0:0:
123,156,79798,1,0,1:0:0:0:
62,268,79966,1,0,1:0:0:0:
204,163,80134,1,8,3:0:0:0:
204,163,80217,1,8,3:0:0:0:
204,163,80301,2,0,L|204:103,1,45,8|8,3:0|3:0,2:2:0:0:
171,35,80469,6,0,P|217:29|261:48,1,90,4|2,0:0|3:2,2:2:0:0:
346,167,80804,2,0,L|346:71,1,90,10|2,3:2|3:2,2:2:0:0:
494,13,81139,1,0,1:0:0:0:
477,169,81307,1,0,1:0:0:0:
346,77,81474,1,8,0:0:0:0:
477,169,81642,6,0,P|494:219|491:268,1,90,4|0,1:2|2:0,2:2:0:0:
406,348,81977,1,0,1:0:0:0:
406,348,82145,2,0,L|305:349,1,90,8|2,0:0|0:0,2:2:0:0:
205,280,82480,2,0,L|108:280,1,90,0|8,1:0|3:0,2:2:0:0:
20,200,82815,1,4,3:0:0:0:
141,154,82983,1,2,1:2:0:0:
20,200,83150,6,0,B|9:243|37:281|37:281|6:317|17:382,1,180,12|0,0:0|1:0,2:2:0:0:
135,362,83653,2,0,B|223:334|221:397|334:361,1,180,12|0,0:0|1:0,2:2:0:0:
428,228,84156,2,0,L|428:327,1,90,12|0,0:0|1:0,2:2:0:0:
329,264,84491,6,0,B|328:198|328:198|337:157|337:157|337:78,1,180,12|0,0:0|1:0,2:2:0:0:
244,25,84994,2,0,P|186:3|69:34,1,180,12|0,0:0|1:0,2:2:0:0:
2,181,85497,2,0,L|1:86,1,90,12|0,0:0|2:0,2:2:0:0:
81,255,85832,6,0,L|81:96,2,135.000005149842,4|2|0,0:0|3:0|2:0,2:2:0:0:
176,350,86838,2,0,B|270:387|264:283|396:355,1,202.500007724762,2|0,3:0|2:0,2:2:0:0:
457,302,87508,2,0,P|474:264|395:138,1,202.500007724762,2|0,3:0|2:0,2:2:0:0:
315,142,88178,2,0,L|248:143,1,67.5000025749208,2|0,3:0|1:0,2:2:0:0:
192,211,88514,6,0,P|166:174|184:83,2,135.000005149842,4|2|0,1:2|3:0|2:0,2:2:0:0:
314,308,89519,2,0,L|228:308,1,67.5000025749208,2|0,3:0|2:0,2:2:0:0:
167,365,89854,2,0,L|95:364,1,67.5000025749208,4|0,1:2|2:0,2:2:0:0:
28,303,90190,2,0,P|4:259|46:123,1,202.500007724762,2|0,3:0|2:0,2:2:0:0:
195,120,90860,2,0,P|150:130|113:120,1,67.5000025749208,2|0,3:0|2:0,2:2:0:0:
256,192,91195,5,0,3:0:0:0:
256,192,91530,5,0,3:0:0:0:
256,192,91866,5,0,3:0:0:0:
256,192,92201,5,0,3:0:0:0:
256,192,92536,5,0,3:0:0:0:
256,192,92871,5,0,3:0:0:0:
256,192,93206,5,0,3:0:0:0:
327,128,93374,1,2,3:0:0:0:
239,101,93541,1,8,0:0:0:0:
