osu file format v14

[General]
AudioFilename: audio.mp3
AudioLeadIn: 0
PreviewTime: 63039
Countdown: 0
SampleSet: Soft
StackLeniency: 0.4
Mode: 0
LetterboxInBreaks: 0
WidescreenStoryboard: 1

[Editor]
DistanceSpacing: 1.2
BeatDivisor: 4
GridSize: 32
TimelineZoom: 1.4

[Metadata]
Title:Fatima
TitleUnicode:ファティマ
Artist:Roselia
ArtistUnicode:Roselia
Creator:-Aqua
Version:Hard
Source:バンドリ! ガールズバンドパーティ!
Tags:BanG Dream! Bandori! Girls Band Party! ガルパ Garupa insert cover original song single album Bandori project Girl Party Garupa! Fries Fried Potato Anfang ロゼリア Rozeria 湊友希那 Minato Yukina 氷川紗夜 Hikawa Sayo 今井リサ Imai Lisa 宇田川あこ Udagawa Ako 白金燐子 Shirokane Rinko 相羽あいな Aiba Aina Aiai 工藤晴香 Kudō Haruka Kudo Kudou Kudoharu Kdhr 遠藤ゆりか Endō Yurika Endo Endou Yurishii 桜川めぐ Sakuragawa Megu Meguchii 明坂聡美 Akesaka Satomi Akeko 中島由貴 Nakashima Yuki Shimayuki 志崎樺音 Shizaki Kanon Nonchan Non-chan Anime Japanese Video Game Mocaotic evaotic PaRaDogi steins;gate steins gate 0 zero シュタインズ・ゲート ゼロ シュタインズ・ゲート・ゼロ いとうかなこ itou kanako
BeatmapID:2173482
BeatmapSetID:1039778

[Difficulty]
HPDrainRate:5
CircleSize:3.8
OverallDifficulty:6
ApproachRate:8
SliderMultiplier:1.4
SliderTickRate:1

[Events]
//Background and Video events
0,0,"1255Sayo-Hikawa-Power-Jc4wh4_waifu2x_art_noise3_scale_tta_1.jpg",0,0
//Break Periods
//Storyboard Layer 0 (Background)
//Storyboard Layer 1 (Fail)
//Storyboard Layer 2 (Pass)
//Storyboard Layer 3 (Foreground)
//Storyboard Layer 4 (Overlay)
//Storyboard Sound Samples

[TimingPoints]
2704,335.195530726257,4,2,1,40,1,0
2871,-100,4,2,1,60,0,0
3039,-100,4,2,1,40,0,0
3206,-100,4,2,1,60,0,0
3374,-100,4,2,1,40,0,0
8067,-100,4,2,1,70,0,0
18122,-100,4,2,1,60,0,0
18793,-111.111111111111,4,2,1,55,0,0
23988,-111.111111111111,4,2,1,60,0,0
24156,-111.111111111111,4,2,1,55,0,0
28765,-111.111111111111,4,2,1,60,0,0
28849,-111.111111111111,4,2,1,55,0,0
29519,-111.111111111111,4,2,1,45,0,0
40161,-111.111111111111,4,2,1,5,0,0
40245,-111.111111111111,4,2,1,45,0,0
41502,-111.111111111111,4,2,1,5,0,0
41586,-111.111111111111,4,2,1,45,0,0
50301,-111.111111111111,4,2,1,60,0,0
50469,-111.111111111111,4,2,1,45,0,0
50972,-100,4,2,1,60,0,0
64212,-90.9090909090909,4,2,1,80,0,1
64882,-90.9090909090909,4,2,1,60,0,1
65050,-90.9090909090909,4,2,1,80,0,1
74854,-90.9090909090909,4,2,1,80,0,0
74938,-90.9090909090909,4,2,1,80,0,1
85748,-90.9090909090909,4,2,1,5,0,1
85832,-100,4,2,1,60,0,0

[Colours]
Combo1 : 170,240,233
Combo2 : 64,224,208
Combo3 : 162,168,249
Combo4 : 92,99,240

[HitObjects]
64,320,2704,6,0,L|158:336,1,70,0|0,0:0|2:0,2:0:0:0:
184,265,3039,2,0,L|278:248,1,70,2|0,0:0|2:0,2:0:0:0:
325,295,3374,2,0,P|314:336|312:364,2,70,2|2|2,0:0|0:0|0:0,2:0:0:0:
398,253,3877,1,2,0:0:0:0:
469,297,4044,6,0,P|501:238|478:161,1,140,0|2,0:0|0:0,2:0:0:0:
356,61,4715,2,0,L|372:0,2,35,2|2|2,0:0|0:0|0:0,2:0:0:0:
285,107,5050,2,0,P|239:130|194:128,1,70,2|2,0:0|0:0,2:0:0:0:
159,74,5385,6,0,L|191:240,1,140,0|2,0:0|0:0,2:0:0:0:
65,329,6055,2,0,P|18:326|-13:303,2,70,2|2|2,0:0|0:0|0:0,2:0:0:0:
130,382,6558,1,2,0:0:0:0:
202,338,6726,6,0,B|243:327|243:327|259:334|259:334|339:315,1,140,2|2,0:0|0:0,2:0:0:0:
373,336,7145,1,2,0:0:0:0:
373,336,7229,1,2,0:0:0:0:
420,267,7396,1,10,0:0:0:0:
420,267,7564,1,8,0:0:0:0:
288,162,7899,2,0,L|298:216,1,35,2|2,0:0|0:0,2:0:0:0:
271,232,8067,6,0,P|222:249|143:215,1,140,4|10,0:0|0:2,2:0:0:0:
79,163,8569,2,0,L|97:73,1,70,2|0,3:0|1:0,2:0:0:0:
153,35,8905,1,2,3:0:0:0:
153,35,9072,1,8,0:0:0:0:
223,81,9240,6,0,B|317:67|279:122|372:115,1,140,2|2,3:0|3:0,2:0:0:0:
413,56,9743,1,8,0:0:0:0:
478,108,9910,2,0,P|502:156|500:184,1,70,2|0,3:0|1:0,2:0:0:0:
452,239,10245,2,0,P|432:267|427:302,1,70,2|8,3:0|0:0,2:0:0:0:
476,371,10581,1,2,3:0:0:0:
341,300,10748,6,0,B|294:284|294:284|181:328,1,140,0|8,1:0|0:0,2:0:0:0:
142,366,11251,2,0,L|64:338,1,70,2|0,3:0|1:0,2:0:0:0:
17,281,11586,2,0,B|2:249|2:249|10:190,1,70,2|8,3:0|0:0,2:0:0:0:
67,155,11921,6,0,P|99:195|208:183,1,140,2|2,3:0|3:0,2:0:0:0:
238,137,12424,1,8,0:0:0:0:
309,181,12592,2,0,L|286:333,1,140,2|2,3:0|3:0,2:0:0:0:
354,370,13095,1,8,0:0:0:0:
422,322,13262,1,8,0:0:0:0:
422,322,13346,1,8,0:0:0:0:
422,322,13430,6,0,B|447:243|395:264|430:179,1,140,4|8,0:2|0:0,2:0:0:0:
496,138,13933,2,0,L|479:57,1,70,2|0,3:0|1:0,2:0:0:0:
420,11,14268,1,2,3:0:0:0:
420,11,14435,1,8,0:0:0:0:
356,66,14603,6,0,P|285:77|222:10,1,140,2|2,3:0|3:0,2:0:0:0:
169,93,15106,1,8,0:0:0:0:
119,25,15273,2,0,L|27:6,1,70,2|0,3:0|1:0,2:0:0:0:
1,80,15609,2,0,B|-3:112|-3:112|15:148,1,70,2|8,3:0|0:0,2:0:0:0:
92,174,15944,1,2,3:0:0:0:
137,244,16111,6,0,L|126:313,1,70,0|2,1:0|3:0,2:0:0:0:
212,206,16447,2,0,L|201:136,1,70,8|2,0:0|3:0,2:0:0:0:
282,251,16782,2,0,P|339:277|371:269,1,70,8|8,3:0|0:0,2:0:0:0:
381,256,17033,1,8,0:0:0:0:
381,256,17117,1,8,0:0:0:0:
447,307,17285,1,8,3:0:0:0:
487,179,17452,5,2,0:0:0:0:
487,179,17955,1,2,0:0:0:0:
424,234,18122,2,0,B|292:211|348:317|223:290,1,210,0|0,2:0|2:0,2:0:0:0:
180,345,18793,6,0,L|109:325,1,62.9999980773926,4|0,0:0|1:0,2:0:0:0:
56,369,19128,1,8,0:0:0:0:
11,307,19296,2,0,L|35:176,1,125.999996154785,0|0,1:0|1:0,2:0:0:0:
101,150,19798,1,8,0:0:0:0:
101,150,19966,1,0,1:0:0:0:
155,202,20134,6,0,B|227:191|207:248|284:248,1,125.999996154785,0|8,1:0|0:0,2:0:0:0:
316,304,20636,2,0,P|400:302|420:265,1,125.999996154785,0|0,1:0|1:0,2:0:0:0:
418,197,21139,1,8,0:0:0:0:
418,197,21307,1,0,1:0:0:0:
350,152,21474,6,0,L|275:176,1,62.9999980773926,0|0,1:0|1:0,2:0:0:0:
232,120,21810,1,8,0:0:0:0:
164,153,21977,2,0,P|123:107|133:46,1,125.999996154785,0|0,1:0|1:0,2:0:0:0:
193,0,22480,1,8,0:0:0:0:
193,0,22648,1,0,1:0:0:0:
258,36,22815,6,0,L|320:20,1,62.9999980773926,0|0,1:0|1:0,2:0:0:0:
392,53,23150,1,8,0:0:0:0:
392,53,23318,1,0,1:0:0:0:
461,82,23486,2,0,P|476:113|476:144,1,62.9999980773926,0|0,1:0|1:0,2:0:0:0:
411,180,23821,2,0,P|396:211|396:242,1,62.9999980773926,8|0,0:0|2:0,2:0:0:0:
457,282,24156,6,0,L|440:364,1,62.9999980773926,4|0,1:2|1:0,2:0:0:0:
378,381,24491,1,8,0:0:0:0:
323,327,24659,2,0,L|192:292,1,125.999996154785,0|0,1:0|1:0,2:0:0:0:
147,348,25162,1,8,0:0:0:0:
147,348,25329,1,0,1:0:0:0:
86,293,25497,6,0,P|79:231|115:181,1,125.999996154785,0|8,1:0|0:0,2:0:0:0:
178,140,26000,2,0,B|265:128|217:191|315:184,1,125.999996154785,0|0,1:0|1:0,2:0:0:0:
351,235,26502,1,8,0:0:0:0:
351,235,26670,1,0,1:0:0:0:
406,183,26838,6,0,L|391:115,1,62.9999980773926,0|0,1:0|1:0,2:0:0:0:
436,59,27173,1,8,0:0:0:0:
382,6,27340,2,0,P|339:-4|266:36,1,125.999996154785,0|0,1:0|1:0,2:0:0:0:
206,74,27843,2,0,P|175:65|151:45,1,62.9999980773926,8|0,0:0|1:0,2:0:0:0:
140,9,28095,1,0,1:0:0:0:
140,9,28178,5,4,0:0:0:0:
14,93,28514,2,0,L|45:198,1,94.499997116089,4|0,0:0|2:0,2:0:0:0:
76,218,28849,6,0,L|62:286,2,41.9999987182618,8|8|8,0:0|0:0|0:0,2:0:0:0:
122,198,29184,2,0,L|108:130,2,41.9999987182618,8|8|8,3:0|3:0|3:0,2:0:0:0:
166,222,29519,6,0,P|194:256|130:371,1,188.999994232178,4|0,0:2|1:0,2:0:0:0:
70,333,30190,1,8,0:0:0:0:
2,197,30525,2,0,L|17:122,1,62.9999980773926,2|2,0:0|0:0,2:0:0:0:
73,87,30860,6,0,B|152:74|119:130|193:127,1,125.999996154785,0|2,1:0|0:0,2:0:0:0:
242,76,31363,2,0,P|293:96|369:108,1,125.999996154785,0|0,1:0|1:0,2:0:0:0:
488,24,32033,1,2,0:0:0:0:
473,98,32201,6,0,B|463:147|463:147|480:184|480:184|456:287,1,188.999994232178,2|0,1:2|1:0,2:0:0:0:
400,329,32871,1,8,0:0:0:0:
255,284,33206,2,0,L|238:214,1,62.9999980773926,2|2,0:0|0:0,2:0:0:0:
293,168,33541,6,0,P|305:108|270:57,1,125.999996154785,0|2,1:0|0:0,2:0:0:0:
209,12,34044,2,0,L|77:41,1,125.999996154785,0|0,1:0|1:0,2:0:0:0:
8,169,34715,1,2,0:0:0:0:
54,228,34882,6,0,B|102:261|102:261|238:212,1,188.999994232178,4|0,0:2|1:0,2:0:0:0:
259,148,35553,1,8,0:0:0:0:
401,198,35888,2,0,L|386:269,1,62.9999980773926,2|2,0:0|0:0,2:0:0:0:
316,284,36223,6,0,B|244:276|267:335|192:330,1,125.999996154785,0|2,1:0|0:0,2:0:0:0:
149,382,36726,2,0,P|88:369|16:336,1,125.999996154785,0|0,1:0|1:0,2:0:0:0:
3,273,37229,1,8,0:0:0:0:
74,139,37564,6,0,L|135:126,2,62.9999980773926,4|2|8,0:0|0:0|0:0,2:0:0:0:
109,50,38067,2,0,B|191:25|169:98|253:64,1,125.999996154785,0|0,1:0|1:0,2:0:0:0:
277,15,38569,1,8,0:0:0:0:
391,78,38737,6,0,P|400:137|356:179,2,125.999996154785,0|0|12,1:0|1:0|0:0,2:0:0:0:
264,161,39743,1,8,0:0:0:0:
264,161,39910,2,0,L|284:255,1,94.499997116089,0|0,1:0|2:0,2:0:0:0:
310,280,40245,6,0,B|201:264|248:356|128:335,1,188.999994232178,4|0,0:0|1:0,2:0:0:0:
74,297,40916,1,8,0:0:0:0:
28,153,41251,2,0,L|0:62,1,94.499997116089,2|0,0:0|2:0,2:0:0:0:
24,34,41586,6,0,B|100:11|78:77|159:56,1,125.999996154785,0|2,1:0|0:0,2:0:0:0:
205,18,42089,2,0,P|244:34|239:121,1,125.999996154785,0|0,1:0|1:0,2:0:0:0:
216,177,42592,2,0,L|239:261,1,62.9999980773926,0|2,1:0|0:0,2:0:0:0:
294,281,42927,6,0,P|341:306|451:241,1,188.999994232178,2|0,1:2|1:0,2:0:0:0:
470,172,43597,1,8,0:0:0:0:
376,52,43933,2,0,L|306:72,1,62.9999980773926,2|2,0:0|0:0,2:0:0:0:
275,133,44268,6,0,L|143:109,1,125.999996154785,0|2,1:0|0:0,2:0:0:0:
88,153,44771,2,0,P|56:205|73:270,1,125.999996154785,0|0,1:0|1:0,2:0:0:0:
187,360,45441,1,2,0:0:0:0:
249,317,45609,6,0,B|301:290|301:290|429:333,1,188.999994232178,4|0,0:2|1:0,2:0:0:0:
482,282,46279,1,8,0:0:0:0:
439,136,46614,2,0,L|426:197,1,62.9999980773926,2|2,0:0|0:0,2:0:0:0:
353,217,46949,6,0,P|295:210|257:139,1,125.999996154785,0|2,1:0|0:0,2:0:0:0:
304,97,47452,2,0,L|181:138,1,125.999996154785,0|0,1:0|1:0,2:0:0:0:
156,207,47955,1,8,0:0:0:0:
25,130,48290,6,0,L|-2:58,2,62.9999980773926,4|2|8,0:0|0:0|0:0,2:0:0:0:
93,162,48793,2,0,B|122:233|63:221|96:291,1,125.999996154785,4|0,0:0|1:0,2:0:0:0:
141,341,49296,1,8,0:0:0:0:
254,273,49463,6,0,B|290:253|290:253|379:284,2,125.999996154785,4|0|12,1:2|1:0|0:0,2:0:0:0:
219,340,50301,1,0,2:0:0:0:
141,341,50469,1,8,3:0:0:0:
109,336,50553,1,8,3:0:0:0:
84,308,50636,2,0,L|35:315,3,31.4999990386963,8|8|8|8,3:0|3:0|3:0|3:0,2:0:0:0:
26,346,50972,6,0,L|-7:202,1,140,4|8,0:0|0:0,2:0:0:0:
107,84,51642,2,0,L|95:153,1,70,0|0,1:0|1:0,2:0:0:0:
158,208,51977,1,10,0:0:0:0:
226,158,52145,1,2,0:0:0:0:
293,207,52312,6,0,L|361:186,1,70,0|0,1:0|1:0,2:0:0:0:
400,112,52648,1,8,0:0:0:0:
400,112,52815,1,0,2:0:0:0:
473,153,52983,1,0,1:0:0:0:
473,153,53150,1,0,1:0:0:0:
511,77,53318,2,0,L|498:-4,1,70,10|2,0:0|0:0,2:0:0:0:
416,0,53653,6,0,B|344:-15|360:61|270:42,1,140,2|8,1:2|0:0,2:0:0:0:
144,130,54324,2,0,L|63:111,1,70,0|0,1:0|1:0,2:0:0:0:
20,177,54659,1,10,0:0:0:0:
74,240,54826,1,2,0:0:0:0:
21,305,54994,6,0,L|48:379,1,70,0|0,1:0|1:0,2:0:0:0:
128,383,55329,1,8,0:0:0:0:
128,383,55497,1,0,2:0:0:0:
189,326,55664,1,0,1:0:0:0:
189,326,55832,1,0,1:0:0:0:
307,365,56000,2,0,L|388:348,1,70,12|0,0:0|1:0,2:0:0:0:
430,287,56335,6,0,P|453:320|460:354,2,70,2|8|2,1:2|0:2|1:2,2:0:0:0:
370,227,56838,2,0,B|297:198|314:271|207:221,1,140,8|8,0:2|3:0,2:0:0:0:
167,183,57340,1,8,3:0:0:0:
167,183,57508,1,8,3:0:0:0:
109,244,57676,6,0,L|136:318,2,70,2|8|2,1:2|0:2|1:2,2:0:0:0:
39,197,58178,2,0,P|28:151|94:70,1,140,8|8,0:2|0:0,2:0:0:0:
152,42,58681,1,8,0:0:0:0:
217,94,58849,1,0,1:0:0:0:
324,29,59016,6,0,L|399:5,1,70,12|0,0:0|1:0,2:0:0:0:
454,62,59352,1,0,1:0:0:0:
420,138,59519,6,0,L|345:114,1,70,12|0,0:0|1:0,2:0:0:0:
290,171,59855,1,0,1:0:0:0:
387,268,60022,6,0,L|363:343,2,70,12|0|0,0:0|1:0|1:0,2:0:0:0:
311,237,60525,2,0,L|287:162,2,70,12|0|0,0:0|1:0|1:0,2:0:0:0:
219,324,61028,6,0,P|182:342|135:329,1,70,12|0,0:0|1:0,2:0:0:0:
108,268,61363,2,0,P|71:250|24:263,1,70,12|2,0:0|0:0,2:0:0:0:
0,325,61698,5,2,0:0:0:0:
256,192,61782,12,0,63039,2:0:0:0:
0,325,64212,6,0,B|95:311|47:388|169:358,1,154.000004699707,4|0,0:0|1:0,2:0:0:0:
205,295,64715,1,8,0:0:0:0:
205,295,64882,1,0,2:0:0:0:
294,316,65050,2,0,P|320:355|328:386,2,77.0000023498536,0|0|8,1:0|1:0|0:0,2:0:0:0:
416,256,65553,6,0,P|445:198|443:99,1,154.000004699707,2|0,0:0|1:0,2:0:0:0:
373,54,66055,1,8,0:0:0:0:
298,108,66223,1,2,0:0:0:0:
212,72,66391,2,0,P|191:37|194:-9,2,77.0000023498536,0|0|8,1:0|1:0|0:0,2:0:0:0:
69,114,66893,6,0,B|55:165|55:165|94:266,1,154.000004699707,4|0,0:0|1:0,2:0:0:0:
171,307,67396,2,0,L|156:382,1,77.0000023498536,8|2,0:0|0:0,2:0:0:0:
250,259,67731,1,0,1:0:0:0:
321,317,67899,1,0,1:0:0:0:
321,317,68067,1,8,0:0:0:0:
448,213,68234,6,0,P|416:159|317:156,1,154.000004699707,2|0,0:0|1:0,2:0:0:0:
258,206,68737,2,0,P|218:232|165:235,1,77.0000023498536,8|2,0:0|0:0,2:0:0:0:
120,175,69072,1,0,1:0:0:0:
120,175,69240,1,0,1:0:0:0:
49,233,69407,1,8,0:0:0:0:
67,69,69575,6,0,B|162:30|139:96|225:80,1,154.000004699707,4|2,0:0|3:2,2:0:0:0:
248,51,69994,1,2,3:2:0:0:
248,51,70078,1,10,3:2:0:0:
316,112,70245,2,0,L|302:170,2,38.5000011749268,2|2|2,3:2|3:2|3:2,2:0:0:0:
400,73,70581,2,0,P|389:25|368:-25,1,77.0000023498536,2|8,1:2|0:0,2:0:0:0:
510,137,70916,6,0,P|496:196|481:293,1,154.000004699707,4|0,0:0|1:0,2:0:0:0:
504,377,71419,1,8,0:0:0:0:
391,270,71586,2,0,B|298:262|335:332|241:332,1,154.000004699707,2|2,3:2|1:2,2:0:0:0:
180,278,72089,1,10,0:0:0:0:
180,278,72257,1,2,1:2:0:0:
65,337,72424,6,0,P|30:320|0:297,2,77.0000023498536,12|0|0,0:0|1:0|1:0,2:0:0:0:
126,268,72927,2,0,P|160:251|191:228,2,77.0000023498536,12|0|0,0:0|1:0|1:0,2:0:0:0:
30,174,73430,6,0,L|53:71,1,77.0000023498536,12|0,0:0|1:0,2:0:0:0:
0,18,73765,1,0,1:0:0:0:
150,144,73933,2,0,L|134:69,1,77.0000023498536,12|0,0:0|1:0,2:0:0:0:
196,0,74268,1,0,1:0:0:0:
245,135,74435,5,12,0:0:0:0:
245,135,74603,1,0,1:0:0:0:
456,30,74938,6,0,B|356:19|400:98|300:79,1,154.000004699707,4|0,0:0|1:0,2:0:0:0:
246,23,75441,1,8,0:0:0:0:
246,23,75609,1,2,3:2:0:0:
170,83,75776,2,0,P|176:126|194:179,2,77.0000023498536,0|0|8,1:0|1:0|0:0,2:0:0:0:
64,0,76279,6,0,P|48:75|24:151,1,154.000004699707,2|0,0:0|1:0,2:0:0:0:
91,212,76782,1,8,0:0:0:0:
42,290,76949,1,2,0:0:0:0:
118,341,77117,2,0,P|167:321|199:317,2,77.0000023498536,0|0|8,1:0|1:0|0:0,2:0:0:0:
170,227,77620,6,0,B|261:205|230:273|330:268,1,154.000004699707,4|0,0:0|1:0,2:0:0:0:
370,338,78122,2,0,P|421:316|455:308,1,77.0000023498536,8|2,0:0|3:2,2:0:0:0:
486,228,78458,1,0,1:0:0:0:
415,169,78625,1,2,1:2:0:0:
415,169,78793,1,10,0:0:0:0:
512,37,78960,6,0,B|418:21|452:91|362:75,1,154.000004699707,2|0,0:0|1:0,2:0:0:0:
299,16,79463,2,0,L|197:47,1,77.0000023498536,8|2,0:0|3:2,2:0:0:0:
174,115,79798,1,0,1:0:0:0:
174,115,79966,1,0,1:0:0:0:
97,63,80134,2,0,L|103:25,3,38.5000011749268,8|8|8|8,3:0|3:0|3:0|3:0,2:0:0:0:
56,86,80469,6,0,P|11:136|43:225,1,154.000004699707,4|10,0:0|3:2,2:0:0:0:
110,260,80972,1,2,3:2:0:0:
186,208,81139,1,0,1:0:0:0:
186,208,81307,2,0,L|277:216,1,77.0000023498536,0|8,1:0|0:0,2:0:0:0:
367,118,81642,6,0,B|402:160|402:160|386:270,1,154.000004699707,4|0,1:2|1:0,2:0:0:0:
325,326,82145,1,8,0:0:0:0:
239,293,82312,2,0,B|139:284|189:359|85:342,1,154.000004699707,2|8,0:0|3:0,2:0:0:0:
28,287,82815,1,4,3:0:0:0:
28,287,82983,1,2,1:2:0:0:
59,160,83150,6,0,L|35:84,2,77.0000023498536,12|0|0,0:0|1:0|1:0,2:0:0:0:
162,107,83653,2,0,L|186:31,2,77.0000023498536,12|0|0,0:0|1:0|1:0,2:0:0:0:
232,167,84156,1,12,0:0:0:0:
232,167,84324,1,0,1:0:0:0:
341,98,84491,6,0,L|417:122,2,77.0000023498536,12|0|0,0:0|1:0|1:0,2:0:0:0:
422,237,84994,2,0,L|498:213,2,77.0000023498536,12|0|0,0:0|1:0|1:0,2:0:0:0:
377,318,85497,2,0,L|255:279,1,115.50000352478,12|0,0:0|2:0,2:0:0:0:
249,244,85832,6,0,B|156:229|203:297|100:284,2,140,4|2|0,0:0|3:0|2:0,2:0:0:0:
381,347,86838,2,0,P|441:311|508:292,1,140,2|0,3:0|1:0,2:0:0:0:
400,163,87508,2,0,P|332:143|272:108,1,140,2|0,3:0|2:0,2:0:0:0:
140,212,88178,1,2,3:0:0:0:
74,159,88346,1,0,1:0:0:0:
74,159,88430,1,0,1:0:0:0:
74,159,88514,6,0,P|62:92|108:43,2,140,4|2|0,1:2|3:0|2:0,2:0:0:0:
212,253,89519,1,2,3:0:0:0:
368,191,89854,2,0,B|448:178|415:242|494:243,1,140,4|2,1:2|3:0,2:0:0:0:
256,192,90273,12,0,91195,3:0:0:0:
256,192,91530,5,0,3:0:0:0:
256,192,91866,5,0,3:0:0:0:
256,192,92201,5,0,3:0:0:0:
256,192,92536,5,0,3:0:0:0:
256,192,92871,5,0,3:0:0:0:
256,192,93206,5,0,3:0:0:0:
313,271,93374,2,0,L|281:335,1,70,2|8,3:0|0:0,2:0:0:0:
