osu file format v14

[General]
AudioFilename: audio.mp3
AudioLeadIn: 0
PreviewTime: 97330
Countdown: 0
SampleSet: Soft
StackLeniency: 0.2
Mode: 0
LetterboxInBreaks: 0
WidescreenStoryboard: 1

[Editor]
DistanceSpacing: 1.1
BeatDivisor: 4
GridSize: 32
TimelineZoom: 2.800009

[Metadata]
Title:FIRE BIRD (TV Size)
TitleUnicode:FIRE BIRD (TV Size)
Artist:Roselia
ArtistUnicode:Roselia
Creator:-Aqua
Version:Yonaka's Expert
Source:BanG Dream! 2nd Season
Tags:バンドリ! ガールズバンドパーティ! BanG Dream! Bandori! Girls Band Party! ガルパ Garupa insert original song 9th single FIRE BIRD Ringing Bloom album Bandori project Girl Party Garupa! Fries Fried Potato ロゼリア Rozeria 湊友希那 Minato Yukina 氷川紗夜 Hikawa Sayo 今井リサ Imai Lisa 宇田川あこ Udagawa Ako 白金燐子 Shirokane Rinko 相羽あいな Aiba Aina Aiai 工藤晴香 Kudō Haruka Kudo Kudou Kudoharu Kdhr 遠藤ゆりか Endō Yurika Endo Endou Yurishii 桜川めぐ Sakuragawa Megu Meguchii 明坂聡美 Akesaka Satomi Akeko 中島由貴 Nakashima Yuki Shimayuki 志崎樺音 Shizaki Kanon Nonchan Non-chan Anime Video Game Japanese Stream Alternator Alternater Hinsvar Cami Xidorn nextplay newton- Yonaka- Shizuku- Onlybiscuit
BeatmapID:1991136
BeatmapSetID:947848

[Difficulty]
HPDrainRate:6
CircleSize:4
OverallDifficulty:8.7
ApproachRate:9.2
SliderMultiplier:2
SliderTickRate:1

[Events]
//Background and Video events
0,0,"hot asf sayo.jpg",0,0
Video,45,"FIRE BIRDY.mp4"
//Break Periods
2,49079,52160
//Storyboard Layer 0 (Background)
//Storyboard Layer 1 (Fail)
//Storyboard Layer 2 (Pass)
//Storyboard Layer 3 (Foreground)
//Storyboard Layer 4 (Overlay)
//Storyboard Sound Samples

[TimingPoints]
12461,750,4,2,1,60,1,0
15086,-100,4,2,1,30,0,0
15461,-100,4,2,1,40,0,0
17898,-100,4,2,1,5,0,0
18086,-100,4,2,1,40,0,0
18273,-100,4,2,1,5,0,0
18461,-100,4,2,1,40,0,0
20898,-100,4,2,1,5,0,0
21086,-100,4,2,1,40,0,0
23148,-100,4,2,1,5,0,0
23336,-100,4,2,1,40,0,0
23523,-100,4,2,1,5,0,0
23711,-100,4,2,1,40,0,0
23898,-100,4,2,1,5,0,0
24086,-100,4,2,1,40,0,0
26898,-100,4,2,1,5,0,0
27086,-100,4,2,1,40,0,0
33461,-100,4,2,1,40,0,0
34211,-100,4,2,1,5,0,0
34586,-100,4,2,1,40,0,0
36461,-111.607142857143,4,2,1,40,0,0
37211,779.220779220779,4,2,1,40,1,0
37990,810.810810810811,4,2,1,50,1,0
38800,821.917808219178,4,2,1,60,1,0
39210,761.421319796954,4,2,1,60,1,0
39400,952.380952380952,4,2,1,60,1,0
39638,857.142857142857,4,2,1,65,1,0
40495,869.565217391304,4,2,1,65,1,0
41364,933.125972006221,4,2,1,65,1,0
42763,952.380952380952,4,2,1,65,1,0
43239,1410.10575793184,4,2,1,75,1,0
43591,-100,4,2,1,5,0,0
48879,-100,4,2,1,75,0,0
52730,400,4,2,1,60,1,0
54330,-50,4,2,1,75,0,0
54430,-100,4,2,1,5,0,0
54630,-50,4,2,1,75,0,0
54830,-100,4,2,1,5,0,0
54930,-100,4,2,1,75,0,0
55230,-100,4,2,1,5,0,0
55330,-100,4,2,1,75,0,0
55930,-66.6666666666667,4,2,1,75,0,0
56030,-100,4,2,1,5,0,0
56130,-100,4,2,1,75,0,0
56330,-50,4,2,1,75,0,0
56430,-100,4,2,1,5,0,0
56530,-100,4,2,1,75,0,0
56730,-40,4,2,1,75,0,0
56830,-100,4,2,1,5,0,0
56930,-100,4,2,1,75,0,0
57130,-33.3333333333333,4,2,1,75,0,0
57230,-100,4,2,1,5,0,0
57330,-66.6666666666667,4,2,1,75,0,0
57530,-50,4,2,1,75,0,0
57730,-100,4,2,1,5,0,0
57830,-50,4,2,1,75,0,0
58030,-100,4,2,1,5,0,0
58130,-100,4,2,1,75,0,0
58430,-100,4,2,1,5,0,0
58530,-100,4,2,1,75,0,0
59130,-66.6666666666667,4,2,1,75,0,0
59230,-100,4,2,1,5,0,0
59330,-100,4,2,1,75,0,0
59530,-50,4,2,1,75,0,0
59630,-100,4,2,1,5,0,0
59730,-100,4,2,1,75,0,0
60330,-200,4,2,1,75,0,0
60630,-100,4,2,1,5,0,0
60730,-33.3333333333333,4,2,1,85,0,0
60930,-50,4,2,1,85,0,0
61030,-50,4,2,1,85,0,0
61130,-50,4,2,1,85,0,0
61430,-50,4,2,1,85,0,0
61530,-50,4,2,1,85,0,0
62430,-50,4,2,1,85,0,0
62530,-50,4,2,1,85,0,0
62630,-50,4,2,1,85,0,0
62730,-50,4,2,1,85,0,0
63030,-50,4,2,1,85,0,0
63130,-50,4,2,1,85,0,0
63830,-100,4,2,1,85,0,0
63930,-100,4,2,1,85,0,0
64130,-33.3333333333333,4,2,1,85,0,0
64230,-33.3333333333333,4,2,1,85,0,0
64330,-50,4,2,1,85,0,0
64630,-50,4,2,1,85,0,0
64730,-50,4,2,1,85,0,0
64830,-50,4,2,1,85,0,0
64930,-50,4,2,1,85,0,0
65630,-50,4,2,1,85,0,0
65730,-50,4,2,1,85,0,0
65830,-50,4,2,1,85,0,0
65930,-50,4,2,1,85,0,0
66130,-33.3333333333333,4,2,1,85,0,0
66230,-33.3333333333333,4,2,1,85,0,0
66330,-50,4,2,1,85,0,0
66430,-50,4,2,1,85,0,0
66530,-50,4,2,1,85,0,0
67130,-50,4,2,1,60,0,0
77530,-33.3333333333333,4,2,1,60,0,0
77630,-33.3333333333333,4,2,1,60,0,0
77730,-33.3333333333333,4,2,1,60,0,0
78930,-200,4,2,1,60,0,0
79930,-200,4,2,1,50,0,0
81730,-100,4,2,1,5,0,0
81830,-100,4,2,1,50,0,0
82030,-100,4,2,1,5,0,0
82130,-200,4,2,1,50,0,0
84930,-100,4,2,1,5,0,0
85030,-200,4,2,1,50,0,0
85230,-100,4,2,1,5,0,0
85330,-100,4,2,1,50,0,0
85430,-100,4,2,1,5,0,0
85530,-200,4,2,1,50,0,0
88130,-100,4,2,1,5,0,0
88230,-100,4,2,1,50,0,0
88430,-100,4,2,1,5,0,0
88530,-100,4,2,1,50,0,0
88730,-100,4,2,1,50,0,0
89530,-200,4,2,1,60,0,0
89730,-100,4,2,1,5,0,0
89830,-200,4,2,1,60,0,0
90030,-200,4,2,1,5,0,0
90130,-200,4,2,1,60,0,0
90330,-100,4,2,1,60,0,0
90430,-100,4,2,1,5,0,0
90530,-100,4,2,1,60,0,0
90730,-100,4,2,1,60,0,0
91030,-100,4,2,1,5,0,0
91130,-1000,4,2,1,40,0,0
91230,-1000,4,2,1,5,0,0
91330,-1000,4,2,1,44,0,0
91430,-1000,4,2,1,5,0,0
91530,-1000,4,2,1,48,0,0
91630,-1000,4,2,1,5,0,0
91730,-1000,4,2,1,52,0,0
91830,-1000,4,2,1,5,0,0
91930,-1000,4,2,1,56,0,0
92030,-1000,4,2,1,5,0,0
92130,-1000,4,2,1,60,0,0
92230,-1000,4,2,1,5,0,0
92330,-1000,4,2,1,64,0,0
92430,-1000,4,2,1,5,0,0
92530,-1000,4,2,1,68,0,0
92630,-1000,4,2,1,5,0,0
92730,-1000,4,2,1,72,0,0
92830,-1000,4,2,1,5,0,0
92930,-1000,4,2,1,76,0,0
93030,-1000,4,2,1,5,0,0
93130,-1000,4,2,1,80,0,0
93230,-1000,4,2,1,5,0,0
93330,-1000,4,2,1,84,0,0
93430,-1000,4,2,1,5,0,0
93530,-1000,4,2,1,88,0,0
93630,-1000,4,2,1,5,0,0
93730,-1000,4,2,1,92,0,0
93830,-1000,4,2,1,5,0,0
93930,-1000,4,2,1,96,0,0
94030,-1000,4,2,1,5,0,0
94130,-1000,4,2,1,100,0,0
94230,-1000,4,2,1,5,0,0
94330,-100,4,2,1,100,0,0
94530,-100,4,2,1,70,0,0
96730,-1000,4,2,1,60,0,0
97330,-100,4,2,1,60,0,0
97530,-50,4,2,1,95,0,1
98130,-50,4,2,1,95,0,1
98330,-50,4,2,1,95,0,1
99130,-50,4,2,1,95,0,1
100930,-50,4,2,1,95,0,1
101130,-50,4,2,1,95,0,1
101530,-50,4,2,1,95,0,1
101930,-50,4,2,1,95,0,1
102330,-50,4,2,1,95,0,1
103130,-50,4,2,1,95,0,1
103230,-50,4,2,1,5,0,1
103330,-50,4,2,1,95,0,1
107130,-33.3333333333333,4,2,1,95,0,1
107430,-33.3333333333333,4,2,1,95,0,1
107730,-33.3333333333333,4,2,1,95,0,1
107930,-33.3333333333333,4,2,1,95,0,1
108230,-33.3333333333333,4,2,1,95,0,1
108530,-33.3333333333333,4,2,1,95,0,1
108730,-50,4,2,1,95,0,1
109330,-50,4,2,1,95,0,1
109930,-50,4,2,1,95,0,1
110130,-50,4,2,1,95,0,1
110230,-50,4,2,1,95,0,1
110330,-50,4,2,1,95,0,1
110930,-50,4,2,1,95,0,1
111930,-50,4,2,1,95,0,1
113530,-50,4,2,1,95,0,1
113930,-50,4,2,1,95,0,1
114330,-50,4,2,1,95,0,1
114730,-50,4,2,1,95,0,1
115130,-50,4,2,1,95,0,1
116130,-50,4,2,1,95,0,1
116230,-50,4,2,1,5,0,1
116330,-50,4,2,1,95,0,1
119130,-100,4,2,1,95,0,1
119930,-100,4,2,1,70,0,0
121530,-100,4,2,1,70,0,0
122430,-100,4,2,1,5,0,0
122530,-100,4,2,1,70,0,0
123130,-50,4,2,1,70,0,0
123330,-50,4,2,1,70,0,0
123430,-50,4,2,1,70,0,0
123630,-50,4,2,1,70,0,0
123730,-50,4,2,1,70,0,0
123930,-66.6666666666667,4,2,1,70,0,0
124130,-66.6666666666667,4,2,1,70,0,0
124230,-66.6666666666667,4,2,1,70,0,0
124430,-100,4,2,1,5,0,0
124530,-100,4,2,1,70,0,0
124730,-100,4,2,1,95,0,0
126330,-200,4,2,1,70,0,0
127130,-100,4,2,1,70,0,0
127430,-100,4,2,1,5,0,0
127530,-100,4,2,1,70,0,0
127930,-50,4,2,1,75,0,0
128030,-100,4,2,1,5,0,0
128230,-50,4,2,1,75,0,0
128430,-50,4,2,1,5,0,0
128530,-100,4,2,1,75,0,0
128830,-100,4,2,1,5,0,0
128930,-100,4,2,1,75,0,0
129530,-66.6666666666667,4,2,1,75,0,0
129630,-100,4,2,1,5,0,0
129730,-100,4,2,1,75,0,0
129930,-50,4,2,1,75,0,0
130030,-100,4,2,1,5,0,0
130130,-100,4,2,1,75,0,0
130330,-40,4,2,1,75,0,0
130430,-100,4,2,1,5,0,0
130530,-100,4,2,1,75,0,0
130730,-33.3333333333333,4,2,1,75,0,0
130830,-100,4,2,1,5,0,0
130930,-66.6666666666667,4,2,1,75,0,0
131130,-50,4,2,1,75,0,0
131330,-100,4,2,1,5,0,0
131430,-50,4,2,1,75,0,0
131630,-100,4,2,1,5,0,0
131730,-100,4,2,1,75,0,0
132030,-100,4,2,1,5,0,0
132130,-100,4,2,1,75,0,0
132730,-66.6666666666667,4,2,1,75,0,0
132830,-100,4,2,1,5,0,0
132930,-100,4,2,1,75,0,0
133130,-50,4,2,1,75,0,0
133230,-100,4,2,1,5,0,0
133330,-100,4,2,1,75,0,0
133530,-100,4,2,1,75,0,0
133930,-200,4,2,1,75,0,0
134230,-100,4,2,1,5,0,0
134330,-33.3333333333333,4,2,1,85,0,0
134530,-50,4,2,1,85,0,0
137430,-100,4,2,1,85,0,0
137530,-100,4,2,1,85,0,0
138730,-100,4,2,1,85,0,0
139030,-100,4,2,1,85,0,0
139130,-100,4,2,1,85,0,0
139796,-100,4,2,1,85,0,0
140196,-100,4,2,1,85,0,0
140530,-100,4,2,1,100,0,0
140930,-100,4,2,1,5,0,0
141030,-100,4,2,1,15,0,0

[Colours]
Combo1 : 170,240,233
Combo2 : 64,224,208
Combo3 : 162,168,249
Combo4 : 92,99,240

[HitObjects]
294,346,15086,5,0,0:0:0:0:
294,346,15273,1,0,0:0:0:0:
262,236,15461,6,0,B|238:279|238:279|307:246|307:246|362:297|362:297|350:222|350:222|418:184|418:184|344:172|344:172|328:96|328:96|294:163|294:163|218:153,1,650,2|0,0:0|0:0,0:0:0:0:
220,137,18086,2,0,L|269:143,1,50,0|0,0:0|0:0,0:0:0:0:
130,135,18461,6,0,B|153:91|153:91|84:124|84:124|29:73|29:73|41:148|41:148|-27:186|-27:186|47:198|47:198|63:274|63:274|97:207|97:207|173:217,1,650,2|0,0:0|0:0,0:0:0:0:
164,216,21086,1,2,0:0:0:0:
238,226,21273,1,0,0:0:0:0:
312,235,21461,6,0,B|320:178|265:117|172:143|164:217|164:217|157:186|128:164,1,300,2|2,0:0|0:0,0:0:0:0:
86,234,22773,1,0,0:0:0:0:
85,315,22961,2,0,P|7:212|128:164,1,300,2|2,0:0|0:0,0:0:0:0:
165,235,24273,1,0,0:0:0:0:
200,316,24461,6,0,B|176:359|176:359|245:326|245:326|300:377|300:377|288:302|288:302|356:264|356:264|282:252|282:252|266:176|266:176|232:243|232:243|156:233,1,650,2|0,0:0|0:0,0:0:0:0:
150,219,27086,1,2,0:0:0:0:
76,209,27273,1,0,0:0:0:0:
2,200,27461,6,0,B|-22:177|-29:134|7:104|7:104|102:32|102:32|141:5|185:13|240:45|297:103|277:196|206:233|146:217,1,600,2|2,0:0|0:0,0:0:0:0:
165,131,30086,1,2,0:0:0:0:
149,217,30461,6,0,B|167:141|229:125|286:138|286:138|425:174|425:174|480:190|527:242|513:338|463:377|397:361|397:361|282:332,1,700,2|2,0:0|0:0,0:0:0:0:
239,320,33273,1,0,0:0:0:0:
189,378,33461,2,0,P|150:319|239:320,1,200,2|0,0:0|0:0,0:0:0:0:
238,319,34586,5,0,0:0:0:0:
238,319,34773,1,0,0:0:0:0:
312,308,34961,5,2,0:0:0:0:
192,261,35336,1,0,0:0:0:0:
292,180,35711,1,0,0:0:0:0:
266,249,36086,5,0,0:0:0:0:
266,249,36273,1,0,0:0:0:0:
265,106,36461,6,0,B|220:100|220:100|272:68|272:68|262:8|262:8|308:49|308:49|364:19|364:19|339:75|339:75|384:119|384:119|335:114|335:114,1,462.499998235703,2|2,0:0|0:0,0:0:0:0:
292,180,38800,5,2,0:0:0:0:
292,180,39210,5,2,0:0:0:0:
227,219,39400,1,0,0:0:0:0:
153,200,39638,5,2,0:0:0:0:
153,200,40066,1,2,0:0:0:0:
248,293,40495,5,2,0:0:0:0:
248,293,40929,1,2,0:0:0:0:
282,165,41364,5,2,0:0:0:0:
282,165,41830,1,2,0:0:0:0:
227,219,42297,5,2,0:0:0:0:
248,293,42763,5,2,0:0:0:0:
248,293,43239,6,0,B|295:301|326:269|326:269|346:295|383:310|383:310|408:272|406:241|406:241|436:238|471:213|471:213|450:172|425:158|425:158|435:128|433:88|433:88|396:83|364:100|364:100|350:76|307:59|307:59|285:93|283:124|283:124|252:125|219:153|219:153|236:190|263:210,1,800,2|2,0:0|0:0,0:0:0:0:
335,226,52730,5,4,0:1:0:0:
335,226,53130,5,4,0:1:0:0:
335,226,53530,5,4,0:1:0:0:
383,162,53730,1,4,0:1:0:0:
352,88,53930,1,4,0:1:0:0:
273,77,54130,5,0,1:2:0:0:
263,87,54230,1,0,1:2:0:0:
253,97,54330,6,0,B|195:84|195:84|197:76|197:76|195:84|195:84|126:68|126:68|175:97,1,200,6|0,1:2|0:0,0:0:0:0:
255,260,54630,2,0,B|198:278|198:278|201:285|201:285|198:278|198:278|131:299|131:299|177:266,1,200,10|0,0:0|0:0,0:0:0:0:
26,194,54930,6,0,L|189:180,1,150,10|0,0:0|0:0,0:0:0:0:
205,179,55330,1,8,0:3:0:0:
255,260,55530,5,8,0:0:0:0:
262,236,55630,1,0,1:2:0:0:
354,257,55730,1,0,1:2:0:0:
342,236,55830,1,0,1:2:0:0:
398,179,55930,6,0,B|406:137|406:137|424:112|424:112|413:81|413:81|405:37,1,150.000005722046,10|0,0:0|1:2,0:0:0:0:
332,100,56230,1,0,1:2:0:0:
398,179,56330,6,0,B|437:157|471:120|471:120|446:78|405:37,1,200,10|0,0:0|1:2,0:0:0:0:
114,179,56730,6,0,B|72:189|46:151|46:151|20:112|20:112|44:69|44:69|66:32|106:37,1,250,10|0,0:0|1:2,0:0:0:0:
180,100,57030,1,0,1:2:0:0:
114,179,57130,6,0,B|78:213|78:213|33:205|33:205|30:221|34:204|33:205|33:205|-15:196,1,150.000005722046,10|0,0:0|0:0,0:0:0:0:
46,304,57330,2,0,B|76:309|76:309|77:303|77:303|76:309|76:309|107:315,1,75.0000028610231,0|0,1:2|1:2,0:0:0:0:
235,337,57530,6,0,B|222:279|222:279|214:281|214:281|222:279|222:279|206:209|206:209|235:259,1,200,14|0,0:0|0:0,0:0:0:0:
398,338,57830,2,0,B|416:281|416:281|423:284|423:284|416:281|416:281|437:214|437:214|404:260,1,200,10|0,0:0|0:0,0:0:0:0:
332,100,58130,6,0,L|318:263,1,150,10|0,0:0|0:0,0:0:0:0:
317,279,58530,1,8,0:0:0:0:
267,360,58730,5,8,0:0:0:0:
259,330,58830,1,0,1:2:0:0:
168,357,58930,1,0,1:2:0:0:
180,336,59030,1,0,1:2:0:0:
125,279,59130,6,0,P|120:250|199:268,1,150.000005722046,10|0,0:0|1:2,0:0:0:0:
180,336,59430,1,0,1:2:0:0:
68,174,59530,6,0,B|111:136|119:89|119:89|147:129|199:141,1,200,10|0,0:0|1:2,0:0:0:0:
180,336,59830,1,0,1:2:0:0:
125,279,59930,5,10,0:0:0:0:
110,247,60030,1,8,1:3:0:0:
200,221,60130,1,0,1:2:0:0:
200,259,60230,1,0,1:2:0:0:
133,152,60330,6,0,L|114:62,1,75,10|0,0:0|0:0,0:0:0:0:
35,47,60730,6,0,B|71:81|71:81|116:73|116:73|119:89|115:72|116:73|116:73|164:64,1,150.000005722046,6|0,1:2|0:0,0:0:0:0:
303,17,60930,6,0,P|277:67|280:119,1,100,10|0,0:0|0:0,0:0:0:0:
501,197,61130,2,0,P|494:64|363:85,1,300,2|0,1:2|0:0,0:0:0:0:
278,110,61530,2,0,B|301:145|345:176|345:176|402:170|439:134,1,200,2|8,1:2|0:0,0:0:0:0:
363,85,61830,2,0,L|326:292,1,200,2|0,0:0|1:2,0:0:0:0:
342,384,62130,2,0,B|370:332|341:266|229:272|222:308|252:339|161:345|132:328|112:299,1,300,10|0,0:0|0:0,0:0:0:0:
132,152,62530,6,0,P|181:144|228:161,1,100,10|0,0:0|0:0,0:0:0:0:
327,281,62730,2,0,P|276:249|363:85,1,300,2|0,1:2|0:0,0:0:0:0:
483,125,63130,2,0,B|518:162|523:219|523:219|502:265|456:285,1,200,2|8,1:2|0:0,0:0:0:0:
227,160,63430,2,0,L|423:195,1,200,2|0,0:0|1:2,0:0:0:0:
483,125,63730,2,0,B|507:71|473:7|362:21|357:57|390:86|299:98|269:83|247:56,1,300,8|0,0:0|0:0,0:0:0:0:
60,7,64130,5,10,0:0:0:0:
35,111,64230,1,0,0:0:0:0:
10,215,64330,1,2,1:2:0:0:
88,180,64430,1,0,1:2:0:0:
164,196,64530,1,8,0:0:0:0:
212,248,64630,1,0,0:0:0:0:
221,312,64730,1,2,1:2:0:0:
265,363,64830,1,0,0:0:0:0:
314,366,64930,1,8,0:0:0:0:
360,346,65030,1,2,0:0:0:0:
333,332,65130,1,0,1:2:0:0:
303,342,65230,1,0,1:2:0:0:
287,366,65330,6,0,B|343:360|343:360|359:346|359:346|377:357|377:357|418:353|418:353|461:349|485:308|481:258|432:230,1,300,10|0,0:0|0:0,0:0:0:0:
417,134,65730,2,0,P|370:155|343:195,1,100,10|0,0:0|0:0,0:0:0:0:
249,160,65930,2,0,P|243:211|265:254,1,100,2|0,1:2|1:2,0:0:0:0:
418,353,66130,6,0,B|452:317|452:317|444:273|444:273|460:270|443:273|444:273|444:273|437:233,1,150.000005722046,8|0,0:0|0:0,0:0:0:0:
38,281,66330,5,2,1:2:0:0:
84,301,66430,1,0,0:0:0:0:
133,298,66530,1,8,0:0:0:0:
177,247,66630,1,8,0:0:0:0:
186,183,66730,1,8,0:0:0:0:
234,131,66830,1,8,0:0:0:0:
310,115,66930,1,10,0:0:0:0:
388,150,67030,1,10,0:0:0:0:
465,237,67130,6,0,P|474:134|435:230,1,300,6|0,1:2|0:0,0:0:0:0:
512,320,67530,2,0,P|388:297|371:276,1,100,2|0,1:2|1:2,0:0:0:0:
328,209,67730,1,10,0:0:0:0:
279,284,67830,6,0,B|316:307|326:343|326:343|318:309|316:250|390:198|465:238,1,300,2|8,0:0|0:0,0:0:0:0:
171,307,68330,1,0,1:2:0:0:
171,307,68430,1,2,1:2:0:0:
171,307,68530,2,0,P|171:257|194:213,1,100,10|0,0:0|0:0,0:0:0:0:
279,284,68730,2,0,B|330:243|333:174|315:118|236:78|157:130|157:130|211:113|254:146,1,400,2|0,1:2|1:2,0:0:0:0:
477,173,69330,5,10,0:0:0:0:
391,120,69430,1,0,0:0:0:0:
348,210,69530,2,0,B|457:261|427:155|554:219,1,200,2|8,1:2|0:0,0:0:0:0:
398,128,69930,1,2,1:2:0:0:
398,128,70030,1,0,1:2:0:0:
398,128,70130,2,0,P|389:45|416:7,1,100,10|0,0:0|0:0,0:0:0:0:
348,210,70330,6,0,B|274:177|253:96|253:96|207:156|101:161|101:161|147:162|173:191,1,400,6|0,1:2|1:2,0:0:0:0:
152,274,70930,5,10,0:0:0:0:
253,247,71030,1,2,0:0:0:0:
221,351,71130,2,0,P|268:347|324:373,1,100,2|0,1:2|0:0,0:0:0:0:
346,209,71330,2,0,P|353:259|381:300,1,100,10|0,0:0|0:0,0:0:0:0:
253,247,71530,6,0,P|213:211|161:187,1,100,2|0,1:2|1:2,0:0:0:0:
17,238,71730,1,10,0:0:0:0:
95,282,71830,2,0,B|64:263|36:220|27:177|72:112|120:111|120:111|86:133|77:176,1,300,2|8,0:0|0:0,0:0:0:0:
171,190,72230,1,2,0:0:0:0:
253,247,72330,5,2,1:2:0:0:
202,187,72430,1,2,0:0:0:0:
195,116,72530,1,10,0:0:0:0:
226,60,72630,1,0,0:0:0:0:
277,34,72730,6,0,B|401:13|340:86|476:57,1,200,0|10,1:2|0:0,0:0:0:0:
461,197,73130,5,10,0:0:0:0:
454,173,73230,1,10,0:3:0:0:
396,98,73330,1,10,0:3:0:0:
296,115,73430,1,10,0:3:0:0:
362,194,73530,6,0,B|198:261|252:135|74:196,1,300,6|0,1:2|0:0,0:0:0:0:
151,278,73930,2,0,P|149:319|103:370,1,100,2|0,1:2|1:2,0:0:0:0:
0,350,74130,1,10,0:0:0:0:
73,196,74230,2,0,B|98:169|113:120|111:76|51:25|4:37|4:37|43:49|62:88,1,300,2|8,0:0|0:0,0:0:0:0:
281,121,74730,5,0,1:2:0:0:
281,121,74830,1,0,1:2:0:0:
281,121,74930,2,0,P|232:68|226:25,1,100,10|0,0:0|0:0,0:0:0:0:
328,40,75130,2,0,B|401:-1|498:60|461:199|414:200|377:158|362:274|381:312|413:338,1,400,2|0,1:2|1:2,0:0:0:0:
512,86,75730,5,10,0:0:0:0:
452,173,75830,1,0,0:0:0:0:
485,271,75930,5,10,0:0:0:0:
435,202,76030,1,8,0:0:0:0:
361,178,76130,1,8,0:0:0:0:
294,199,76230,1,8,0:0:0:0:
254,250,76330,1,8,0:0:0:0:
190,272,76430,1,8,0:0:0:0:
146,250,76530,1,10,0:0:0:0:
117,210,76630,1,10,0:0:0:0:
201,183,76730,5,6,1:2:0:0:
201,183,77330,5,2,0:0:0:0:
208,190,77430,1,2,0:0:0:0:
235,211,77530,6,0,B|224:141|224:141|231:139|231:139|224:141|224:141|212:63,1,150.000005722046,10|0,0:0|0:0,0:0:0:0:
414,73,77730,5,0,1:2:0:0:
424,164,77830,2,0,B|369:207|369:207|363:202|363:202|369:207|369:207|307:257,1,150.000005722046,8|2,0:0|0:0,0:0:0:0:
214,76,78030,5,0,1:2:0:0:
288,24,78130,2,0,B|353:49|353:49|351:56|351:56|353:49|353:49|426:78,1,150.000005722046,10|2,0:0|0:0,0:0:0:0:
117,210,78330,5,6,1:2:0:0:
9,139,78530,5,0,1:2:0:0:
54,152,78630,1,8,0:0:0:0:
40,234,78830,5,0,1:2:0:0:
117,210,78930,1,8,0:0:0:0:
170,308,79130,5,0,1:2:0:0:
197,216,79330,5,8,0:0:0:0:
210,238,79430,1,8,0:0:0:0:
293,194,79530,1,8,0:3:0:0:
287,217,79630,1,8,0:3:0:0:
378,243,79730,1,10,0:3:0:0:
355,256,79830,1,10,0:3:0:0:
401,340,79930,5,6,1:2:0:0:
437,164,80330,5,2,0:0:0:0:
401,340,80530,5,0,1:2:0:0:
408,332,80630,1,0,1:2:0:0:
415,324,80730,1,10,0:0:0:0:
493,281,81130,5,2,1:2:0:0:
355,256,81530,6,0,L|341:169,1,75,2|0,1:2|1:2,0:0:0:0:
338,149,81930,1,2,0:0:0:0:
318,25,82130,1,2,1:2:0:0:
323,30,82230,1,2,1:2:0:0:
328,35,82330,5,8,0:0:0:0:
281,92,82530,1,0,1:2:0:0:
207,99,82730,1,8,0:3:0:0:
150,52,82930,1,2,0:0:0:0:
155,46,83030,1,2,0:0:0:0:
160,40,83130,5,6,1:2:0:0:
138,203,83530,5,2,0:0:0:0:
207,99,83930,5,10,0:0:0:0:
91,144,84330,5,2,1:2:0:0:
254,158,84730,6,0,L|308:163,1,50,2|0,1:2|0:0,0:0:0:0:
323,143,85030,2,0,L|377:137,1,50,2|0,1:2|0:0,0:0:0:0:
392,118,85330,1,2,1:2:0:0:
160,40,85530,5,8,0:0:0:0:
138,203,85730,1,0,1:2:0:0:
144,197,85830,1,0,1:2:0:0:
150,191,85930,1,8,0:0:0:0:
375,20,86130,1,2,1:2:0:0:
368,12,86230,1,2,0:0:0:0:
361,4,86330,5,6,1:2:0:0:
397,180,86730,5,2,0:0:0:0:
361,4,86930,5,0,1:2:0:0:
368,12,87030,1,0,1:2:0:0:
375,20,87130,1,10,0:0:0:0:
453,63,87530,5,2,1:2:0:0:
315,88,87930,6,0,L|301:175,1,75,2|0,1:2|1:2,0:0:0:0:
298,195,88330,1,2,0:0:0:0:
278,319,88530,1,2,1:2:0:0:
283,314,88630,1,2,0:0:0:0:
288,309,88730,5,8,0:0:0:0:
241,252,88930,1,0,1:2:0:0:
167,245,89130,1,8,0:3:0:0:
130,259,89230,1,8,0:3:0:0:
119,281,89330,1,10,0:3:0:0:
117,295,89430,1,8,0:3:0:0:
120,304,89530,6,0,L|126:364,1,50,6|0,1:2|0:0,0:0:0:0:
162,195,89830,2,0,L|168:255,1,50,2|0,1:2|0:0,0:0:0:0:
105,122,90130,2,0,L|108:161,1,25,2|0,1:2|0:0,0:0:0:0:
151,62,90330,6,0,P|175:68|201:79,1,50,10|0,0:0|0:0,0:0:0:0:
298,195,90530,5,8,0:3:0:0:
300,192,90596,1,8,0:3:0:0:
302,189,90663,1,8,0:3:0:0:
304,186,90730,5,10,0:0:0:0:
443,220,91130,6,0,L|438:218,1,5,10|0,0:0|0:0,0:0:0:0:
397,240,91330,2,0,L|392:237,1,5,10|0,0:0|0:0,0:0:0:0:
348,237,91530,2,0,L|344:232,1,5,10|0,0:0|0:0,0:0:0:0:
304,186,91730,2,0,L|301:181,1,5,10|0,0:0|0:0,0:0:0:0:
295,122,91930,6,0,L|291:117,1,5,10|0,0:0|0:0,0:0:0:0:
247,70,92130,2,0,L|243:66,1,5,10|0,0:0|0:0,0:0:0:0:
171,54,92330,2,0,L|167:54,1,5,8|0,0:0|0:0,0:0:0:0:
93,89,92530,2,0,L|88:93,1,5,10|0,0:0|0:0,0:0:0:0:
45,170,92730,6,0,L|44:178,1,5,8|0,0:0|0:0,0:0:0:0:
52,272,92930,2,0,L|56:278,1,5,10|0,0:0|0:0,0:0:0:0:
116,351,93130,2,0,L|122:352,1,5,10|0,0:0|0:0,0:0:0:0:
225,382,93330,2,0,L|233:380,1,5,8|0,0:0|0:0,0:0:0:0:
341,340,93530,6,0,L|345:334,1,5,10|0,0:0|0:0,0:0:0:0:
417,199,93730,2,0,L|420:196,1,5,8|0,0:0|0:0,0:0:0:0:
484,329,93930,6,0,L|478:326,1,5,10|0,0:0|0:0,0:0:0:0:
276,210,94130,2,0,L|282:212,1,5,10|0,0:0|0:0,0:0:0:0:
509,127,94330,5,4,0:0:0:0:
495,138,94430,1,0,0:0:0:0:
475,141,94530,1,2,1:2:0:0:
455,131,94630,1,2,1:2:0:0:
442,109,94730,1,2,1:2:0:0:
417,94,94830,1,2,1:2:0:0:
386,99,94930,1,2,1:2:0:0:
360,122,95030,1,2,1:2:0:0:
352,159,95130,1,2,1:2:0:0:
321,188,95230,1,2,1:2:0:0:
275,194,95330,1,2,1:2:0:0:
230,170,95430,1,2,1:2:0:0:
204,121,95530,1,2,1:2:0:0:
148,92,95630,1,2,1:2:0:0:
80,101,95730,1,2,1:2:0:0:
24,152,95830,1,2,1:2:0:0:
20,258,95930,5,0,1:0:0:0:
52,255,96030,1,8,0:3:0:0:
63,353,96130,1,10,0:3:0:0:
83,326,96230,1,8,0:3:0:0:
161,384,96330,1,10,0:3:0:0:
156,351,96430,1,10,0:3:0:0:
251,340,96530,1,0,1:2:0:0:
225,317,96630,1,0,1:2:0:0:
249,246,96730,6,0,L|275:244,1,25,10|2,0:0|0:0,0:0:0:0:
363,253,97330,5,2,0:0:0:0:
346,127,97430,1,2,0:0:0:0:
363,253,97530,6,0,B|394:186|342:99|208:120|202:166|244:203|128:218|89:199|61:164,1,400,6|0,1:2|1:2,0:0:0:0:
73,39,98130,2,0,P|121:61|139:126,1,100,10|0,0:0|0:0,0:0:0:0:
20,322,98330,2,0,B|116:306|116:306|114:298|114:298|116:306|116:306|213:290,1,200,2|8,1:2|0:0,0:0:0:0:
269,230,98630,2,0,B|365:245|365:245|363:253|363:253|365:245|365:245|461:261,1,200,2|0,0:0|1:2,0:0:0:0:
410,335,98930,2,0,P|375:302|363:254,1,100,10|0,0:0|0:0,0:0:0:0:
512,101,99130,6,0,B|415:116|415:116|417:124|417:124|415:116|415:116|319:132,1,200,6|8,1:2|0:0,0:0:0:0:
259,60,99430,2,0,B|162:44|162:44|164:36|164:36|162:44|162:44|66:28,1,200,2|0,0:0|1:2,0:0:0:0:
6,100,99730,2,0,B|13:148|13:148|17:147|17:147|13:148|13:148|21:196,1,100,10|0,0:0|0:0,0:0:0:0:
0,316,99930,2,0,B|-31:249|21:162|155:183|161:229|119:266|235:281|274:262|302:227,1,400,2|0,1:2|1:2,0:0:0:0:
167,43,100530,6,0,B|119:36|119:36|120:32|120:32|119:36|119:36|77:29,1,100,10|0,0:0|0:0,0:0:0:0:
259,60,100730,2,0,B|324:70|324:70|323:80|323:80|324:70|324:70|389:80|389:80|432:112|432:112|527:101,1,300,6|0,1:2|0:0,0:0:0:0:
452,9,101130,2,0,B|430:144|430:144|418:142|418:142|430:144|430:144|406:282,1,300,2|0,1:2|0:0,0:0:0:0:
432,384,101530,6,0,B|454:334|416:269|317:285|312:319|343:346|257:358|228:343|208:318,1,300,6|0,1:2|0:0,0:0:0:0:
103,136,101930,2,0,B|80:185|118:250|217:234|222:200|191:173|277:161|306:176|326:201,1,300,2|0,1:2|0:0,0:0:0:0:
268,259,102330,6,0,B|204:146|241:15|241:15|324:29|358:112,1,400,6|0,1:2|1:2,0:0:0:0:
201,153,102930,2,0,L|82:132,1,100,10|0,0:0|0:0,0:0:0:0:
0,99,103130,2,0,B|49:76|114:114|98:213|64:218|37:187|25:273|40:302|65:322,1,300,6|0,1:2|0:0,0:0:0:0:
126,384,103530,5,8,0:3:0:0:
151,314,103630,1,8,0:3:0:0:
210,270,103730,1,8,0:3:0:0:
284,267,103830,1,8,0:3:0:0:
347,305,103930,6,0,P|461:327|429:122,1,400,6|0,1:2|1:2,0:0:0:0:
210,270,104530,2,0,P|175:234|170:185,1,100,10|0,0:0|0:0,0:0:0:0:
300,125,104730,2,0,P|286:172|246:201,1,100,2|0,1:2|0:0,0:0:0:0:
129,119,104930,2,0,P|176:107|221:126,1,100,10|0,0:0|0:0,0:0:0:0:
66,323,105130,2,0,L|47:223,1,100,2|0,1:2|0:0,0:0:0:0:
110,20,105330,2,0,L|128:119,1,100,10|0,0:0|0:0,0:0:0:0:
22,195,105530,6,0,B|168:215|168:215|209:271|209:271|271:280|271:280|297:273|297:273|317:287|317:287|397:296,1,400,2|0,1:2|1:2,0:0:0:0:
415,155,106130,5,10,0:0:0:0:
396,56,106230,1,0,0:0:0:0:
415,155,106330,2,0,P|370:154|311:111,1,100,2|0,1:2|0:0,0:0:0:0:
257,190,106530,2,0,P|235:151|242:78,1,100,10|0,0:0|0:0,0:0:0:0:
418,20,106730,5,2,1:2:0:0:
407,38,106830,1,0,1:2:0:0:
396,56,106930,5,10,0:0:0:0:
301,34,107030,1,0,0:0:0:0:
207,15,107130,6,0,B|132:0|132:0|145:59|145:59|139:59|139:59|145:59|145:59|161:135|161:135|154:142|154:142|167:208,1,300.000011444092,6|0,1:2|0:0,0:0:0:0:
16,284,107430,2,0,B|90:298|90:298|77:239|77:239|83:239|83:239|77:239|77:239|61:163|61:163|69:157|69:157|56:93,1,300.000011444092,6|0,1:2|0:0,0:0:0:0:
257,190,107730,2,0,B|248:241|248:241|253:253|253:253|248:288|248:288|244:287|244:287|248:288|248:288|241:329,1,150.000005722046,6|0,1:2|0:0,0:0:0:0:
424,137,107930,6,0,B|439:63|439:63|380:76|380:76|380:70|380:70|380:76|380:76|304:92|304:92|297:84|297:84|231:97,1,300.000011444092,10|0,1:2|0:0,0:0:0:0:
67,149,108230,2,0,B|52:223|52:223|111:210|111:210|111:216|111:216|111:210|111:210|187:194|187:194|194:202|194:202|257:190,1,300.000011444092,10|0,1:2|0:0,0:0:0:0:
467,237,108530,2,0,B|427:246|427:246|425:241|425:241|427:246|427:246|391:253|391:253|380:249|380:249|329:260,1,150.000005722046,10|0,1:2|0:0,0:0:0:0:
234,96,108730,6,0,B|282:103|282:103|281:107|281:107|282:103|282:103|330:111,1,100,6|0,1:2|0:0,0:0:0:0:
504,8,108930,5,8,0:0:0:0:
439,43,109030,1,8,0:0:0:0:
406,109,109130,1,8,0:0:0:0:
416,182,109230,1,8,0:0:0:0:
467,237,109330,2,0,P|489:202|481:147,1,100,0|0,1:2|1:2,0:0:0:0:
263,161,109530,5,10,0:0:0:0:
256,190,109630,1,8,0:3:0:0:
293,257,109730,1,8,0:3:0:0:
286,286,109830,1,10,0:3:0:0:
288,361,109930,5,8,0:0:0:0:
223,324,110030,1,8,0:0:0:0:
149,311,110130,1,10,0:0:0:0:
75,323,110230,1,8,0:0:0:0:
10,359,110330,6,0,B|-27:288|40:211|135:231|149:313|149:313|281:345,1,400,6|0,1:2|1:2,0:0:0:0:
437,381,110930,5,10,0:0:0:0:
405,286,111030,1,0,0:0:0:0:
437,381,111130,2,0,P|504:286|467:212,1,200,2|8,1:2|0:0,0:0:0:0:
392,161,111430,2,0,P|364:69|429:-1,1,200,2|0,0:0|1:2,0:0:0:0:
483,89,111730,2,0,P|453:109|471:76,1,100,10|0,0:0|0:0,0:0:0:0:
293,257,111930,6,0,B|308:223|282:179|215:190|212:213|233:231|175:240|155:229|142:212,1,200,6|8,1:2|0:0,0:0:0:0:
71,285,112230,2,0,P|44:192|107:119,1,200,2|0,0:0|1:2,0:0:0:0:
245,167,112530,2,0,L|228:66,1,100,8|0,0:0|0:0,0:0:0:0:
76,5,112730,6,0,B|126:46|173:64|173:64|222:29|275:12|275:12|313:38|350:48|350:48|393:11|468:30,1,400,2|0,1:2|1:2,0:0:0:0:
501,178,113330,5,10,0:0:0:0:
417,125,113430,1,0,0:0:0:0:
501,178,113530,6,0,P|406:225|335:73,1,300,6|0,1:2|0:0,0:0:0:0:
364,254,113930,2,0,B|387:303|349:368|250:352|245:318|276:291|190:279|161:294|141:319,1,300,2|0,1:2|0:0,0:0:0:0:
45,375,114330,2,0,B|66:238|66:238|77:241|77:241|66:238|66:238|89:101,1,300,6|0,1:2|0:0,0:0:0:0:
170,0,114730,2,0,B|192:136|192:136|181:139|181:139|192:136|192:136|214:273,1,300,2|0,1:2|0:0,0:0:0:0:
370,383,115130,6,0,B|432:299|379:173|281:145|281:145|335:169|352:232,1,400,6|0,1:2|1:2,0:0:0:0:
214,272,115730,2,0,P|244:252|226:285,1,100,8|0,0:0|0:0,0:0:0:0:
163,388,115930,2,0,P|112:213|281:145,1,400,6|0,1:2|1:2,0:0:0:0:
449,138,116530,5,8,0:0:0:0:
512,74,116630,1,8,0:0:0:0:
448,10,116730,2,0,B|363:24|363:24|361:16|361:16|363:24|363:24|266:39,1,200,6|8,1:2|0:0,0:0:0:0:
203,102,117030,2,0,B|118:87|118:87|116:95|116:95|118:87|118:87|21:72,1,200,2|0,0:0|0:0,0:0:0:0:
103,9,117330,2,0,B|110:51|110:51|104:52|104:52|110:51|110:51|117:99,1,100,10|0,0:0|0:0,0:0:0:0:
27,273,117530,6,0,B|4:224|42:159|141:175|146:209|115:236|201:248|230:233|250:208,1,300,2|0,1:2|0:0,0:0:0:0:
334,264,117930,2,0,B|348:248|351:225|351:225|358:226|358:226|351:225|351:225|356:204|348:182,1,100,2|0,1:2|1:2,0:0:0:0:
186,153,118130,2,0,B|192:173|210:188|210:188|206:192|206:192|210:188|210:188|226:202|250:206,1,100,10|0,0:0|0:0,0:0:0:0:
512,47,118330,6,0,B|482:78|436:86|436:86|439:98|439:98|436:86|436:86|394:94|350:77,1,200,2|8,1:2|0:0,0:0:0:0:
260,29,118630,2,0,B|215:11|173:19|173:19|170:7|170:7|173:19|173:19|127:27|98:59,1,200,2|0,0:0|1:0,0:0:0:0:
55,149,118930,2,0,B|62:191|62:191|56:192|56:192|62:191|62:191|69:239,1,100,10|0,0:0|0:0,0:0:0:0:
110,370,119130,5,10,0:0:0:0:
128,294,119230,1,8,0:0:0:0:
198,384,119330,5,8,0:3:0:0:
186,346,119430,1,8,0:3:0:0:
279,352,119530,5,8,0:3:0:0:
264,338,119630,1,8,0:3:0:0:
337,298,119730,5,10,0:3:0:0:
327,295,119830,1,10,0:3:0:0:
360,222,119930,5,6,1:2:0:0:
285,147,120230,1,2,0:0:0:0:
312,44,120530,1,2,1:2:0:0:
387,119,120730,5,10,0:0:0:0:
183,175,121130,5,2,1:2:0:0:
360,222,121530,5,6,1:2:0:0:
272,199,121830,1,2,1:2:0:0:
183,175,122130,1,2,1:2:0:0:
6,128,122330,5,10,0:0:0:0:
58,277,122530,1,2,1:2:0:0:
60,274,122596,1,0,1:2:0:0:
62,271,122663,1,0,1:2:0:0:
64,268,122730,5,10,0:0:0:0:
6,128,122930,5,2,0:0:0:0:
90,117,123030,1,2,0:0:0:0:
6,128,123130,6,0,P|71:34|142:49,1,200,6|0,1:2|0:0,0:0:0:0:
205,100,123430,2,0,P|299:105|340:20,1,200,6|0,1:2|0:0,0:0:0:0:
256,30,123730,1,6,1:2:0:0:
432,0,123930,6,0,P|426:62|452:153,1,150.000005722046,10|0,0:0|0:0,0:0:0:0:
512,286,124230,2,0,P|461:249|369:226,1,150.000005722046,8|0,0:0|0:0,0:0:0:0:
290,131,124530,2,0,P|253:157|213:172,1,50,8|0,0:0|0:0,0:0:0:0:
17,95,124730,5,6,1:2:0:0:
91,97,124830,1,0,0:0:0:0:
156,145,124930,1,8,0:0:0:0:
184,229,125030,1,0,0:0:0:0:
156,322,125130,5,2,1:2:0:0:
217,274,125230,1,0,1:2:0:0:
280,271,125330,1,8,0:0:0:0:
323,298,125430,1,2,1:2:0:0:
339,335,125530,1,2,1:2:0:0:
367,352,125630,1,0,0:0:0:0:
393,351,125730,1,8,0:0:0:0:
409,339,125830,1,0,0:0:0:0:
414,324,125930,5,8,0:0:0:0:
387,253,126030,1,8,0:0:0:0:
440,199,126130,5,2,1:2:0:0:
454,161,126230,1,0,1:2:0:0:
417,95,126330,6,0,L|342:106,2,75,6|2|2,1:2|0:0|1:2,0:0:0:0:
512,0,127030,1,0,0:0:0:0:
512,0,127130,1,10,0:0:0:0:
216,303,127730,5,0,1:2:0:0:
226,293,127830,1,0,1:2:0:0:
236,283,127930,6,0,B|294:296|294:296|292:304|292:304|294:296|294:296|363:312|363:312|314:283,1,200,6|0,1:2|0:0,0:0:0:0:
234,120,128230,2,0,B|291:102|291:102|288:95|288:95|291:102|291:102|358:81|358:81|312:114,1,200,10|0,0:0|0:0,0:0:0:0:
463,186,128530,6,0,L|300:200,1,150,10|0,0:0|0:0,0:0:0:0:
284,201,128930,1,8,0:3:0:0:
234,120,129130,5,8,0:0:0:0:
227,144,129230,1,0,1:2:0:0:
135,123,129330,1,0,1:2:0:0:
147,144,129430,1,0,1:2:0:0:
91,201,129530,6,0,B|83:243|83:243|65:268|65:268|76:299|76:299|84:343,1,150.000005722046,10|0,0:0|1:2,0:0:0:0:
157,280,129830,1,0,1:2:0:0:
91,201,129930,6,0,B|52:223|18:260|18:260|43:302|84:343,1,200,10|0,0:0|1:2,0:0:0:0:
375,201,130330,6,0,B|417:191|443:229|443:229|469:268|469:268|445:311|445:311|423:348|383:343,1,250,10|0,0:0|1:2,0:0:0:0:
309,280,130630,1,0,1:2:0:0:
375,201,130730,6,0,B|411:167|411:167|456:175|456:175|459:159|455:176|456:175|456:175|504:184,1,150.000005722046,10|0,0:0|0:0,0:0:0:0:
443,76,130930,2,0,B|413:71|413:71|412:77|412:77|413:71|413:71|382:65,1,75.0000028610231,0|0,1:2|1:2,0:0:0:0:
254,43,131130,6,0,B|267:101|267:101|275:99|275:99|267:101|267:101|283:171|283:171|254:121,1,200,14|0,0:0|0:0,0:0:0:0:
91,42,131430,2,0,B|73:99|73:99|66:96|66:96|73:99|73:99|52:166|52:166|85:120,1,200,10|0,0:0|0:0,0:0:0:0:
157,280,131730,6,0,L|171:117,1,150,10|0,0:0|0:0,0:0:0:0:
172,101,132130,1,8,0:0:0:0:
222,20,132330,5,8,0:0:0:0:
230,50,132430,1,0,1:2:0:0:
321,23,132530,1,0,1:2:0:0:
309,44,132630,1,0,1:2:0:0:
364,101,132730,6,0,P|369:130|290:112,1,150.000005722046,10|0,0:0|1:2,0:0:0:0:
309,44,133030,1,0,1:2:0:0:
421,206,133130,6,0,B|378:244|370:291|370:291|342:251|290:239,1,200,10|0,0:0|1:2,0:0:0:0:
309,44,133430,1,0,1:2:0:0:
364,101,133530,5,10,0:0:0:0:
458,69,133663,5,8,1:3:0:0:
454,75,133730,1,0,1:2:0:0:
450,80,133796,1,0,1:2:0:0:
446,85,133863,1,0,1:2:0:0:
443,90,133930,6,0,L|427:173,1,75,10|0,0:0|0:0,0:0:0:0:
486,337,134330,6,0,B|450:303|450:303|405:311|405:311|402:295|406:312|405:311|405:311|357:320,1,150.000005722046,6|0,1:2|0:0,0:0:0:0:
218,367,134530,6,0,P|244:317|241:265,1,100,10|0,0:0|0:0,0:0:0:0:
20,187,134730,2,0,P|27:320|158:299,1,300,2|0,1:2|0:0,0:0:0:0:
243,274,135130,2,0,B|220:239|176:208|176:208|119:214|82:250,1,200,2|8,1:2|0:0,0:0:0:0:
158,299,135430,2,0,L|195:92,1,200,2|0,0:0|1:2,0:0:0:0:
179,0,135730,2,0,B|151:52|180:118|292:112|299:76|269:45|360:39|389:56|409:85,1,300,10|0,0:0|0:0,0:0:0:0:
389,232,136130,6,0,P|340:240|293:223,1,100,10|0,0:0|0:0,0:0:0:0:
194,103,136330,2,0,P|245:135|158:299,1,300,2|0,1:2|0:0,0:0:0:0:
38,259,136730,2,0,B|3:222|-2:165|-2:165|19:119|65:99,1,200,2|8,1:2|0:0,0:0:0:0:
294,224,137030,2,0,L|98:189,1,200,2|0,0:0|1:2,0:0:0:0:
38,259,137330,2,0,B|14:313|48:377|159:363|164:327|131:298|222:286|252:301|274:328,1,300,8|0,0:0|0:0,0:0:0:0:
461,377,137730,5,10,0:0:0:0:
486,273,137830,1,0,0:0:0:0:
511,169,137930,5,2,1:2:0:0:
433,204,138030,1,0,1:2:0:0:
357,188,138130,1,8,0:0:0:0:
309,136,138230,1,0,0:0:0:0:
300,72,138330,5,2,1:2:0:0:
294,111,138430,1,0,0:0:0:0:
288,150,138530,1,8,0:0:0:0:
282,189,138630,1,2,0:0:0:0:
276,228,138730,6,0,L|266:168,1,50,0|0,1:2|1:2,0:0:0:0:
157,66,138930,2,0,L|147:126,1,50,10|0,0:0|0:0,0:0:0:0:
101,224,139130,5,8,0:0:0:0:
128,219,139196,1,8,0:0:0:0:
156,214,139263,1,8,0:0:0:0:
177,210,139330,5,10,0:0:0:0:
166,234,139396,1,0,1:2:0:0:
155,258,139463,1,0,1:2:0:0:
145,282,139530,5,10,0:0:0:0:
166,275,139596,1,8,0:0:0:0:
188,277,139663,1,0,1:2:0:0:
207,287,139729,1,0,1:2:0:0:
226,296,139797,1,0,1:2:0:0:
248,298,139864,1,0,1:2:0:0:
269,292,139930,1,10,0:2:0:0:
290,285,139996,1,8,0:2:0:0:
312,287,140063,1,8,0:2:0:0:
331,297,140129,1,8,0:2:0:0:
350,306,140197,1,8,0:2:0:0:
372,308,140264,1,0,1:2:0:0:
397,301,140330,6,0,P|417:287|435:266,1,50,8|0,0:0|0:0,0:0:0:0:
480,64,140530,5,6,1:2:0:0:
