osu file format v14

[General]
AudioFilename: audio.mp3
AudioLeadIn: 0
PreviewTime: 97330
Countdown: 0
SampleSet: Soft
StackLeniency: 0.2
Mode: 0
LetterboxInBreaks: 0
WidescreenStoryboard: 1

[Editor]
Bookmarks: 67130,140530
DistanceSpacing: 1.3
BeatDivisor: 4
GridSize: 4
TimelineZoom: 1.7

[Metadata]
Title:FIRE BIRD (TV Size)
TitleUnicode:FIRE BIRD (TV Size)
Artist:Roselia
ArtistUnicode:Roselia
Creator:-Aqua
Version:Shizuku's Special
Source:BanG Dream! 2nd Season
Tags:バンドリ! ガールズバンドパーティ! BanG Dream! Bandori! Girls Band Party! ガルパ Garupa insert original song 9th single FIRE BIRD Ringing Bloom album Bandori project Girl Party Garupa! Fries Fried Potato ロゼリア Rozeria 湊友希那 Minato Yukina 氷川紗夜 Hikawa Sayo 今井リサ Imai Lisa 宇田川あこ Udagawa Ako 白金燐子 Shirokane Rinko 相羽あいな Aiba Aina Aiai 工藤晴香 Kudō Haruka Kudo Kudou Kudoharu Kdhr 遠藤ゆりか Endō Yurika Endo Endou Yurishii 桜川めぐ Sakuragawa Megu Meguchii 明坂聡美 Akesaka Satomi Akeko 中島由貴 Nakashima Yuki Shimayuki 志崎樺音 Shizaki Kanon Nonchan Non-chan Anime Video Game Japanese Stream Alternator Alternater Hinsvar Cami Xidorn nextplay newton- Yonaka- Shizuku- Onlybiscuit
BeatmapID:1986140
BeatmapSetID:947848

[Difficulty]
HPDrainRate:6
CircleSize:4
OverallDifficulty:9.2
ApproachRate:9.5
SliderMultiplier:3.16
SliderTickRate:1

[Events]
//Background and Video events
0,0,"hot asf sayo.jpg",0,0
Video,45,"FIRE BIRDY.mp4"
//Break Periods
2,49079,52176
//Storyboard Layer 0 (Background)
//Storyboard Layer 1 (Fail)
//Storyboard Layer 2 (Pass)
//Storyboard Layer 3 (Foreground)
//Storyboard Layer 4 (Overlay)
//Storyboard Sound Samples

[TimingPoints]
12461,750,4,2,1,60,1,0
15086,-100,4,2,1,30,0,0
15461,-200,4,2,1,40,0,0
23148,-200,4,2,1,5,0,0
23336,-200,4,2,1,40,0,0
23523,-200,4,2,1,5,0,0
23711,-200,4,2,1,40,0,0
23898,-200,4,2,1,5,0,0
24086,-200,4,2,1,40,0,0
37211,779.220779220779,4,2,1,40,1,0
37211,-200,4,2,1,40,0,0
37990,810.810810810811,4,2,1,50,1,0
37990,-200,4,2,1,50,0,0
38800,821.917808219178,4,2,1,60,1,0
38800,-200,4,2,1,60,0,0
39210,761.421319796954,4,2,1,60,1,0
39400,952.380952380952,4,2,1,60,1,0
39638,857.142857142857,4,2,1,65,1,0
39638,-200,4,2,1,65,0,0
40495,869.565217391304,4,2,1,65,1,0
40495,-200,4,2,1,65,0,0
41364,933.125972006221,4,2,1,65,1,0
42763,952.380952380952,4,2,1,65,1,0
43239,1410.10575793184,4,2,1,75,1,0
43239,-133.333333333333,4,2,1,75,0,0
43327,-133.333333333333,4,2,1,5,0,0
48879,-133.333333333333,4,2,1,75,0,0
52730,400,4,2,1,60,1,0
54330,-66.6666666666667,4,2,1,75,0,0
54430,-66.6666666666667,4,2,1,5,0,0
54530,-66.6666666666667,4,2,1,5,0,0
54630,-100,4,2,1,75,0,0
54730,-100,4,2,1,75,0,0
54830,-100,4,2,1,5,0,0
54930,-100,4,2,1,75,0,0
55230,-100,4,2,1,5,0,0
55330,-100,4,2,1,75,0,0
55430,-100,4,2,1,75,0,0
55530,-100,4,2,1,75,0,0
56030,-100,4,2,1,5,0,0
56130,-100,4,2,1,75,0,0
56330,-83.3333333333333,4,2,1,75,0,0
56429,-83.3333333333333,4,2,1,5,0,0
56430,-83.3333333333333,4,2,1,5,0,0
56530,-83.3333333333333,4,2,1,75,0,0
56730,-66.6666666666667,4,2,1,75,0,0
56830,-66.6666666666667,4,2,1,5,0,0
56930,-66.6666666666667,4,2,1,75,0,0
57130,-55.5555555555556,4,2,1,75,0,0
57229,-55.5555555555556,4,2,1,5,0,0
57230,-55.5555555555556,4,2,1,5,0,0
57330,-55.5555555555556,4,2,1,75,0,0
57530,-66.6666666666667,4,2,1,75,0,0
57730,-66.6666666666667,4,2,1,5,0,0
57830,-100,4,2,1,75,0,0
57930,-100,4,2,1,75,0,0
58030,-100,4,2,1,5,0,0
58130,-100,4,2,1,75,0,0
58430,-100,4,2,1,5,0,0
58530,-100,4,2,1,75,0,0
58630,-100,4,2,1,75,0,0
58730,-100,4,2,1,75,0,0
59230,-100,4,2,1,5,0,0
59330,-100,4,2,1,75,0,0
59530,-83.3333333333333,4,2,1,75,0,0
59629,-83.3333333333333,4,2,1,5,0,0
59630,-83.3333333333333,4,2,1,5,0,0
59730,-83.3333333333333,4,2,1,75,0,0
60330,-55.5555555555556,4,2,1,75,0,0
60629,-55.5555555555556,4,2,1,5,0,0
60630,-55.5555555555556,4,2,1,5,0,0
60730,-83.3333333333333,4,2,1,85,0,0
61330,-100,4,2,1,85,0,0
61480,-100,4,2,1,85,0,0
61530,-83.3333333333333,4,2,1,85,0,0
63130,-66.6666666666667,4,2,1,85,0,0
64130,-100,4,2,1,85,0,0
64730,-83.3333333333333,4,2,1,85,0,0
67130,-100,4,2,1,60,0,0
79930,-133.333333333333,4,2,1,50,0,0
81730,-133.333333333333,4,2,1,5,0,0
81830,-133.333333333333,4,2,1,50,0,0
82030,-133.333333333333,4,2,1,5,0,0
82130,-133.333333333333,4,2,1,50,0,0
84930,-133.333333333333,4,2,1,5,0,0
85030,-133.333333333333,4,2,1,50,0,0
85230,-133.333333333333,4,2,1,5,0,0
85330,-133.333333333333,4,2,1,50,0,0
85430,-133.333333333333,4,2,1,50,0,0
85530,-133.333333333333,4,2,1,50,0,0
88130,-133.333333333333,4,2,1,5,0,0
88230,-133.333333333333,4,2,1,50,0,0
88430,-133.333333333333,4,2,1,5,0,0
88530,-133.333333333333,4,2,1,50,0,0
89530,-133.333333333333,4,2,1,60,0,0
89730,-133.333333333333,4,2,1,5,0,0
89830,-133.333333333333,4,2,1,60,0,0
90030,-133.333333333333,4,2,1,5,0,0
90130,-133.333333333333,4,2,1,60,0,0
90430,-133.333333333333,4,2,1,5,0,0
90530,-133.333333333333,4,2,1,60,0,0
91030,-133.333333333333,4,2,1,5,0,0
91130,-133.333333333333,4,2,1,40,0,0
91230,-133.333333333333,4,2,1,5,0,0
91330,-133.333333333333,4,2,1,44,0,0
91430,-133.333333333333,4,2,1,5,0,0
91530,-133.333333333333,4,2,1,48,0,0
91630,-133.333333333333,4,2,1,5,0,0
91730,-133.333333333333,4,2,1,52,0,0
91830,-133.333333333333,4,2,1,5,0,0
91930,-133.333333333333,4,2,1,56,0,0
92030,-133.333333333333,4,2,1,5,0,0
92130,-133.333333333333,4,2,1,60,0,0
92230,-133.333333333333,4,2,1,5,0,0
92330,-133.333333333333,4,2,1,64,0,0
92430,-133.333333333333,4,2,1,5,0,0
92530,-133.333333333333,4,2,1,68,0,0
92630,-133.333333333333,4,2,1,5,0,0
92730,-133.333333333333,4,2,1,72,0,0
92830,-133.333333333333,4,2,1,5,0,0
92930,-133.333333333333,4,2,1,76,0,0
93030,-133.333333333333,4,2,1,5,0,0
93130,-133.333333333333,4,2,1,80,0,0
93230,-133.333333333333,4,2,1,5,0,0
93330,-133.333333333333,4,2,1,84,0,0
93430,-133.333333333333,4,2,1,5,0,0
93530,-133.333333333333,4,2,1,88,0,0
93630,-133.333333333333,4,2,1,5,0,0
93730,-133.333333333333,4,2,1,92,0,0
93830,-133.333333333333,4,2,1,5,0,0
93930,-133.333333333333,4,2,1,96,0,0
94030,-133.333333333333,4,2,1,5,0,0
94130,-133.333333333333,4,2,1,100,0,0
94230,-133.333333333333,4,2,1,5,0,0
94330,-133.333333333333,4,2,1,100,0,0
94530,-133.333333333333,4,2,1,70,0,0
96730,-133.333333333333,4,2,1,60,0,0
97530,-66.6666666666667,4,2,1,95,0,1
97930,-76.9230769230769,4,2,1,95,0,1
103229,-76.9230769230769,4,2,1,5,0,1
103230,-76.9230769230769,4,2,1,5,0,1
103330,-76.9230769230769,4,2,1,95,0,1
107130,-83.3333333333333,4,2,1,95,0,0
110330,-66.6666666666667,4,2,1,95,0,1
110730,-76.9230769230769,4,2,1,95,0,1
116330,-76.9230769230769,4,2,1,95,0,1
119930,-100,4,2,1,70,0,0
122430,-100,4,2,1,5,0,0
122530,-100,4,2,1,70,0,0
124430,-100,4,2,1,5,0,0
124530,-100,4,2,1,70,0,0
124730,-83.3333333333333,4,2,1,95,0,0
126330,-133.333333333333,4,2,1,70,0,0
127330,-50,4,2,1,70,0,0
127430,-50,4,2,1,5,0,0
127530,-50,4,2,1,70,0,0
127930,-66.6666666666667,4,2,1,75,0,0
128030,-66.6666666666667,4,2,1,5,0,0
128130,-66.6666666666667,4,2,1,5,0,0
128230,-100,4,2,1,75,0,0
128330,-100,4,2,1,75,0,0
128430,-100,4,2,1,5,0,0
128530,-100,4,2,1,75,0,0
128830,-100,4,2,1,5,0,0
128930,-100,4,2,1,75,0,0
129030,-100,4,2,1,75,0,0
129130,-100,4,2,1,75,0,0
129630,-100,4,2,1,5,0,0
129730,-100,4,2,1,75,0,0
129930,-83.3333333333333,4,2,1,75,0,0
130029,-83.3333333333333,4,2,1,5,0,0
130030,-83.3333333333333,4,2,1,5,0,0
130130,-83.3333333333333,4,2,1,75,0,0
130330,-66.6666666666667,4,2,1,75,0,0
130430,-66.6666666666667,4,2,1,5,0,0
130530,-66.6666666666667,4,2,1,75,0,0
130730,-55.5555555555556,4,2,1,75,0,0
130829,-55.5555555555556,4,2,1,5,0,0
130830,-55.5555555555556,4,2,1,5,0,0
130930,-55.5555555555556,4,2,1,75,0,0
131130,-66.6666666666667,4,2,1,75,0,0
131330,-66.6666666666667,4,2,1,5,0,0
131430,-100,4,2,1,75,0,0
131530,-100,4,2,1,75,0,0
131630,-100,4,2,1,5,0,0
131730,-100,4,2,1,75,0,0
132030,-100,4,2,1,5,0,0
132130,-100,4,2,1,75,0,0
132230,-100,4,2,1,75,0,0
132330,-100,4,2,1,75,0,0
132830,-100,4,2,1,5,0,0
132930,-100,4,2,1,75,0,0
133130,-83.3333333333333,4,2,1,75,0,0
133229,-83.3333333333333,4,2,1,5,0,0
133230,-83.3333333333333,4,2,1,5,0,0
133330,-83.3333333333333,4,2,1,75,0,0
133930,-55.5555555555556,4,2,1,75,0,0
134229,-55.5555555555556,4,2,1,5,0,0
134230,-55.5555555555556,4,2,1,5,0,0
134330,-83.3333333333333,4,2,1,85,0,0
134930,-100,4,2,1,85,0,0
135080,-100,4,2,1,85,0,0
135130,-83.3333333333333,4,2,1,85,0,0
136730,-66.6666666666667,4,2,1,85,0,0
137730,-100,4,2,1,85,0,0
138330,-83.3333333333333,4,2,1,85,0,0
140530,-83.3333333333333,4,2,1,100,0,0
140930,-83.3333333333333,4,2,1,5,0,0
141030,-83.3333333333333,4,2,1,15,0,0

[Colours]
Combo1 : 170,240,233
Combo2 : 64,224,208
Combo3 : 162,168,249
Combo4 : 92,99,240

[HitObjects]
476,8,15086,5,2,0:0:0:0:
440,84,15273,1,2,0:0:0:0:
480,156,15461,6,0,B|404:188|404:124|328:156,1,158,2|2,0:0|0:0,0:0:0:0:
348,328,16586,1,2,0:0:0:0:
256,296,16773,1,2,0:0:0:0:
180,336,16961,6,0,B|148:260|212:260|180:184,1,158,2|2,0:0|0:0,0:0:0:0:
100,40,18086,1,2,0:0:0:0:
104,52,18461,6,0,P|188:72|240:28,1,158,2|2,0:0|0:0,0:0:0:0:
444,52,19586,1,2,0:0:0:0:
352,64,19773,1,2,0:0:0:0:
327,156,19961,2,0,L|347:312,1,158,2|2,0:0|0:0,0:0:0:0:
347,312,21086,6,0,P|323:312|299:304,1,39.5,2|2,0:0|0:0,0:0:0:0:
256,240,21461,2,0,P|192:288|112:288,1,158,2|2,0:0|0:0,0:0:0:0:
108,296,22586,6,0,L|100:256,1,39.5,2|2,0:0|0:0,0:0:0:0:
52,200,22961,2,0,P|88:184|128:188,1,79,2|2,0:0|0:0,0:0:0:0:
248,132,23711,2,0,P|209:135|173:119,1,79,2|2,0:0|0:0,0:0:0:0:
152,24,24273,1,2,0:0:0:0:
157,32,24461,6,0,L|125:192,3,158,2|2|2|2,0:0|0:0|0:0|0:0,0:0:0:0:
76,260,27086,5,2,0:0:0:0:
180,240,27273,1,2,0:0:0:0:
200,376,27461,2,0,L|44:344,1,158,2|2,0:0|0:0,0:0:0:0:
180,240,28586,1,2,0:0:0:0:
256,296,28773,1,2,0:0:0:0:
336,252,28961,2,0,B|412:220|412:284|488:252,1,158,2|2,0:0|0:0,0:0:0:0:
428,52,30086,5,2,0:0:0:0:
512,88,30461,2,0,L|352:104,1,158,2|2,0:0|0:0,0:0:0:0:
140,32,31586,1,2,0:0:0:0:
208,76,31773,1,2,0:0:0:0:
168,152,31961,2,0,L|184:312,1,158,2|2,0:0|0:0,0:0:0:0:
28,360,33086,5,2,0:0:0:0:
96,288,33273,1,2,0:0:0:0:
184,328,33461,2,0,P|264:328|316:276,1,158,2|2,0:0|0:0,0:0:0:0:
460,312,34586,1,2,0:0:0:0:
444,232,34773,1,2,0:0:0:0:
472,156,34961,2,0,P|488:120|488:80,1,79,2|2,0:0|0:0,0:0:0:0:
392,140,35711,2,0,P|392:100|408:64,1,79,2|2,0:0|0:0,0:0:0:0:
312,24,36273,1,2,0:0:0:0:
312,24,36461,6,0,L|232:32,1,79,2|0,0:0|0:0,0:0:0:0:
296,104,37211,2,0,L|216:112,1,79,2|2,0:0|0:0,0:0:0:0:
280,184,37990,2,0,L|200:192,1,79,2|2,0:0|0:0,0:0:0:0:
176,296,38800,6,0,L|256:304,1,79,2|2,0:0|0:0,0:0:0:0:
328,352,39400,1,2,0:0:0:0:
328,352,39638,2,0,L|408:340,1,79,2|2,0:0|0:0,0:0:0:0:
424,252,40495,2,0,L|344:240,1,79,2|2,0:0|0:0,0:0:0:0:
152,216,41364,1,2,0:0:0:0:
152,216,42297,5,2,0:0:0:0:
128,112,42763,1,2,0:0:0:0:
152,216,43239,6,0,B|356:192|356:192|400:252|400:252|440:188|440:188|364:68|364:68|284:116|284:116|240:304|240:304|348:324|348:324|320:276,1,948.000036163331,2|2,0:0|0:0,0:0:0:0:
416,64,52730,5,4,0:1:0:0:
412,92,53130,5,4,0:1:0:0:
400,180,53530,5,4,0:1:0:0:
404,152,53730,1,4,0:1:0:0:
408,124,53930,1,4,0:1:0:0:
312,36,54130,5,0,1:2:0:0:
236,24,54230,5,0,1:2:0:0:
184,80,54330,6,0,P|80:140|44:40,1,237.000009040833,6|0,1:2|0:0,0:0:0:0:
37,60,54630,2,0,P|58:92|59:131,1,79,10|0,0:0|0:0,0:0:0:0:
16,336,54930,6,0,P|96:260|212:284,1,237,10|0,0:0|0:0,0:0:0:0:
244,356,55330,2,0,P|200:364|168:348,1,79,8|0,0:3|0:0,0:0:0:0:
211,283,55530,5,8,0:0:0:0:
215,267,55630,1,0,1:2:0:0:
272,192,55730,5,0,1:2:0:0:
276,208,55830,1,0,1:2:0:0:
291,285,55930,6,0,L|275:205,1,79,10|0,0:0|0:0,0:0:0:0:
346,188,56130,2,0,L|362:266,1,79,0|0,1:2|1:2,0:0:0:0:
428,44,56330,6,0,P|428:96|408:132,1,94.7999971069337,10|0,0:0|0:0,0:0:0:0:
327,111,56530,2,0,P|327:64|352:24,1,94.7999971069337,0|0,1:2|1:2,0:0:0:0:
211,283,56730,6,0,B|239:231|239:231|231:171,1,118.500004520416,10|0,0:0|0:0,0:0:0:0:
147,156,56930,2,0,B|119:208|119:208|127:267,1,118.500004520416,0|0,1:2|1:2,0:0:0:0:
52,36,57130,6,0,L|192:16,1,142.199995660401,10|0,0:0|0:0,0:0:0:0:
208,96,57330,2,0,L|68:116,1,142.199995660401,0|0,1:2|1:2,0:0:0:0:
7,243,57530,6,0,B|-21:203|-21:203|51:171|111:199|127:267,1,237.000009040833,14|0,0:0|0:0,0:0:0:0:
132,294,57830,2,0,L|212:282,1,79,10|0,0:0|0:0,0:0:0:0:
404,324,58130,6,0,B|444:376|444:376|272:340,1,237,10|0,0:0|0:0,0:0:0:0:
276,340,58530,2,0,L|264:260,1,79,8|0,0:0|0:0,0:0:0:0:
364,132,58730,5,8,0:0:0:0:
368,152,58830,1,0,1:2:0:0:
332,220,58930,5,0,1:2:0:0:
336,240,59030,1,0,1:2:0:0:
492,264,59130,6,0,L|412:248,1,79,10|0,0:0|0:0,0:0:0:0:
481,339,59330,2,0,L|403:323,1,79,0|0,1:2|1:2,0:0:0:0:
164,236,59530,6,0,P|204:212|252:216,1,94.7999971069337,10|0,0:0|0:0,0:0:0:0:
185,312,59730,2,0,P|231:316|272:292,1,94.7999971069337,0|0,1:2|1:2,0:0:0:0:
368,112,59930,5,10,0:0:0:0:
364,132,60030,1,8,1:3:0:0:
328,200,60130,5,0,1:2:0:0:
332,220,60230,1,0,1:2:0:0:
484,104,60330,6,0,B|308:80|308:80|300:72|300:72|64:40,1,426.599986981202,10|0,0:0|0:0,0:0:0:0:
64,40,60730,6,0,L|76:136,1,94.7999971069337,6|0,1:2|0:0,0:0:0:0:
144,32,60930,2,0,L|156:128,1,94.7999971069337,10|0,0:0|0:0,0:0:0:0:
184,280,61130,5,2,1:2:0:0:
104,264,61230,1,0,1:2:0:0:
48,328,61330,2,0,P|24:276|36:216,1,118.5,8|0,0:0|0:0,0:0:0:0:
20,196,61530,6,0,P|112:196|172:124,1,189.599994213867,2|8,1:2|0:0,0:0:0:0:
224,20,61830,2,0,P|284:92|376:92,1,189.599994213867,2|0,0:0|1:2,0:0:0:0:
500,172,62130,2,0,P|452:172|416:200,1,94.7999971069337,10|0,0:0|0:0,0:0:0:0:
356,296,62330,5,0,1:2:0:0:
356,296,62430,1,0,0:0:0:0:
272,264,62530,6,0,L|176:280,1,94.7999971069337,10|0,0:0|0:0,0:0:0:0:
284,348,62730,2,0,L|188:364,1,94.7999971069337,2|0,1:2|1:2,0:0:0:0:
20,196,62930,1,8,0:0:0:0:
100,220,63030,1,0,0:0:0:0:
168,160,63130,6,0,P|188:60|80:24,1,237.000009040833,2|8,1:2|0:0,0:0:0:0:
100,220,63430,2,0,B|172:244|228:188|192:200|256:148|324:180,1,237.000009040833,2|0,0:0|1:2,0:0:0:0:
360,304,63730,2,0,P|304:312|280:264,1,118.500004520416,8|0,0:0|0:0,0:0:0:0:
396,16,63930,5,4,1:2:0:0:
396,16,64030,1,0,0:0:0:0:
424,96,64130,6,0,L|412:180,1,79,10|0,0:0|0:0,0:0:0:0:
348,84,64330,2,0,L|336:168,1,79,2|0,1:2|1:2,0:0:0:0:
364,288,64530,5,8,0:0:0:0:
360,304,64630,1,0,0:0:0:0:
372,268,64730,6,0,P|316:336|220:336,1,189.599994213867,2|8,1:2|0:0,0:0:0:0:
100,220,65030,2,0,P|191:221|251:151,1,189.599994213867,2|0,0:0|1:2,0:0:0:0:
224,20,65330,2,0,B|208:0|208:0|200:68,1,94.7999971069337,10|0,0:0|0:0,0:0:0:0:
251,150,65530,6,0,L|347:134,1,94.7999971069337,0|0,1:2|0:0,0:0:0:0:
263,226,65730,2,0,L|359:210,1,94.7999971069337,10|0,0:0|0:0,0:0:0:0:
468,368,65930,2,0,P|372:368|316:292,1,189.599994213867,2|8,1:2|0:0,0:0:0:0:
172,196,66230,1,0,0:0:0:0:
172,196,66330,2,0,L|156:292,1,94.7999971069337,2|0,1:2|0:0,0:0:0:0:
88,64,66530,5,8,0:0:0:0:
148,112,66630,1,8,0:0:0:0:
199,68,66730,1,8,0:0:0:0:
255,88,66830,1,8,0:0:0:0:
295,56,66930,1,10,0:0:0:0:
319,64,67030,1,10,0:0:0:0:
332,60,67130,6,0,B|364:28|364:28|344:140,1,158,6|8,1:2|0:0,0:0:0:0:
464,224,67430,1,0,0:0:0:0:
464,224,67530,2,0,P|424:208|388:208,1,79,2|0,1:2|1:2,0:0:0:0:
252,368,67730,5,10,0:0:0:0:
264,364,67830,2,0,P|292:316|292:216,1,158,2|0,0:0|0:0,0:0:0:0:
291,215,68130,2,0,L|208:200,1,79,8|0,0:0|0:0,0:0:0:0:
116,308,68330,1,0,1:2:0:0:
112,284,68430,1,2,1:2:0:0:
108,264,68530,2,0,L|96:184,1,79,10|0,0:0|0:0,0:0:0:0:
212,47,68730,6,0,B|204:103|204:103|220:139|220:139|212:203,1,158,2|8,1:2|0:0,0:0:0:0:
40,84,69030,1,0,0:0:0:0:
48,96,69130,2,0,P|92:96|124:76,1,79,0|0,1:2|1:2,0:0:0:0:
288,0,69330,5,10,0:0:0:0:
308,88,69430,1,0,0:0:0:0:
388,56,69530,2,0,P|352:128|352:208,1,158,2|8,1:2|0:0,0:0:0:0:
460,300,69830,1,0,1:2:0:0:
460,300,69930,2,0,L|380:284,1,79,2|0,1:2|1:2,0:0:0:0:
68,372,70130,5,10,0:0:0:0:
128,312,70230,1,2,0:0:0:0:
204,336,70330,2,0,B|232:288|232:288|220:184,1,158,6|8,1:2|0:0,0:0:0:0:
168,28,70630,1,0,0:0:0:0:
176,36,70730,2,0,P|184:76|176:112,1,79,0|0,1:2|1:2,0:0:0:0:
4,184,70930,5,10,0:0:0:0:
76,148,71030,1,2,0:0:0:0:
142,197,71130,2,0,L|222:185,1,79,2|0,1:2|1:2,0:0:0:0:
154,273,71330,2,0,L|234:261,1,79,10|0,0:0|1:2,0:0:0:0:
444,344,71530,6,0,P|368:360|316:308,1,158,2|10,1:2|0:0,0:0:0:0:
320,168,71830,1,2,0:0:0:0:
400,200,71930,2,0,L|244:220,1,158,2|8,1:2|0:0,0:0:0:0:
242,228,72230,1,2,0:0:0:0:
216,304,72330,5,2,1:2:0:0:
176,276,72430,1,2,0:0:0:0:
156,232,72530,1,10,0:0:0:0:
168,184,72630,1,2,0:0:0:0:
204,148,72730,1,0,1:2:0:0:
224,104,72830,1,0,0:0:0:0:
220,68,72930,1,10,0:0:0:0:
204,44,73030,1,2,0:0:0:0:
192,36,73130,5,10,0:0:0:0:
204,88,73230,1,10,0:3:0:0:
256,116,73330,1,10,0:3:0:0:
320,108,73430,1,10,0:3:0:0:
368,40,73530,6,0,B|420:0|480:16|480:16|500:52,1,158,6|8,1:2|0:0,0:0:0:0:
484,164,73830,1,0,0:0:0:0:
484,164,73930,2,0,L|404:148,1,79,2|0,1:2|1:2,0:0:0:0:
304,292,74130,1,10,0:0:0:0:
350,372,74230,2,0,P|392:320|376:232,1,158,2|2,0:0|0:0,0:0:0:0:
320,168,74530,2,0,L|240:180,1,79,8|0,0:0|0:0,0:0:0:0:
192,360,74730,1,0,1:2:0:0:
140,304,74830,1,0,1:2:0:0:
60,324,74930,2,0,L|68:240,1,79,10|0,0:0|0:0,0:0:0:0:
16,128,75130,6,0,B|60:160|60:160|168:144,1,158,2|8,1:2|0:0,0:0:0:0:
289,46,75430,1,0,0:0:0:0:
289,46,75530,2,0,P|245:46|217:70,1,79,0|0,1:2|1:2,0:0:0:0:
240,180,75730,5,10,0:0:0:0:
320,192,75830,1,8,0:0:0:0:
400,204,75930,5,10,0:0:0:0:
352,220,76030,1,8,0:0:0:0:
304,236,76130,1,8,0:0:0:0:
256,252,76230,1,8,0:0:0:0:
216,328,76330,5,8,0:0:0:0:
254,340,76430,1,8,0:0:0:0:
292,353,76530,1,10,0:0:0:0:
331,366,76630,1,10,0:0:0:0:
396,300,76730,5,6,1:2:0:0:
396,300,77330,5,2,0:0:0:0:
388,264,77430,1,2,0:0:0:0:
380,228,77530,6,0,P|424:160|408:88,1,158,10|0,0:0|1:2,0:0:0:0:
328,72,77830,2,0,P|284:140|300:212,1,158,8|0,0:0|1:2,0:0:0:0:
368,64,78130,1,10,0:0:0:0:
368,64,78230,1,2,0:0:0:0:
268,148,78330,6,0,B|216:168|216:168|176:168|156:136|164:96,1,158,6|0,1:2|1:2,0:0:0:0:
192,16,78630,2,0,B|235:51|235:51|255:85|237:118|198:132,1,158,8|0,0:0|1:2,0:0:0:0:
56,256,78930,6,0,B|116:224|192:272|132:272|208:320|276:296,1,237,8|0,0:0|0:0,0:0:0:0:
320,168,79330,5,8,0:0:0:0:
316,188,79430,1,8,0:0:0:0:
364,260,79530,5,8,0:3:0:0:
360,280,79630,1,8,0:3:0:0:
276,295,79730,5,10,0:3:0:0:
272,315,79830,1,10,0:3:0:0:
200,131,79930,6,0,B|288:115|288:115|336:131|336:131|432:115,1,237.000009040833,6|2,1:2|0:0,0:0:0:0:
448,256,80530,1,0,1:2:0:0:
448,256,80630,1,0,1:2:0:0:
448,256,80730,2,0,P|404:216|344:208,1,118.500004520416,10|0,0:0|0:0,0:0:0:0:
308,380,81130,2,0,P|277:330|280:271,1,118.500004520416,2|0,1:2|0:0,0:0:0:0:
444,156,81530,6,0,P|356:172|300:112,1,177.750006780625,2|0,1:2|1:2,0:0:0:0:
300,36,81930,2,0,L|296:100,1,59.2500022602082,2|0,0:0|0:0,0:0:0:0:
332,256,82130,1,2,1:2:0:0:
316,260,82230,1,2,1:2:0:0:
300,264,82330,1,8,0:0:0:0:
208,228,82530,1,0,1:2:0:0:
160,296,82730,1,8,0:3:0:0:
43,267,82930,1,2,0:0:0:0:
39,251,83030,1,2,0:0:0:0:
35,235,83130,6,0,B|107:223|107:223|139:239|139:239|211:227,1,177.750006780625,6|0,1:2|0:0,0:0:0:0:
276,280,83530,2,0,P|288:220|260:168,1,118.500004520416,2|0,0:0|1:2,0:0:0:0:
440,64,83930,6,0,L|428:244,1,177.750006780625,10|0,0:0|0:0,0:0:0:0:
383,307,84330,2,0,P|331:275|267:283,1,118.500004520416,2|0,1:2|0:0,0:0:0:0:
16,344,84730,6,0,L|140:328,1,118.500004520416,2|0,1:2|0:0,0:0:0:0:
208,228,85030,2,0,L|84:212,1,118.500004520416,2|0,1:2|0:0,0:0:0:0:
16,184,85330,2,0,B|0:156|0:156|8:124,1,59.2500022602082,2|0,1:2|0:0,0:0:0:0:
68,76,85530,6,0,L|192:64,1,118.500004520416,8|0,0:0|1:2,0:0:0:0:
208,80,85830,1,0,1:2:0:0:
252,12,85930,2,0,L|376:0,1,118.500004520416,8|2,0:0|1:2,0:0:0:0:
504,96,86230,5,2,0:0:0:0:
464,28,86330,2,0,P|408:116|432:240,1,237.000009040833,6|2,1:2|0:0,0:0:0:0:
500,368,86930,1,0,1:2:0:0:
492,356,87030,1,0,1:2:0:0:
488,344,87130,2,0,P|428:360|376:344,1,118.500004520416,10|0,0:0|0:0,0:0:0:0:
295,162,87530,2,0,L|275:278,1,118.500004520416,2|0,1:2|0:0,0:0:0:0:
196,348,87930,6,0,B|168:312|112:312|112:312|84:344|36:344,1,177.750006780625,2|0,1:2|1:2,0:0:0:0:
38,343,88330,2,0,L|28:280,1,59.2500022602082,2|0,0:0|0:0,0:0:0:0:
8,112,88530,1,2,1:2:0:0:
80,168,88630,1,2,0:0:0:0:
80,168,88730,6,0,L|96:104,1,59.2500022602082,8|0,0:0|0:0,0:0:0:0:
176,20,88930,2,0,L|190:77,1,59.2500022602082,0|0,1:2|1:2,0:0:0:0:
256,164,89130,1,8,0:3:0:0:
260,144,89230,1,8,0:3:0:0:
336,36,89330,1,10,0:3:0:0:
340,56,89430,1,8,0:3:0:0:
456,160,89530,6,0,L|336:140,1,118.500004520416,6|0,1:2|0:0,0:0:0:0:
232,256,89830,2,0,P|288:256|332:216,1,118.500004520416,2|0,1:2|0:0,0:0:0:0:
156,64,90130,2,0,L|164:128,1,59.2500022602082,2|0,1:2|0:0,0:0:0:0:
324,274,90330,2,0,L|331:215,1,59.2500022602082,10|0,0:0|0:0,0:0:0:0:
320,52,90530,5,8,0:3:0:0:
332,56,90596,5,8,0:3:0:0:
344,60,90663,5,8,0:3:0:0:
356,64,90730,5,10,0:0:0:0:
356,64,91130,6,0,L|348:128,1,59.2500022602082,10|0,0:0|0:0,0:0:0:0:
156,64,91330,2,0,L|164:128,1,59.2500022602082,10|0,0:0|0:0,0:0:0:0:
364,148,91530,6,0,L|356:212,1,59.2500022602082,10|0,0:0|0:0,0:0:0:0:
148,148,91730,2,0,L|156:212,1,59.2500022602082,10|0,0:0|0:0,0:0:0:0:
372,232,91930,6,0,L|364:296,1,59.2500022602082,10|0,0:0|0:0,0:0:0:0:
140,232,92130,2,0,L|148:296,1,59.2500022602082,10|0,0:0|0:0,0:0:0:0:
380,316,92330,6,0,L|372:380,1,59.2500022602082,8|0,0:0|0:0,0:0:0:0:
132,316,92530,2,0,L|140:380,1,59.2500022602082,10|0,0:0|0:0,0:0:0:0:
372,232,92730,6,0,P|401:233|429:243,1,59.2500022602082,8|0,0:0|0:0,0:0:0:0:
140,232,92930,2,0,P|111:233|83:243,1,59.2500022602082,10|0,0:0|0:0,0:0:0:0:
396,152,93130,6,0,P|421:138|450:133,1,59.2500022602082,10|0,0:0|0:0,0:0:0:0:
116,152,93330,2,0,P|90:138|61:133,1,59.2500022602082,8|0,0:0|0:0,0:0:0:0:
352,80,93530,6,0,P|368:44|384:28,1,59.2500022602082,10|0,0:0|0:0,0:0:0:0:
160,80,93730,2,0,P|144:44|128:28,1,59.2500022602082,8|0,0:0|0:0,0:0:0:0:
256,0,93930,6,0,L|256:60,1,59.2500022602082,10|0,0:0|0:0,0:0:0:0:
256,384,94130,2,0,L|256:324,1,59.2500022602082,10|0,0:0|0:0,0:0:0:0:
256,59,94330,5,4,0:0:0:0:
291,44,94430,1,0,0:0:0:0:
339,40,94530,1,2,1:2:0:0:
406,59,94630,1,2,1:2:0:0:
456,115,94730,1,2,1:2:0:0:
473,195,94830,1,2,1:2:0:0:
445,273,94930,1,2,1:2:0:0:
382,321,95030,1,2,1:2:0:0:
297,326,95130,5,2,1:2:0:0:
216,276,95230,1,2,1:2:0:0:
185,181,95330,1,2,1:2:0:0:
220,83,95430,1,2,1:2:0:0:
318,37,95530,1,2,1:2:0:0:
417,65,95630,1,2,1:2:0:0:
473,156,95730,1,2,1:2:0:0:
441,276,95830,1,2,1:2:0:0:
339,326,95930,5,0,1:0:0:0:
276,292,96030,1,8,0:3:0:0:
335,253,96130,1,10,0:3:0:0:
384,212,96230,1,8,0:3:0:0:
329,181,96330,1,10,0:3:0:0:
292,144,96430,1,10,0:3:0:0:
324,109,96530,1,0,1:2:0:0:
308,72,96630,1,0,1:2:0:0:
318,37,96730,6,2,L|316:12,20,14.8125005650521,10|2|2|2|2|2|2|2|2|2|2|2|2|2|2|2|2|2|2|2|2,0:0|0:0|0:0|0:0|0:0|0:0|0:0|0:0|0:0|0:0|0:0|0:0|0:0|0:0|0:0|0:0|0:0|0:0|0:0|0:0|0:0,0:0:0:0:
220,20,97330,5,2,0:0:0:0:
196,120,97430,1,2,0:0:0:0:
224,8,97530,6,0,B|96:-8|140:88|4:72,1,237.000009040833,6|8,1:2|0:0,0:0:0:0:
5,72,97830,1,0,0:0:0:0:
164,212,97930,2,0,P|216:212|260:184,1,102.699995298767,0|0,1:2|1:2,0:0:0:0:
316,22,98130,2,0,L|336:124,1,102.699995298767,10|0,0:0|0:0,0:0:0:0:
460,332,98330,6,0,B|512:308|512:308|300:276,1,205.399990597535,2|8,1:2|0:0,0:0:0:0:
110,272,98630,2,0,P|206:272|258:184,1,205.399990597535,2|0,0:0|1:2,0:0:0:0:
211,18,98930,2,0,L|195:122,1,102.699995298767,10|0,0:0|0:0,0:0:0:0:
459,197,99130,6,0,B|379:185|379:185|351:197|351:197|255:185,1,205.399990597535,6|8,1:2|0:0,0:0:0:0:
147,33,99430,1,2,0:0:0:0:
147,33,99530,2,0,P|187:81|195:125,1,102.699995298767,0|0,1:2|1:2,0:0:0:0:
168,280,99730,2,0,B|188:264|188:264|112:272,1,102.699995298767,10|0,0:0|0:0,0:0:0:0:
0,104,99930,6,0,B|112:76|84:164|200:132,1,205.399990597535,2|8,1:2|0:0,0:0:0:0:
316,22,100230,1,0,0:0:0:0:
316,22,100330,2,0,L|300:126,1,102.699995298767,0|0,1:2|1:2,0:0:0:0:
472,240,100530,1,10,0:0:0:0:
392,208,100630,1,0,0:0:0:0:
272,351,100730,6,0,B|308:319|364:335|364:335|372:347|372:347|420:363|460:331,1,205.399990597535,6|8,1:2|0:0,0:0:0:0:
448,136,101030,1,0,0:0:0:0:
448,136,101130,2,0,P|399:120|350:132,1,102.699995298767,2|0,1:2|1:2,0:0:0:0:
335,279,101330,2,0,P|383:294|432:282,1,102.699995298767,8|0,0:0|0:0,0:0:0:0:
504,76,101530,6,0,B|392:104|420:16|304:48,1,205.399990597535,6|8,1:2|0:0,0:0:0:0:
251,157,101830,1,0,0:0:0:0:
180,87,101930,2,0,B|148:127|152:183,1,102.699995298767,2|0,1:2|1:2,0:0:0:0:
322,227,102130,2,0,B|354:187|350:131,1,102.699995298767,8|0,0:0|0:0,0:0:0:0:
56,340,102330,6,0,B|172:356|128:284|248:292,1,205.399990597535,6|8,1:2|0:0,0:0:0:0:
392,376,102630,1,0,0:0:0:0:
392,376,102730,2,0,P|396:320|416:276,1,102.699995298767,0|0,1:2|1:2,0:0:0:0:
299,128,102930,2,0,P|318:175|321:226,1,102.699995298767,10|0,0:0|0:0,0:0:0:0:
476,88,103130,2,0,L|372:72,1,102.699995298767,6|0,1:2|0:0,0:0:0:0:
120,12,103330,5,8,0:0:0:0:
48,80,103430,1,0,0:0:0:0:
168,104,103530,1,8,0:3:0:0:
72,164,103630,1,8,0:3:0:0:
148,216,103730,1,8,0:3:0:0:
96,284,103830,1,8,0:3:0:0:
112,312,103930,6,0,B|192:304|192:304|224:328|224:328|308:320,1,205.399990597535,6|8,1:2|0:0,0:0:0:0:
496,308,104230,1,0,0:0:0:0:
496,308,104330,2,0,P|440:312|396:288,1,102.699995298767,0|0,1:2|1:2,0:0:0:0:
374,72,104530,2,0,L|350:176,1,102.699995298767,10|0,0:0|0:0,0:0:0:0:
308,319,104730,6,0,B|200:335|236:251|120:263,2,205.399990597535,2|10|2,1:2|0:0|1:2,0:0:0:0:
252,204,105230,1,0,0:0:0:0:
252,204,105330,2,0,P|272:152|260:92,1,102.699995298767,10|0,0:0|0:0,0:0:0:0:
120,12,105530,6,0,L|140:220,1,205.399990597535,2|8,1:2|0:0,0:0:0:0:
139,216,105830,1,0,0:0:0:0:
40,360,105930,2,0,P|88:332|136:332,1,102.699995298767,0|0,1:2|1:2,0:0:0:0:
308,319,106130,2,0,P|257:317|214:290,1,102.699995298767,10|0,0:0|0:0,0:0:0:0:
307,136,106330,6,0,B|267:180|271:224|271:224|316:250|307:320,1,205.399990597535,2|10,1:2|0:0,0:0:0:0:
464,220,106630,1,0,0:0:0:0:
464,220,106730,2,0,P|424:200|364:200,1,102.699995298767,2|0,1:2|1:2,0:0:0:0:
360,40,106930,1,10,0:0:0:0:
356,48,107030,1,0,0:0:0:0:
352,60,107130,6,0,P|272:56|212:140,1,189.599994213867,6|0,1:2|0:0,0:0:0:0:
130,191,107430,2,0,L|316:152,1,189.599994213867,6|0,1:2|0:0,0:0:0:0:
444,308,107730,2,0,P|393:308|346:287,1,94.7999971069337,6|0,1:2|0:0,0:0:0:0:
120,12,107930,5,10,1:2:0:0:
148,340,108230,1,10,1:2:0:0:
444,144,108530,1,10,1:2:0:0:
316,152,108730,6,0,L|216:136,1,94.7999971069337,6|0,1:2|0:0,0:0:0:0:
0,112,108930,1,8,0:0:0:0:
76,60,109030,1,8,0:0:0:0:
92,244,109130,5,8,0:0:0:0:
8,204,109230,1,8,0:0:0:0:
159,99,109330,5,0,1:2:0:0:
167,191,109430,1,0,1:2:0:0:
128,328,109530,6,0,P|80:336|16:296,1,94.7999971069337,10|8,0:0|0:3,0:0:0:0:
92,244,109730,1,8,0:3:0:0:
112,236,109830,1,10,0:3:0:0:
140,224,109930,5,8,0:0:0:0:
224,208,110030,1,8,0:0:0:0:
284,296,110130,1,10,0:0:0:0:
400,272,110230,1,8,0:0:0:0:
448,384,110330,6,0,P|424:264|440:152,1,237.000009040833,6|8,1:2|0:0,0:0:0:0:
440,151,110630,1,0,0:0:0:0:
512,84,110730,2,0,P|468:60|416:64,1,102.699995298767,0|0,1:2|1:2,0:0:0:0:
184,40,110930,5,10,0:0:0:0:
268,12,111030,1,0,0:0:0:0:
328,76,111130,2,0,P|336:172|300:276,1,205.399990597535,2|8,1:2|0:0,0:0:0:0:
200,341,111430,2,0,L|408:293,1,205.399990597535,2|0,0:0|1:2,0:0:0:0:
400,294,111730,2,0,P|348:289|300:273,1,102.699995298767,10|0,0:0|0:0,0:0:0:0:
32,180,111930,6,0,B|152:156|108:232|232:208,1,205.399990597535,6|8,1:2|0:0,0:0:0:0:
228,208,112230,1,2,0:0:0:0:
228,120,112330,2,0,P|233:64|261:28,1,102.699995298767,0|0,1:2|1:2,0:0:0:0:
345,63,112530,2,0,P|339:118|311:154,1,102.699995298767,8|0,0:0|0:0,0:0:0:0:
200,341,112730,6,0,B|320:365|276:289|400:313,1,205.399990597535,2|8,1:2|0:0,0:0:0:0:
480,372,113030,1,0,0:0:0:0:
480,372,113130,2,0,L|500:272,1,102.699995298767,0|0,1:2|1:2,0:0:0:0:
380,204,113330,1,10,0:0:0:0:
396,312,113430,1,0,0:0:0:0:
484,168,113530,6,0,L|280:140,1,205.399990597535,6|8,1:2|0:0,0:0:0:0:
280,140,113830,1,0,0:0:0:0:
52,40,113930,6,0,B|88:40|112:24|112:24|180:76|140:148,1,205.399990597535,2|8,1:2|0:0,0:0:0:0:
0,260,114230,1,0,0:0:0:0:
0,260,114330,6,0,B|60:240|60:240|128:272|128:272|196:252,1,205.399990597535,6|8,1:2|0:0,0:0:0:0:
364,304,114630,1,0,0:0:0:0:
296,248,114730,6,0,P|276:300|292:356,1,102.699995298767,2|0,1:2|1:2,0:0:0:0:
432,360,114930,2,0,P|452:308|436:252,1,102.699995298767,8|0,0:0|0:0,0:0:0:0:
488,164,115130,5,6,1:2:0:0:
448,188,115230,1,0,0:0:0:0:
360,184,115330,1,8,0:0:0:0:
296,120,115430,1,0,0:0:0:0:
260,40,115530,1,0,1:2:0:0:
172,8,115630,1,0,1:2:0:0:
84,24,115730,1,8,0:0:0:0:
32,88,115830,1,0,0:0:0:0:
32,136,115930,6,0,L|52:236,1,102.699995298767,6|0,1:2|0:0,0:0:0:0:
160,360,116130,2,0,L|180:260,1,102.699995298767,8|0,0:0|0:0,0:0:0:0:
329,197,116330,5,0,1:2:0:0:
288,276,116430,1,0,0:0:0:0:
320,356,116530,1,8,0:0:0:0:
404,376,116630,1,8,0:0:0:0:
468,332,116730,6,0,P|472:228|500:132,1,205.399990597535,6|8,1:2|0:0,0:0:0:0:
500,131,117030,2,0,P|426:201|371:288,1,205.399990597535,2|0,0:0|1:2,0:0:0:0:
371,288,117330,2,0,P|359:235|327:195,1,102.699995298767,10|0,0:0|0:0,0:0:0:0:
329,197,117530,6,0,P|248:256|144:276,1,205.399990597535,2|8,1:2|0:0,0:0:0:0:
68,96,117830,1,0,0:2:0:0:
68,96,117930,2,0,P|104:136|116:184,1,102.699995298767,2|0,1:2|1:2,0:0:0:0:
40,312,118130,2,0,L|144:292,1,102.699995298767,10|0,0:0|1:2,0:0:0:0:
308,224,118330,6,0,B|196:252|228:168|112:196,1,205.399990597535,2|8,1:2|0:0,0:0:0:0:
272,136,118630,1,2,0:0:0:0:
272,136,118730,2,0,P|292:88|288:36,1,102.699995298767,0|0,1:2|1:0,0:0:0:0:
146,276,118930,2,0,L|166:376,1,102.699995298767,10|0,0:0|0:0,0:0:0:0:
464,280,119130,5,10,0:0:0:0:
384,324,119230,1,8,0:0:0:0:
300,304,119330,1,8,0:3:0:0:
252,232,119430,1,8,0:3:0:0:
256,164,119530,1,8,0:3:0:0:
272,136,119630,1,8,0:3:0:0:
332,100,119730,5,10,0:3:0:0:
358,212,119830,1,10,0:3:0:0:
384,324,119930,6,0,P|276:260|168:280,1,237,6|2,1:2|0:0,0:0:0:0:
68,356,120330,2,0,L|84:276,1,79
40,108,120530,2,0,P|28:145|31:184,1,79,2|0,1:2|1:2,0:0:0:0:
274,76,120730,6,0,L|38:108,1,237,10|0,0:0|0:0,0:0:0:0:
39,107,121130,2,0,P|119:143|159:199,1,158,2|0,1:2|0:0,0:0:0:0:
500,100,121530,6,0,B|360:136|404:40|272:76,1,237,6|2,1:2|1:2,0:0:0:0:
248,168,121930,2,0,L|264:248,1,79
412,344,122130,1,2,1:2:0:0:
324,312,122230,1,0,0:0:0:0:
220,384,122330,2,0,L|204:306,1,79,10|0,0:0|0:0,0:0:0:0:
99,278,122530,5,2,1:2:0:0:
99,286,122596,5,0,1:2:0:0:
95,294,122663,5,0,1:2:0:0:
47,326,122730,6,0,L|203:306,1,158,10|2,0:0|0:0,0:0:0:0:
423,251,123030,1,2,0:0:0:0:
423,251,123130,2,0,P|315:263|247:167,1,237,6|6,1:2|1:2,0:0:0:0:
256,68,123530,2,0,L|264:148,1,79
99,278,123730,2,0,L|106:199,1,79,6|0,1:2|0:0,0:0:0:0:
20,91,123930,6,0,L|256:67,1,237,10|8,0:0|0:0,0:0:0:0:
392,116,124330,2,0,P|320:136|260:88,1,158,2|8,0:0|0:0,0:0:0:0:
99,278,124730,6,0,B|208:260|176:332|284:312,1,189.599994213867,6|8,1:2|0:0,0:0:0:0:
279,312,125030,1,0,0:0:0:0:
320,228,125130,2,0,P|308:176|296:136,1,94.7999971069337,2|0,1:2|1:2,0:0:0:0:
415,24,125330,2,0,P|401:69|391:115,1,94.7999971069337,8|2,0:0|1:2,0:0:0:0:
448,272,125530,5,2,1:2:0:0:
392,228,125630,1,0,0:0:0:0:
320,228,125730,1,8,0:0:0:0:
244,264,125830,1,0,0:0:0:0:
200,340,125930,1,8,0:0:0:0:
120,376,126030,1,8,0:0:0:0:
48,352,126130,1,2,1:2:0:0:
40,332,126230,1,0,1:2:0:0:
12,252,126330,6,0,P|171:256|169:97,1,355.500013561249,6|2,1:2|1:2,0:0:0:0:
140,80,126996,1,0,1:2:0:0:
112,96,127063,1,0,1:2:0:0:
84,116,127130,1,10,0:0:0:0:
84,116,127530,6,0,L|400:88,1,316,2|0,0:0|1:2,0:0:0:0:
464,156,127830,1,0,1:2:0:0:
464,156,127930,6,0,B|388:236|388:236|256:216,1,237.000009040833,6|0,1:2|0:0,0:0:0:0:
262,217,128230,2,0,B|300:196|300:196|336:200,1,79,10|0,0:0|0:0,0:0:0:0:
512,336,128530,6,0,B|436:348|436:348|376:320|376:320|280:336,1,237,10|0,0:0|0:0,0:0:0:0:
216,384,128930,2,0,B|204:344|204:344|212:304,1,79,8|0,0:3|0:0,0:0:0:0:
152,156,129130,5,8,0:0:0:0:
156,176,129230,1,0,1:2:0:0:
108,256,129330,5,0,1:2:0:0:
112,276,129430,1,0,1:2:0:0:
204,305,129530,6,0,P|244:293|284:301,1,79,10|0,0:0|0:0,0:0:0:0:
286,375,129730,2,0,P|248:387|210:381,1,79,0|0,1:2|1:2,0:0:0:0:
476,244,129930,6,0,L|380:232,1,94.7999971069337,10|0,0:0|0:0,0:0:0:0:
376,312,130130,2,0,L|470:323,1,94.7999971069337,0|0,1:2|1:2,0:0:0:0:
308,48,130330,6,0,P|300:108|320:164,1,118.500004520416,10|0,0:0|0:0,0:0:0:0:
410,152,130530,2,0,P|418:93|399:38,1,118.500004520416,0|0,1:2|1:2,0:0:0:0:
212,16,130730,6,0,L|68:4,1,142.199995660401,10|0,0:0|0:0,0:0:0:0:
60,88,130930,2,0,L|204:100,1,142.199995660401,0|0,1:2|1:2,0:0:0:0:
340,272,131130,6,0,B|376:312|376:312|192:296,1,237.000009040833,14|0,0:0|0:0,0:0:0:0:
193,296,131430,2,0,B|217:264|217:264|225:304,1,79,10|0,0:0|0:0,0:0:0:0:
112,192,131730,6,0,P|232:208|296:124,1,237,10|0,0:0|0:0,0:0:0:0:
292,24,132130,2,0,P|284:68|292:104,1,79,8|0,0:0|0:0,0:0:0:0:
400,160,132330,1,8,0:0:0:0:
428,164,132430,1,0,1:2:0:0:
500,88,132530,1,0,1:2:0:0:
472,92,132630,1,0,1:2:0:0:
436,244,132730,6,0,L|448:324,1,79,10|0,0:0|0:0,0:0:0:0:
348,256,132930,2,0,L|360:336,1,79,0|0,1:2|1:2,0:0:0:0:
278,191,133130,6,0,B|306:147|290:99,1,94.7999971069337,10|0,0:0|0:0,0:0:0:0:
194,179,133330,2,0,B|178:132|206:88,1,94.7999971069337,0|0,1:2|1:2,0:0:0:0:
132,356,133530,6,0,P|168:344|192:344,1,63.1999980712891,10|0,0:0|0:0,0:0:0:0:
256,284,133663,2,0,P|285:294|317:294,1,63.1999980712891,8|0,1:3|1:2,0:0:0:0:
460,368,133796,1,0,1:2:0:0:
456,356,133863,1,0,1:2:0:0:
452,340,133930,2,0,B|472:252|448:208|352:244|280:124|376:28|488:80|476:172|404:212,1,426.599986981202,10|0,0:0|0:0,0:0:0:0:
256,284,134330,6,0,L|160:272,1,94.7999971069337,6|0,1:2|0:0,0:0:0:0:
244,368,134530,2,0,L|148:356,1,94.7999971069337,10|0,0:0|0:0,0:0:0:0:
24,220,134730,1,2,1:2:0:0:
112,248,134830,1,0,1:2:0:0:
176,180,134930,2,0,L|192:60,1,118.5,8|0,0:0|0:0,0:0:0:0:
184,48,135130,6,0,B|292:28|252:104|364:80,1,189.599994213867,2|8,1:2|0:0,0:0:0:0:
496,188,135430,2,0,P|408:168|360:244,1,189.599994213867,2|0,0:0|1:2,0:0:0:0:
416,384,135730,2,0,P|436:332|428:292,1,94.7999971069337,10|0,0:0|0:0,0:0:0:0:
256,200,135930,5,0,1:2:0:0:
256,200,136030,1,0,0:0:0:0:
288,288,136130,2,0,P|296:336|276:376,1,94.7999971069337,10|0,0:0|0:0,0:0:0:0:
192,272,136330,2,0,P|171:314|180:359,1,94.7999971069337,2|0,1:2|1:2,0:0:0:0:
20,232,136530,1,8,0:0:0:0:
100,264,136630,1,0,0:0:0:0:
156,184,136730,6,0,B|184:20|184:20|136:72,1,237.000009040833,2|8,1:2|0:0,0:0:0:0:
100,264,137030,2,0,B|164:216|240:260|200:268|268:300|324:264,1,237.000009040833,2|0,0:0|1:2,0:0:0:0:
304,84,137330,2,0,P|268:124|268:188,1,118.500004520416,8|0,0:0|0:0,0:0:0:0:
458,324,137530,5,4,1:2:0:0:
510,244,137630,1,0,0:0:0:0:
498,156,137730,1,10,0:0:0:0:
422,132,137830,1,0,0:0:0:0:
342,172,137930,1,2,1:2:0:0:
322,264,138030,1,0,1:2:0:0:
410,252,138130,5,8,0:0:0:0:
422,228,138230,1,0,0:0:0:0:
342,172,138330,6,0,B|232:160|272:232|164:220,1,189.599994213867,2|8,1:2|0:0,0:0:0:0:
56,8,138630,2,0,P|136:52|120:136,1,189.599994213867,2|0,0:0|1:2,0:0:0:0:
24,268,138930,2,0,P|80:268|112:292,1,94.7999971069337,10|0,0:0|0:0,0:0:0:0:
180,372,139130,5,8,0:0:0:0:
212,352,139196,1,8,0:0:0:0:
228,316,139263,1,8,0:0:0:0:
260,340,139330,1,10,0:0:0:0:
296,348,139396,2,0,P|328:348|356:332,1,63.1999980712891,0|0,1:2|1:2,0:0:0:0:
488,288,139530,5,10,0:0:0:0:
460,260,139596,1,8,0:0:0:0:
448,224,139663,1,0,1:2:0:0:
456,188,139730,1,0,1:2:0:0:
476,156,139796,2,0,L|412:164,1,63.1999980712891,0|0,1:2|1:2,0:0:0:0:
324,40,139930,5,10,0:2:0:0:
340,68,139996,1,8,0:2:0:0:
340,108,140063,1,8,0:2:0:0:
320,140,140130,1,8,0:2:0:0:
288,156,140196,1,8,0:2:0:0:
252,160,140263,1,0,1:2:0:0:
216,144,140330,2,0,L|116:156,1,94.7999971069337,8|0,0:0|0:0,0:0:0:0:
24,268,140530,5,6,1:2:0:0:
